  0
SECTION
  2
HEADER
  9
$ACADVER
  1
AC1009
  9
$INSBASE
 10
0.0
 20
0.0
 30
0.0
  9
$EXTMIN
 10
-20.014030052773251
 20
-20.010278538662082
 30
-0.0000000000000053
  9
$EXTMAX
 10
440.01404237028328
 20
317.01028756257728
 30
0.0000000000000099
  9
$LIMMIN
 10
0.0
 20
0.0
  9
$LIMMAX
 10
420.0
 20
297.0
  9
$ORTHOMODE
 70
     0
  9
$REGENMODE
 70
     1
  9
$FILLMODE
 70
     1
  9
$QTEXTMODE
 70
     0
  9
$MIRRTEXT
 70
     0
  9
$DRAGMODE
 70
     2
  9
$LTSCALE
 40
5.0
  9
$OSMODE
 70
   295
  9
$ATTMODE
 70
     1
  9
$TEXTSIZE
 40
2.5
  9
$TRACEWID
 40
1.0
  9
$TEXTSTYLE
  7
STANDARD
  9
$CLAYER
  8
DEFPOINTS
  9
$CELTYPE
  6
BYLAYER
  9
$CECOLOR
 62
   256
  9
$DIMSCALE
 40
1.0
  9
$DIMASZ
 40
1.0
  9
$DIMEXO
 40
1.0
  9
$DIMDLI
 40
0.0
  9
$DIMRND
 40
0.0
  9
$DIMDLE
 40
0.0
  9
$DIMEXE
 40
1.0
  9
$DIMTP
 40
0.0
  9
$DIMTM
 40
0.0
  9
$DIMTXT
 40
3.0
  9
$DIMCEN
 40
0.5
  9
$DIMTSZ
 40
0.0
  9
$DIMTOL
 70
     0
  9
$DIMLIM
 70
     0
  9
$DIMTIH
 70
     1
  9
$DIMTOH
 70
     1
  9
$DIMSE1
 70
     0
  9
$DIMSE2
 70
     0
  9
$DIMTAD
 70
     0
  9
$DIMZIN
 70
     8
  9
$DIMBLK
  1

  9
$DIMASO
 70
     1
  9
$DIMSHO
 70
     1
  9
$DIMPOST
  1

  9
$DIMAPOST
  1

  9
$DIMALT
 70
     0
  9
$DIMALTD
 70
     4
  9
$DIMALTF
 40
0.0394
  9
$DIMLFAC
 40
1.0
  9
$DIMTOFL
 70
     1
  9
$DIMTVP
 40
0.0
  9
$DIMTIX
 70
     0
  9
$DIMSOXD
 70
     0
  9
$DIMSAH
 70
     1
  9
$DIMBLK1
  1
DOT
  9
$DIMBLK2
  1
DOT
  9
$DIMSTYLE
  2
STANDARD
  9
$DIMCLRD
 70
     0
  9
$DIMCLRE
 70
     0
  9
$DIMCLRT
 70
     4
  9
$DIMTFAC
 40
1.0
  9
$DIMGAP
 40
1.0
  9
$LUNITS
 70
     2
  9
$LUPREC
 70
     4
  9
$SKETCHINC
 40
1.0
  9
$FILLETRAD
 40
2.0
  9
$AUNITS
 70
     0
  9
$AUPREC
 70
     0
  9
$MENU
  1
.
  9
$ELEVATION
 40
0.0
  9
$PELEVATION
 40
0.0
  9
$THICKNESS
 40
0.0
  9
$LIMCHECK
 70
     0
  9
$BLIPMODE
 70
     0
  9
$CHAMFERA
 40
10.0
  9
$CHAMFERB
 40
10.0
  9
$SKPOLY
 70
     0
  9
$TDCREATE
 40
2451093.5617248849
  9
$TDUPDATE
 40
2457778.4782589809
  9
$TDINDWG
 40
0.1959889815
  9
$TDUSRTIMER
 40
0.1959889815
  9
$USRTIMER
 70
     1
  9
$ANGBASE
 50
0.0
  9
$ANGDIR
 70
     0
  9
$PDMODE
 70
     0
  9
$PDSIZE
 40
0.0
  9
$PLINEWID
 40
0.0
  9
$COORDS
 70
     2
  9
$SPLFRAME
 70
     0
  9
$SPLINETYPE
 70
     6
  9
$SPLINESEGS
 70
     8
  9
$ATTDIA
 70
     0
  9
$ATTREQ
 70
     1
  9
$HANDLING
 70
     1
  9
$HANDSEED
  5
E3B
  9
$SURFTAB1
 70
     6
  9
$SURFTAB2
 70
     6
  9
$SURFTYPE
 70
     6
  9
$SURFU
 70
     6
  9
$SURFV
 70
     6
  9
$UCSNAME
  2

  9
$UCSORG
 10
0.0
 20
0.0
 30
0.0
  9
$UCSXDIR
 10
1.0
 20
0.0
 30
0.0
  9
$UCSYDIR
 10
0.0
 20
1.0
 30
0.0
  9
$PUCSNAME
  2

  9
$PUCSORG
 10
0.0
 20
0.0
 30
0.0
  9
$PUCSXDIR
 10
1.0
 20
0.0
 30
0.0
  9
$PUCSYDIR
 10
0.0
 20
1.0
 30
0.0
  9
$USERI1
 70
     0
  9
$USERI2
 70
     0
  9
$USERI3
 70
     0
  9
$USERI4
 70
     0
  9
$USERI5
 70
     0
  9
$USERR1
 40
0.0
  9
$USERR2
 40
0.0
  9
$USERR3
 40
0.0
  9
$USERR4
 40
0.0
  9
$USERR5
 40
0.0
  9
$WORLDVIEW
 70
     1
  9
$SHADEDGE
 70
     3
  9
$SHADEDIF
 70
    70
  9
$TILEMODE
 70
     1
  9
$MAXACTVP
 70
    48
  9
$PLIMCHECK
 70
     0
  9
$PEXTMIN
 10
1.0000000000000000E+020
 20
1.0000000000000000E+020
 30
1.0000000000000000E+020
  9
$PEXTMAX
 10
-1.0000000000000000E+020
 20
-1.0000000000000000E+020
 30
-1.0000000000000000E+020
  9
$PLIMMIN
 10
0.0
 20
0.0
  9
$PLIMMAX
 10
420.0
 20
297.0
  9
$UNITMODE
 70
     0
  9
$VISRETAIN
 70
     1
  9
$PLINEGEN
 70
     0
  9
$PSLTSCALE
 70
     1
  0
ENDSEC
  0
SECTION
  2
TABLES
  0
TABLE
  2
VPORT
 70
     1
  0
VPORT
  2
*ACTIVE
 70
     0
 10
0.0
 20
0.0
 11
1.0
 21
1.0
 12
210.00000615875501
 22
148.5000045119576
 13
0.0
 23
0.0
 14
10.0
 24
10.0
 15
10.0
 25
10.0
 16
0.0
 26
0.0
 36
1.0
 17
0.0
 27
0.0
 37
0.0
 40
340.19704711390591
 41
1.9107981220657271
 42
50.0
 43
0.0
 44
0.0
 50
0.0
 51
0.0
 71
     0
 72
   100
 73
     1
 74
     0
 75
     0
 76
     0
 77
     0
 78
     0
  0
ENDTAB
  0
TABLE
  2
LTYPE
 70
     6
  0
LTYPE
  2
CONTINUOUS
 70
     0
  3
Solid line
 72
    65
 73
     0
 40
0.0
  0
LTYPE
  2
CENTER
 70
     0
  3
Center ____ _ ____ _ ____ _ ____ _ ____ _ ____
 72
    65
 73
     4
 40
2.0
 49
1.25
 49
-0.25
 49
0.25
 49
-0.25
  0
LTYPE
  2
DASHED
 70
     0
  3
Dashed __ __ __ __ __ __ __ __ __ __ __ __ __ _
 72
    65
 73
     2
 40
0.75
 49
0.5
 49
-0.25
  0
LTYPE
  2
HIDDEN
 70
     0
  3
Hidden __ __ __ __ __ __ __ __ __ __ __ __ __ _
 72
    65
 73
     2
 40
0.375
 49
0.25
 49
-0.125
  0
LTYPE
  2
PHANTOM
 70
     0
  3
Phantom ______  __  __  ______  __  __  ______
 72
    65
 73
     6
 40
2.5
 49
1.25
 49
-0.25
 49
0.25
 49
-0.25
 49
0.25
 49
-0.25
  0
ENDTAB
  0
TABLE
  2
LAYER
 70
     9
  0
LAYER
  2
0
 70
     0
 62
     7
  6
CONTINUOUS
  0
LAYER
  2
CENTER
 70
     0
 62
     6
  6
CENTER
  0
LAYER
  2
HONTAI
 70
     0
 62
     7
  6
CONTINUOUS
  0
LAYER
  2
HONTAIFUKASIBU
 70
     0
 62
     2
  6
DASHED
  0
LAYER
  2
OSAMARISANKOU
 70
     0
 62
     3
  6
PHANTOM
  0
LAYER
  2
TEXT
 70
     0
 62
     4
  6
CONTINUOUS
  0
LAYER
  2
SUNPOU
 70
     0
 62
    11
  6
CONTINUOUS
  0
LAYER
  2
ZUWAKU
 70
     0
 62
     5
  6
CONTINUOUS
  0
LAYER
  2
DEFPOINTS
 70
     0
 62
   252
  6
CONTINUOUS
  0
ENDTAB
  0
TABLE
  2
STYLE
 70
     4
  0
STYLE
  2
STANDARD
 70
     0
 40
0.0
 41
1.0
 50
0.0
 71
     0
 42
2.5
  3
txt.shx
  4
extfont.shx
  0
STYLE
  2
TATE
 70
     4
 40
0.0
 41
1.0
 50
0.0
 71
     0
 42
0.2
  3
txt.shx
  4
extfont.shx
  0
STYLE
  2

 70
     1
 40
0.0
 41
1.0
 50
0.0
 71
     0
 42
2.5
  3
ltypeshp.shx
  4

  0
ENDTAB
  0
TABLE
  2
VIEW
 70
     0
  0
ENDTAB
  0
TABLE
  2
UCS
 70
     0
  0
ENDTAB
  0
TABLE
  2
APPID
 70
     4
  0
APPID
  2
ACAD
 70
     0
  0
APPID
  2
ACAD_EXEMPT_FROM_CAD_STANDARDS
 70
     0
  0
APPID
  2
ACAD_PSEXT
 70
     0
  0
APPID
  2
ACAD_MLEADERVER
 70
     0
  0
ENDTAB
  0
TABLE
  2
DIMSTYLE
 70
     3
  0
DIMSTYLE
  2
STANDARD
 70
     0
  3

  4

  5

  6

  7

 40
1.0
 41
0.18
 42
0.0625
 43
0.38
 44
0.18
 45
0.0
 46
0.0
 47
0.0
 48
0.0
140
0.18
141
0.09
142
0.0
143
25.399999999999999
144
1.0
145
0.0
146
1.0
147
0.09
 71
     0
 72
     0
 73
     1
 74
     1
 75
     0
 76
     0
 77
     0
 78
     0
170
     0
171
     2
172
     0
173
     0
174
     0
175
     0
176
     0
177
     0
178
     0
  0
DIMSTYLE
  2
HOJO
 70
     0
  3

  4

  5

  6
DOT
  7
DOT
 40
1.0
 41
1.0
 42
1.0
 43
0.0
 44
1.0
 45
0.0
 46
0.0
 47
0.0
 48
0.0
140
3.0
141
0.5
142
0.0
143
0.0394
144
1.0
145
0.0
146
1.0
147
1.0
 71
     0
 72
     0
 73
     0
 74
     0
 75
     0
 76
     0
 77
     0
 78
     8
170
     0
171
     4
172
     1
173
     1
174
     0
175
     0
176
     0
177
     0
178
     4
  0
ENDTAB
  0
ENDSEC
  0
SECTION
  2
BLOCKS
  0
BLOCK
  8
0
  2
$MODEL_SPACE
 70
     0
 10
0.0
 20
0.0
 30
0.0
  3
$MODEL_SPACE
  1

  0
ENDBLK
  5
8
  8
0
  0
BLOCK
 67
     1
  8
0
  2
$PAPER_SPACE
 70
     0
 10
0.0
 20
0.0
 30
0.0
  3
$PAPER_SPACE
  1

  0
ENDBLK
  5
D
 67
     1
  8
0
  0
BLOCK
  8
0
  2
_DOT
 70
     0
 10
0.0
 20
0.0
 30
0.0
  3
_DOT
  1

  0
POLYLINE
  5
3B
  8
0
  6
BYBLOCK
 62
     0
 66
     1
 10
0.0
 20
0.0
 30
0.0
 70
     1
 40
0.5
 41
0.5
  0
VERTEX
  5
918
  8
0
  6
BYBLOCK
 62
     0
 10
-0.25
 20
0.0
 30
0.0
 42
1.0
  0
VERTEX
  5
919
  8
0
  6
BYBLOCK
 62
     0
 10
0.25
 20
0.0
 30
0.0
 42
1.0
  0
SEQEND
  5
91A
  8
0
  6
BYBLOCK
 62
     0
  0
LINE
  5
3C
  8
0
  6
BYBLOCK
 62
     0
 10
-0.5
 20
0.0
 30
0.0
 11
-1.0
 21
0.0
 31
0.0
  0
ENDBLK
  5
3E
  8
0
  0
BLOCK
  8
0
  2
LOGO
 70
     0
 10
0.0
 20
0.0
 30
0.0
  3
LOGO
  1

  0
INSERT
  5
33F
  8
0
  6
CONTINUOUS
  2
*X2
 10
0.0
 20
0.0
 30
0.0
1001
ACAD
1000
HATCH
1002
{
1070
    19
1000
ANSI31
1040
1.0
1040
0.0
1000
ASC_BOUNDS
1070
    13
1070
     2
1070
     1
1005
5EC
1070
     2
1070
     1
1005
5ED
1070
     2
1070
     1
1005
5EE
1070
     2
1070
     1
1005
5EF
1070
     2
1070
     1
1005
5F0
1070
     2
1070
     1
1005
5F1
1070
     2
1070
     1
1005
5F2
1070
     2
1070
     1
1005
5F3
1070
     2
1070
     1
1005
5F4
1070
     2
1070
     1
1005
5F5
1070
     2
1070
     1
1005
5F6
1070
     2
1070
     1
1005
5F7
1070
     2
1070
     1
1005
5F8
1000
ASC_SEEDPOINT
1011
0.0
1021
-1.9787017545031763E+177
1031
0.0
1021
0.0
1031
0.0
1002
}
  0
POLYLINE
  5
5EC
  8
0
 66
     1
 10
0.0
 20
0.0
 30
0.0
 70
     1
1001
ACAD
1000
ASC_BOUNDS
1002
{
1070
    19
1005
33F
1002
}
  0
VERTEX
  5
B52
  8
0
 10
20.502194225808442
 20
5.2343525131869049
 30
0.0
  0
VERTEX
  5
B53
  8
0
 10
20.77273379390574
 20
5.2343525131869049
 30
0.0
  0
VERTEX
  5
B54
  8
0
 10
21.584352498197632
 20
5.0343884845932498
 30
0.0
  0
VERTEX
  5
B55
  8
0
 10
21.760791346956751
 20
4.9755755350068682
 30
0.0
  0
VERTEX
  5
B56
  8
0
 10
21.972517965467691
 20
4.9402877652550501
 30
0.0
  0
VERTEX
  5
B57
  8
0
 10
22.537122281496821
 20
4.7873740963304954
 30
0.0
  0
VERTEX
  5
B58
  8
0
 10
23.501654654713288
 20
4.4697841685640753
 30
0.0
  0
VERTEX
  5
B59
  8
0
 10
23.854532352231502
 20
4.3521582693913379
 30
0.0
  0
VERTEX
  5
B5A
  8
0
 10
25.1719424229662
 20
3.7875539533621909
 30
0.0
  0
VERTEX
  5
B5B
  8
0
 10
25.548345300318939
 20
3.5875899247685359
 30
0.0
  0
VERTEX
  5
B5C
  8
0
 10
25.677733789408961
 20
3.540539565099436
 30
0.0
  0
VERTEX
  5
B5D
  8
0
 10
25.842410048250802
 20
3.4346762558439821
 30
0.0
  0
VERTEX
  5
B5E
  8
0
 10
26.124712206265372
 20
3.3052877667539629
 30
0.0
  0
VERTEX
  5
B5F
  8
0
 10
26.701079112211801
 20
2.9641726591530349
 30
0.0
  0
VERTEX
  5
B60
  8
0
 10
26.936330910557281
 20
2.8818345297321168
 30
0.0
  0
VERTEX
  5
B61
  8
0
 10
27.653848895510979
 20
2.4230935229584238
 30
0.0
  0
VERTEX
  5
B62
  8
0
 10
28.006726593029182
 20
2.1760791346956689
 30
0.0
  0
VERTEX
  5
B63
  8
0
 10
28.347841700630141
 20
1.9643525161847319
 30
0.0
  0
VERTEX
  5
B64
  8
0
 10
28.583093498975622
 20
1.7761510775083591
 30
0.0
  0
VERTEX
  5
B65
  8
0
 10
28.759532347734741
 20
1.670287768252904
 30
0.0
  0
VERTEX
  5
B66
  8
0
 10
29.61820141169574
 20
0.964532373216457
 30
0.0
  0
VERTEX
  5
B67
  8
0
 10
29.735827310868469
 20
0.8469064740437204
 30
0.0
  0
VERTEX
  5
B68
  8
0
 10
29.818165440289391
 20
0.8233812942091844
 30
0.0
  0
VERTEX
  5
B69
  8
0
 10
29.935791339462131
 20
0.6587050353673476
 30
0.0
  0
VERTEX
  5
B6A
  8
0
 10
29.935791339462131
 20
0.564604316029147
 30
0.0
  0
VERTEX
  5
B6B
  8
0
 10
29.735827310868469
 20
0.4822661866082285
 30
0.0
  0
VERTEX
  5
B6C
  8
0
 10
28.5948560888929
 20
0.4940287765255107
 30
0.0
  0
VERTEX
  5
B6D
  8
0
 10
28.406654650216531
 20
0.5881294958636829
 30
0.0
  0
VERTEX
  5
B6E
  8
0
 10
27.84205033418738
 20
1.0233453228028391
 30
0.0
  0
VERTEX
  5
B6F
  8
0
 10
26.771654651715441
 20
1.7643884875910769
 30
0.0
  0
VERTEX
  5
B70
  8
0
 10
26.13647479618265
 20
2.1290287750265691
 30
0.0
  0
VERTEX
  5
B71
  8
0
 10
25.47776976081531
 20
2.5289568322138791
 30
0.0
  0
VERTEX
  5
B72
  8
0
 10
24.901402854868881
 20
2.7877338103939162
 30
0.0
  0
VERTEX
  5
B73
  8
0
 10
24.066258970742439
 20
3.1758992776639441
 30
0.0
  0
VERTEX
  5
B74
  8
0
 10
23.44284170512692
 20
3.4111510760094461
 30
0.0
  0
VERTEX
  5
B75
  8
0
 10
23.289928036202362
 20
3.4817266155130819
 30
0.0
  0
VERTEX
  5
B76
  8
0
 10
23.054676237856881
 20
3.5523021550167182
 30
0.0
  0
VERTEX
  5
B77
  8
0
 10
21.83136688646039
 20
3.9404676222867741
 30
0.0
  0
VERTEX
  5
B78
  8
0
 10
20.655107894732989
 20
4.1757194206322481
 30
0.0
  0
VERTEX
  5
B79
  8
0
 10
20.090503578703849
 20
4.2462949601358844
 30
0.0
  0
VERTEX
  5
B7A
  8
0
 10
19.996402859365659
 20
4.305107909722266
 30
0.0
  0
VERTEX
  5
B7B
  8
0
 10
19.890539550110191
 20
4.4344963988122572
 30
0.0
  0
VERTEX
  5
B7C
  8
0
 10
19.902302140027469
 20
5.1873021535178054
 30
0.0
  0
VERTEX
  5
B7D
  8
0
 10
20.019928039200209
 20
5.3166906426078242
 30
0.0
  0
VERTEX
  5
B7E
  8
0
 10
20.313992787132051
 20
5.2931654627732589
 30
0.0
  0
VERTEX
  5
B7F
  8
0
 10
20.502194225808442
 20
5.2343525131869049
 30
0.0
  0
SEQEND
  5
B80
  8
0
  0
POLYLINE
  5
5ED
  8
0
 66
     1
 10
0.0
 20
0.0
 30
0.0
 70
     1
1001
ACAD
1000
ASC_BOUNDS
1002
{
1070
    19
1005
33F
1002
}
  0
VERTEX
  5
B81
  8
0
 10
20.655107894732989
 20
5.4813669014496318
 30
0.0
  0
VERTEX
  5
B82
  8
0
 10
20.84330933340938
 20
5.4225539518632777
 30
0.0
  0
VERTEX
  5
B83
  8
0
 10
21.360863289769441
 20
5.3166906426078242
 30
0.0
  0
VERTEX
  5
B84
  8
0
 10
21.59611508811491
 20
5.2343525131869049
 30
0.0
  0
VERTEX
  5
B85
  8
0
 10
21.819604296543119
 20
5.1990647434350592
 30
0.0
  0
VERTEX
  5
B86
  8
0
 10
22.078381274723139
 20
5.1167266140141399
 30
0.0
  0
VERTEX
  5
B87
  8
0
 10
22.360683432737719
 20
5.0579136644277858
 30
0.0
  0
VERTEX
  5
B88
  8
0
 10
23.325215805954169
 20
4.728561146744112
 30
0.0
  0
VERTEX
  5
B89
  8
0
 10
23.53694242446511
 20
4.6462230173231944
 30
0.0
  0
VERTEX
  5
B8A
  8
0
 10
23.819244582479691
 20
4.5521222979849929
 30
0.0
  0
VERTEX
  5
B8B
  8
0
 10
24.301510769087908
 20
4.3639208593086201
 30
0.0
  0
VERTEX
  5
B8C
  8
0
 10
25.47776976081531
 20
3.858129492865856
 30
0.0
  0
VERTEX
  5
B8D
  8
0
 10
26.34820141469357
 20
3.4346762558439821
 30
0.0
  0
VERTEX
  5
B8E
  8
0
 10
27.112769759316389
 20
2.9759352490702891
 30
0.0
  0
VERTEX
  5
B8F
  8
0
 10
27.430359687082792
 20
2.799496400311198
 30
0.0
  0
VERTEX
  5
B90
  8
0
 10
27.67737407534554
 20
2.6701079112211801
 30
0.0
  0
VERTEX
  5
B91
  8
0
 10
28.465467599802881
 20
2.152553954861133
 30
0.0
  0
VERTEX
  5
B92
  8
0
 10
29.547625872192071
 20
1.3291726606519481
 30
0.0
  0
VERTEX
  5
B93
  8
0
 10
30.606258964746729
 20
0.4234532370218745
 30
0.0
  0
VERTEX
  5
B94
  8
0
 10
30.676834504250401
 20
0.3293525176836738
 30
0.0
  0
VERTEX
  5
B95
  8
0
 10
30.618021554664011
 20
0.2940647479318556
 30
0.0
  0
VERTEX
  5
B96
  8
0
 10
29.194748174673862
 20
0.2940647479318556
 30
0.0
  0
VERTEX
  5
B97
  8
0
 10
28.441942419968338
 20
0.3058273378491094
 30
0.0
  0
VERTEX
  5
B98
  8
0
 10
27.971438823277371
 20
0.6704676252846014
 30
0.0
  0
VERTEX
  5
B99
  8
0
 10
27.700899255180079
 20
0.8586690639610026
 30
0.0
  0
VERTEX
  5
B9A
  8
0
 10
27.07748198956455
 20
1.3174100707346661
 30
0.0
  0
VERTEX
  5
B9B
  8
0
 10
26.877517960970891
 20
1.482086329576503
 30
0.0
  0
VERTEX
  5
B9C
  8
0
 10
26.67755393237724
 20
1.5526618690801679
 30
0.0
  0
VERTEX
  5
B9D
  8
0
 10
26.418776954197231
 20
1.729100717839259
 30
0.0
  0
VERTEX
  5
B9E
  8
0
 10
25.595395659988039
 20
2.2113669044474871
 30
0.0
  0
VERTEX
  5
B9F
  8
0
 10
24.701438826275218
 20
2.658345321303897
 30
0.0
  0
VERTEX
  5
BA0
  8
0
 10
24.136834510246079
 20
2.8935971196493711
 30
0.0
  0
VERTEX
  5
BA1
  8
0
 10
23.819244582479691
 20
3.034748198656672
 30
0.0
  0
VERTEX
  5
BA2
  8
0
 10
22.325395662985901
 20
3.5640647449339999
 30
0.0
  0
VERTEX
  5
BA3
  8
0
 10
21.796079116708569
 20
3.7052158239412729
 30
0.0
  0
VERTEX
  5
BA4
  8
0
 10
21.254999980513968
 20
3.8463669029485739
 30
0.0
  0
VERTEX
  5
BA5
  8
0
 10
21.03151077208577
 20
3.8934172626176742
 30
0.0
  0
VERTEX
  5
BA6
  8
0
 10
20.878597103161201
 20
3.9404676222867741
 30
0.0
  0
VERTEX
  5
BA7
  8
0
 10
20.32575537704933
 20
4.0228057517076934
 30
0.0
  0
VERTEX
  5
BA8
  8
0
 10
20.12579134845566
 20
4.0698561113767653
 30
0.0
  0
VERTEX
  5
BA9
  8
0
 10
19.855251780358369
 20
4.0933812912113288
 30
0.0
  0
VERTEX
  5
BAA
  8
0
 10
19.72586329126835
 20
4.1404316508804291
 30
0.0
  0
VERTEX
  5
BAB
  8
0
 10
19.667050341681978
 20
4.2110071903840662
 30
0.0
  0
VERTEX
  5
BAC
  8
0
 10
19.678812931599261
 20
5.5519424409532974
 30
0.0
  0
VERTEX
  5
BAD
  8
0
 10
19.72586329126835
 20
5.5872302107051146
 30
0.0
  0
VERTEX
  5
BAE
  8
0
 10
20.2081294778766
 20
5.5401798510360152
 30
0.0
  0
VERTEX
  5
BAF
  8
0
 10
20.655107894732989
 20
5.4813669014496318
 30
0.0
  0
SEQEND
  5
BB0
  8
0
  0
POLYLINE
  5
5EE
  8
0
 66
     1
 10
0.0
 20
0.0
 30
0.0
 70
     1
1001
ACAD
1000
ASC_BOUNDS
1002
{
1070
    19
1005
33F
1002
}
  0
VERTEX
  5
BB1
  8
0
 10
14.00924459147323
 20
5.2343525131869049
 30
0.0
  0
VERTEX
  5
BB2
  8
0
 10
14.0680575410596
 20
5.128489203931422
 30
0.0
  0
VERTEX
  5
BB3
  8
0
 10
14.056294951142331
 20
4.3521582693913379
 30
0.0
  0
VERTEX
  5
BB4
  8
0
 10
13.938669051969599
 20
4.2462949601358844
 30
0.0
  0
VERTEX
  5
BB5
  8
0
 10
13.42111509560953
 20
4.1521942407976828
 30
0.0
  0
VERTEX
  5
BB6
  8
0
 10
13.20938847709861
 20
4.1521942407976828
 30
0.0
  0
VERTEX
  5
BB7
  8
0
 10
12.89179854933221
 20
4.0580935214595106
 30
0.0
  0
VERTEX
  5
BB8
  8
0
 10
12.233093513964871
 20
3.9169424424522101
 30
0.0
  0
VERTEX
  5
BB9
  8
0
 10
11.844928046694831
 20
3.822841723114009
 30
0.0
  0
VERTEX
  5
BBA
  8
0
 10
11.586151068514811
 20
3.740503593693119
 30
0.0
  0
VERTEX
  5
BBB
  8
0
 10
10.90392085331292
 20
3.5287769751821818
 30
0.0
  0
VERTEX
  5
BBC
  8
0
 10
10.080539559103739
 20
3.234712227250327
 30
0.0
  0
VERTEX
  5
BBD
  8
0
 10
9.2453956749773027
 20
2.8818345297321168
 30
0.0
  0
VERTEX
  5
BBE
  8
0
 10
9.0101438766318154
 20
2.7642086305593798
 30
0.0
  0
VERTEX
  5
BBF
  8
0
 10
7.998561143746258
 20
2.2584172641165869
 30
0.0
  0
VERTEX
  5
BC0
  8
0
 10
7.58687049664168
 20
2.034928055688396
 30
0.0
  0
VERTEX
  5
BC1
  8
0
 10
6.9046402814397956
 20
1.59971222874924
 30
0.0
  0
VERTEX
  5
BC2
  8
0
 10
6.7752517923497768
 20
1.5408992791628859
 30
0.0
  0
VERTEX
  5
BC3
  8
0
 10
6.5517625839215716
 20
1.376223020321049
 30
0.0
  0
VERTEX
  5
BC4
  8
0
 10
5.3519784123596281
 20
0.541079136194611
 30
0.0
  0
VERTEX
  5
BC5
  8
0
 10
5.1402517938487051
 20
0.4352158269391282
 30
0.0
  0
VERTEX
  5
BC6
  8
0
 10
4.5874100677368261
 20
0.4116906471045923
 30
0.0
  0
VERTEX
  5
BC7
  8
0
 10
3.9051798525349422
 20
0.4234532370218745
 30
0.0
  0
VERTEX
  5
BC8
  8
0
 10
3.8463669029485739
 20
0.4469784168564104
 30
0.0
  0
VERTEX
  5
BC9
  8
0
 10
3.7993165432794731
 20
0.5057913664427645
 30
0.0
  0
VERTEX
  5
BCA
  8
0
 10
3.8346043130312921
 20
0.6469424454500654
 30
0.0
  0
VERTEX
  5
BCB
  8
0
 10
4.316870499639534
 20
1.0703956824719389
 30
0.0
  0
VERTEX
  5
BCC
  8
0
 10
5.3166906426078091
 20
1.823201437177459
 30
0.0
  0
VERTEX
  5
BCD
  8
0
 10
6.3517985553279166
 20
2.5289568322138791
 30
0.0
  0
VERTEX
  5
BCE
  8
0
 10
7.4339568277171111
 20
3.140611507912126
 30
0.0
  0
VERTEX
  5
BCF
  8
0
 10
8.0220863235808082
 20
3.4699640255958002
 30
0.0
  0
VERTEX
  5
BD0
  8
0
 10
9.0689568262181837
 20
3.9522302122040278
 30
0.0
  0
VERTEX
  5
BD1
  8
0
 10
9.5276978329918762
 20
4.1404316508804291
 30
0.0
  0
VERTEX
  5
BD2
  8
0
 10
9.8452877607582678
 20
4.2698201399704203
 30
0.0
  0
VERTEX
  5
BD3
  8
0
 10
10.11582732885557
 20
4.3639208593086201
 30
0.0
  0
VERTEX
  5
BD4
  8
0
 10
10.65690646505017
 20
4.5521222979849929
 30
0.0
  0
VERTEX
  5
BD5
  8
0
 10
10.83334531380927
 20
4.5991726576540941
 30
0.0
  0
VERTEX
  5
BD6
  8
0
 10
11.1391726516584
 20
4.705035966909576
 30
0.0
  0
VERTEX
  5
BD7
  8
0
 10
11.62143883826662
 20
4.8579496358341308
 30
0.0
  0
VERTEX
  5
BD8
  8
0
 10
12.30366905346852
 20
5.0226258946759677
 30
0.0
  0
VERTEX
  5
BD9
  8
0
 10
12.64478416106946
 20
5.0932014341796039
 30
0.0
  0
VERTEX
  5
BDA
  8
0
 10
13.3034891964368
 20
5.2343525131869049
 30
0.0
  0
VERTEX
  5
BDB
  8
0
 10
13.62107912420319
 20
5.304928052690542
 30
0.0
  0
VERTEX
  5
BDC
  8
0
 10
13.91514387213504
 20
5.2931654627732589
 30
0.0
  0
VERTEX
  5
BDD
  8
0
 10
14.00924459147323
 20
5.2343525131869049
 30
0.0
  0
SEQEND
  5
BDE
  8
0
  0
POLYLINE
  5
5EF
  8
0
 66
     1
 10
0.0
 20
0.0
 30
0.0
 70
     1
1001
ACAD
1000
ASC_BOUNDS
1002
{
1070
    19
1005
33F
1002
}
  0
VERTEX
  5
BDF
  8
0
 10
14.26802156965325
 20
5.4813669014496318
 30
0.0
  0
VERTEX
  5
BE0
  8
0
 10
14.24449638981871
 20
5.304928052690542
 30
0.0
  0
VERTEX
  5
BE1
  8
0
 10
14.256258979735991
 20
4.9167625854204848
 30
0.0
  0
VERTEX
  5
BE2
  8
0
 10
14.24449638981871
 20
4.3756834492259031
 30
0.0
  0
VERTEX
  5
BE3
  8
0
 10
14.24449638981871
 20
4.187482010549501
 30
0.0
  0
VERTEX
  5
BE4
  8
0
 10
14.209208620066891
 20
4.1404316508804291
 30
0.0
  0
VERTEX
  5
BE5
  8
0
 10
14.0680575410596
 20
4.0816187012940466
 30
0.0
  0
VERTEX
  5
BE6
  8
0
 10
13.679892073789571
 20
4.0345683416249472
 30
0.0
  0
VERTEX
  5
BE7
  8
0
 10
12.350719413137609
 20
3.7287410037758368
 30
0.0
  0
VERTEX
  5
BE8
  8
0
 10
11.562625888680261
 20
3.5287769751821818
 30
0.0
  0
VERTEX
  5
BE9
  8
0
 10
11.17446042141021
 20
3.3758633062576271
 30
0.0
  0
VERTEX
  5
BEA
  8
0
 10
10.60985610538107
 20
3.199424457498508
 30
0.0
  0
VERTEX
  5
BEB
  8
0
 10
10.43341725662196
 20
3.11708632807759
 30
0.0
  0
VERTEX
  5
BEC
  8
0
 10
9.7158992716682633
 20
2.8465467599802992
 30
0.0
  0
VERTEX
  5
BED
  8
0
 10
8.8925179774590788
 20
2.4819064725448068
 30
0.0
  0
VERTEX
  5
BEE
  8
0
 10
8.4102517908508503
 20
2.234892084282051
 30
0.0
  0
VERTEX
  5
BEF
  8
0
 10
7.2339927991234561
 20
1.587949638831986
 30
0.0
  0
VERTEX
  5
BF0
  8
0
 10
6.6693884830943091
 20
1.2350719413137481
 30
0.0
  0
VERTEX
  5
BF1
  8
0
 10
5.6578057502087509
 20
0.5293165462773289
 30
0.0
  0
VERTEX
  5
BF2
  8
0
 10
5.2696402829387088
 20
0.2470143882627553
 30
0.0
  0
VERTEX
  5
BF3
  8
0
 10
4.6579856072404757
 20
0.2117266185109372
 30
0.0
  0
VERTEX
  5
BF4
  8
0
 10
4.0933812912113288
 20
0.2470143882627553
 30
0.0
  0
VERTEX
  5
BF5
  8
0
 10
3.9169424424522101
 20
0.2117266185109372
 30
0.0
  0
VERTEX
  5
BF6
  8
0
 10
3.11708632807759
 20
0.2352517983454732
 30
0.0
  0
VERTEX
  5
BF7
  8
0
 10
3.0935611482430398
 20
0.2470143882627553
 30
0.0
  0
VERTEX
  5
BF8
  8
0
 10
3.0935611482430398
 20
0.3293525176836738
 30
0.0
  0
VERTEX
  5
BF9
  8
0
 10
3.5640647449339999
 20
0.7410431647882662
 30
0.0
  0
VERTEX
  5
BFA
  8
0
 10
3.764028773527655
 20
0.8939568337128208
 30
0.0
  0
VERTEX
  5
BFB
  8
0
 10
4.4697841685640887
 20
1.482086329576503
 30
0.0
  0
VERTEX
  5
BFC
  8
0
 10
5.1990647434350734
 20
2.034928055688396
 30
0.0
  0
VERTEX
  5
BFD
  8
0
 10
5.6460431602914829
 20
2.3172302137029699
 30
0.0
  0
VERTEX
  5
BFE
  8
0
 10
6.1283093468997123
 20
2.6465827313866441
 30
0.0
  0
VERTEX
  5
BFF
  8
0
 10
7.1163668999507186
 20
3.2111870474157911
 30
0.0
  0
VERTEX
  5
C00
  8
0
 10
7.3633812882134739
 20
3.3523381264230632
 30
0.0
  0
VERTEX
  5
C01
  8
0
 10
8.3161510715126639
 20
3.8346043130312921
 30
0.0
  0
VERTEX
  5
C02
  8
0
 10
8.5631654597754032
 20
3.9169424424522101
 30
0.0
  0
VERTEX
  5
C03
  8
0
 10
8.9513309270454471
 20
4.1286690609631469
 30
0.0
  0
VERTEX
  5
C04
  8
0
 10
9.304208624563671
 20
4.2462949601358844
 30
0.0
  0
VERTEX
  5
C05
  8
0
 10
9.6217985523300626
 20
4.3874460391431853
 30
0.0
  0
VERTEX
  5
C06
  8
0
 10
10.445179846539229
 20
4.6697481971577579
 30
0.0
  0
VERTEX
  5
C07
  8
0
 10
11.08035970207203
 20
4.8932374055859489
 30
0.0
  0
VERTEX
  5
C08
  8
0
 10
11.71553955760483
 20
5.0579136644277858
 30
0.0
  0
VERTEX
  5
C09
  8
0
 10
11.950791355950299
 20
5.1402517938487051
 30
0.0
  0
VERTEX
  5
C0A
  8
0
 10
12.233093513964871
 20
5.1990647434350592
 30
0.0
  0
VERTEX
  5
C0B
  8
0
 10
13.18586329726406
 20
5.4225539518632777
 30
0.0
  0
VERTEX
  5
C0C
  8
0
 10
14.0210071813905
 20
5.5872302107051146
 30
0.0
  0
VERTEX
  5
C0D
  8
0
 10
14.24449638981871
 20
5.5637050308705511
 30
0.0
  0
VERTEX
  5
C0E
  8
0
 10
14.26802156965325
 20
5.4813669014496318
 30
0.0
  0
SEQEND
  5
C0F
  8
0
  0
POLYLINE
  5
5F0
  8
0
 66
     1
 10
0.0
 20
0.0
 30
0.0
 70
     1
1001
ACAD
1000
ASC_BOUNDS
1002
{
1070
    19
1005
33F
1002
}
  0
VERTEX
  5
C10
  8
0
 10
30.42982011598761
 20
4.9520503551723323
 30
0.0
  0
VERTEX
  5
C11
  8
0
 10
31.112050331189518
 20
4.3756834492259031
 30
0.0
  0
VERTEX
  5
C12
  8
0
 10
31.417877669038631
 20
3.881654672700392
 30
0.0
  0
VERTEX
  5
C13
  8
0
 10
31.488453208542271
 20
3.5287769751821818
 30
0.0
  0
VERTEX
  5
C14
  8
0
 10
31.38258989928682
 20
3.1288489179948722
 30
0.0
  0
VERTEX
  5
C15
  8
0
 10
31.288489179948609
 20
2.9759352490702891
 30
0.0
  0
VERTEX
  5
C16
  8
0
 10
30.782697813505852
 20
2.4819064725448068
 30
0.0
  0
VERTEX
  5
C17
  8
0
 10
30.641546734498551
 20
2.376043163289324
 30
0.0
  0
VERTEX
  5
C18
  8
0
 10
30.288669036980341
 20
2.3172302137029699
 30
0.0
  0
VERTEX
  5
C19
  8
0
 10
29.724064720951191
 20
2.470143882627525
 30
0.0
  0
VERTEX
  5
C1A
  8
0
 10
29.312374073846598
 20
2.6818705011384618
 30
0.0
  0
VERTEX
  5
C1B
  8
0
 10
29.053597095666589
 20
2.8935971196493711
 30
0.0
  0
VERTEX
  5
C1C
  8
0
 10
28.724244577982919
 20
3.2582374070848621
 30
0.0
  0
VERTEX
  5
C1D
  8
0
 10
28.5007553695547
 20
3.6464028743549188
 30
0.0
  0
VERTEX
  5
C1E
  8
0
 10
28.406654650216531
 20
3.9404676222867741
 30
0.0
  0
VERTEX
  5
C1F
  8
0
 10
28.441942419968338
 20
4.199244600466784
 30
0.0
  0
VERTEX
  5
C20
  8
0
 10
28.536043139306511
 20
4.4344963988122572
 30
0.0
  0
VERTEX
  5
C21
  8
0
 10
28.783057527569269
 20
4.7756115064132132
 30
0.0
  0
VERTEX
  5
C22
  8
0
 10
29.18298558475658
 20
5.1167266140141399
 30
0.0
  0
VERTEX
  5
C23
  8
0
 10
29.418237383102049
 20
5.1990647434350592
 30
0.0
  0
VERTEX
  5
C24
  8
0
 10
29.665251771364812
 20
5.2343525131869049
 30
0.0
  0
VERTEX
  5
C25
  8
0
 10
30.18280572772488
 20
5.0814388442623217
 30
0.0
  0
VERTEX
  5
C26
  8
0
 10
30.42982011598761
 20
4.9520503551723323
 30
0.0
  0
SEQEND
  5
C27
  8
0
  0
POLYLINE
  5
5F1
  8
0
 66
     1
 10
0.0
 20
0.0
 30
0.0
 70
     1
1001
ACAD
1000
ASC_BOUNDS
1002
{
1070
    19
1005
33F
1002
}
  0
VERTEX
  5
C28
  8
0
 10
29.888740979793031
 20
5.7871942392987696
 30
0.0
  0
VERTEX
  5
C29
  8
0
 10
30.735647453836751
 20
5.304928052690542
 30
0.0
  0
VERTEX
  5
C2A
  8
0
 10
30.87679853284402
 20
5.1873021535178054
 30
0.0
  0
VERTEX
  5
C2B
  8
0
 10
31.406115079121349
 20
4.7403237366613951
 30
0.0
  0
VERTEX
  5
C2C
  8
0
 10
31.94719421531596
 20
4.1169064710458647
 30
0.0
  0
VERTEX
  5
C2D
  8
0
 10
32.147158243909622
 20
3.775791363444938
 30
0.0
  0
VERTEX
  5
C2E
  8
0
 10
32.288309322916923
 20
3.3876258961748809
 30
0.0
  0
VERTEX
  5
C2F
  8
0
 10
32.323597092668727
 20
3.234712227250327
 30
0.0
  0
VERTEX
  5
C30
  8
0
 10
32.311834502751452
 20
2.7053956809729982
 30
0.0
  0
VERTEX
  5
C31
  8
0
 10
32.13539565399234
 20
2.3054676237856881
 30
0.0
  0
VERTEX
  5
C32
  8
0
 10
31.911906445564139
 20
2.011402875853832
 30
0.0
  0
VERTEX
  5
C33
  8
0
 10
31.559028748045929
 20
1.717338127922005
 30
0.0
  0
VERTEX
  5
C34
  8
0
 10
31.241438820279541
 20
1.59971222874924
 30
0.0
  0
VERTEX
  5
C35
  8
0
 10
30.888561122761299
 20
1.5408992791628859
 30
0.0
  0
VERTEX
  5
C36
  8
0
 10
30.35924457648397
 20
1.6467625884183399
 30
0.0
  0
VERTEX
  5
C37
  8
0
 10
30.01812946888305
 20
1.7643884875910769
 30
0.0
  0
VERTEX
  5
C38
  8
0
 10
29.288848894012059
 20
2.152553954861133
 30
0.0
  0
VERTEX
  5
C39
  8
0
 10
28.583093498975622
 20
2.7171582708902799
 30
0.0
  0
VERTEX
  5
C3A
  8
0
 10
28.018489182946471
 20
3.2935251768367091
 30
0.0
  0
VERTEX
  5
C3B
  8
0
 10
27.84205033418738
 20
3.5523021550167182
 30
0.0
  0
VERTEX
  5
C3C
  8
0
 10
27.547985586255521
 20
4.187482010549501
 30
0.0
  0
VERTEX
  5
C3D
  8
0
 10
27.500935226586421
 20
4.4227338088950026
 30
0.0
  0
VERTEX
  5
C3E
  8
0
 10
27.559748176172778
 20
4.8814748156686667
 30
0.0
  0
VERTEX
  5
C3F
  8
0
 10
27.736187024931901
 20
5.2343525131869049
 30
0.0
  0
VERTEX
  5
C40
  8
0
 10
27.971438823277371
 20
5.5519424409532974
 30
0.0
  0
VERTEX
  5
C41
  8
0
 10
28.253740981291941
 20
5.7401438796296702
 30
0.0
  0
VERTEX
  5
C42
  8
0
 10
28.583093498975622
 20
5.9165827283887893
 30
0.0
  0
VERTEX
  5
C43
  8
0
 10
28.853633067072941
 20
5.9753956779751434
 30
0.0
  0
VERTEX
  5
C44
  8
0
 10
29.312374073846598
 20
5.9518704981406074
 30
0.0
  0
VERTEX
  5
C45
  8
0
 10
29.888740979793031
 20
5.7871942392987696
 30
0.0
  0
SEQEND
  5
C46
  8
0
  0
POLYLINE
  5
5F2
  8
0
 66
     1
 10
0.0
 20
0.0
 30
0.0
 70
     1
1001
ACAD
1000
ASC_BOUNDS
1002
{
1070
    19
1005
33F
1002
}
  0
VERTEX
  5
C47
  8
0
 10
24.877877675034341
 20
7.5868704966416649
 30
0.0
  0
VERTEX
  5
C48
  8
0
 10
25.830647458333519
 20
7.198705029371637
 30
0.0
  0
VERTEX
  5
C49
  8
0
 10
26.018848897009889
 20
7.0810791301989013
 30
0.0
  0
VERTEX
  5
C4A
  8
0
 10
26.23057551552083
 20
6.8575899217706811
 30
0.0
  0
VERTEX
  5
C4B
  8
0
 10
26.265863285272651
 20
6.7282014326806907
 30
0.0
  0
VERTEX
  5
C4C
  8
0
 10
26.25410069535539
 20
6.4694244545006541
 30
0.0
  0
VERTEX
  5
C4D
  8
0
 10
26.171762565934468
 20
6.3165107855760994
 30
0.0
  0
VERTEX
  5
C4E
  8
0
 10
26.018848897009889
 20
6.1988848864033619
 30
0.0
  0
VERTEX
  5
C4F
  8
0
 10
25.713021559160779
 20
6.1753597065687984
 30
0.0
  0
VERTEX
  5
C50
  8
0
 10
25.313093501973469
 20
6.269460425906999
 30
0.0
  0
VERTEX
  5
C51
  8
0
 10
24.20741004974974
 20
6.7046762528461272
 30
0.0
  0
VERTEX
  5
C52
  8
0
 10
23.842769762314219
 20
6.8458273318534282
 30
0.0
  0
VERTEX
  5
C53
  8
0
 10
23.760431632893301
 20
6.9634532310261639
 30
0.0
  0
VERTEX
  5
C54
  8
0
 10
23.795719402645151
 20
7.1751798495371011
 30
0.0
  0
VERTEX
  5
C55
  8
0
 10
24.019208611073338
 20
7.7162589857316837
 30
0.0
  0
VERTEX
  5
C56
  8
0
 10
24.113309330411539
 20
7.798597115152603
 30
0.0
  0
VERTEX
  5
C57
  8
0
 10
24.148597100163361
 20
7.8221222949871674
 30
0.0
  0
VERTEX
  5
C58
  8
0
 10
24.360323718674302
 20
7.798597115152603
 30
0.0
  0
VERTEX
  5
C59
  8
0
 10
24.877877675034341
 20
7.5868704966416649
 30
0.0
  0
SEQEND
  5
C5A
  8
0
  0
POLYLINE
  5
5F3
  8
0
 66
     1
 10
0.0
 20
0.0
 30
0.0
 70
     1
1001
ACAD
1000
ASC_BOUNDS
1002
{
1070
    19
1005
33F
1002
}
  0
VERTEX
  5
C5B
  8
0
 10
23.713381273224229
 20
8.5278776900235869
 30
0.0
  0
VERTEX
  5
C5C
  8
0
 10
23.901582711900598
 20
8.4690647404372328
 30
0.0
  0
VERTEX
  5
C5D
  8
0
 10
24.148597100163361
 20
8.3632014311817482
 30
0.0
  0
VERTEX
  5
C5E
  8
0
 10
24.28974817917063
 20
8.2926258916781137
 30
0.0
  0
VERTEX
  5
C5F
  8
0
 10
24.560287747267949
 20
8.1985251723399131
 30
0.0
  0
VERTEX
  5
C60
  8
0
 10
26.665791342459961
 20
7.3869064680480099
 30
0.0
  0
VERTEX
  5
C61
  8
0
 10
27.206870478654569
 20
6.9752158209434461
 30
0.0
  0
VERTEX
  5
C62
  8
0
 10
27.40683450724822
 20
6.7282014326806907
 30
0.0
  0
VERTEX
  5
C63
  8
0
 10
27.547985586255521
 20
6.3753237351624534
 30
0.0
  0
VERTEX
  5
C64
  8
0
 10
27.536222996338239
 20
6.1283093468996981
 30
0.0
  0
VERTEX
  5
C65
  8
0
 10
27.40683450724822
 20
5.8460071888851237
 30
0.0
  0
VERTEX
  5
C66
  8
0
 10
27.183345298820029
 20
5.6813309300433161
 30
0.0
  0
VERTEX
  5
C67
  8
0
 10
26.995143860143632
 20
5.5872302107051146
 30
0.0
  0
VERTEX
  5
C68
  8
0
 10
26.736366881963619
 20
5.504892081284197
 30
0.0
  0
VERTEX
  5
C69
  8
0
 10
26.124712206265372
 20
5.493129491366914
 30
0.0
  0
VERTEX
  5
C6A
  8
0
 10
26.030611486927171
 20
5.3872661821114596
 30
0.0
  0
VERTEX
  5
C6B
  8
0
 10
26.065899256678989
 20
5.1520143837659873
 30
0.0
  0
VERTEX
  5
C6C
  8
0
 10
26.418776954197231
 20
4.3521582693913379
 30
0.0
  0
VERTEX
  5
C6D
  8
0
 10
26.53640285336996
 20
4.0228057517076934
 30
0.0
  0
VERTEX
  5
C6E
  8
0
 10
26.53640285336996
 20
3.9522302122040278
 30
0.0
  0
VERTEX
  5
C6F
  8
0
 10
26.430539544114481
 20
3.96399280212131
 30
0.0
  0
VERTEX
  5
C70
  8
0
 10
26.007086307092631
 20
4.1521942407976828
 30
0.0
  0
VERTEX
  5
C71
  8
0
 10
25.501294940649871
 20
4.4109712189777213
 30
0.0
  0
VERTEX
  5
C72
  8
0
 10
25.36014386164257
 20
4.6697481971577579
 30
0.0
  0
VERTEX
  5
C73
  8
0
 10
24.913165444786159
 20
5.8812949586369712
 30
0.0
  0
VERTEX
  5
C74
  8
0
 10
24.760251775861612
 20
6.034208627561525
 30
0.0
  0
VERTEX
  5
C75
  8
0
 10
24.20741004974974
 20
6.23417265615518
 30
0.0
  0
VERTEX
  5
C76
  8
0
 10
23.93687048165242
 20
6.3635611452451988
 30
0.0
  0
VERTEX
  5
C77
  8
0
 10
23.619280553886028
 20
6.4458992746661181
 30
0.0
  0
VERTEX
  5
C78
  8
0
 10
23.48989206479601
 20
6.4106115049142991
 30
0.0
  0
VERTEX
  5
C79
  8
0
 10
23.30169062611964
 20
6.0224460376442428
 30
0.0
  0
VERTEX
  5
C7A
  8
0
 10
23.078201417691421
 20
5.493129491366914
 30
0.0
  0
VERTEX
  5
C7B
  8
0
 10
22.99586328827051
 20
5.4107913619459964
 30
0.0
  0
VERTEX
  5
C7C
  8
0
 10
22.878237389097759
 20
5.4107913619459964
 30
0.0
  0
VERTEX
  5
C7D
  8
0
 10
22.243057533564979
 20
5.6225179804569327
 30
0.0
  0
VERTEX
  5
C7E
  8
0
 10
22.148956814226779
 20
5.7166186997951343
 30
0.0
  0
VERTEX
  5
C7F
  8
0
 10
22.184244583978611
 20
5.8460071888851237
 30
0.0
  0
VERTEX
  5
C80
  8
0
 10
22.419496382324091
 20
6.4458992746661181
 30
0.0
  0
VERTEX
  5
C81
  8
0
 10
22.666510770586839
 20
7.0575539503643361
 30
0.0
  0
VERTEX
  5
C82
  8
0
 10
22.901762568932309
 20
7.6103956764762302
 30
0.0
  0
VERTEX
  5
C83
  8
0
 10
23.0899640076087
 20
8.1397122227535572
 30
0.0
  0
VERTEX
  5
C84
  8
0
 10
23.289928036202362
 20
8.5984532295272231
 30
0.0
  0
VERTEX
  5
C85
  8
0
 10
23.325215805954169
 20
8.6572661791136056
 30
0.0
  0
VERTEX
  5
C86
  8
0
 10
23.501654654713288
 20
8.6219784093617875
 30
0.0
  0
VERTEX
  5
C87
  8
0
 10
23.713381273224229
 20
8.5278776900235869
 30
0.0
  0
SEQEND
  5
C88
  8
0
  0
POLYLINE
  5
5F4
  8
0
 66
     1
 10
0.0
 20
0.0
 30
0.0
 70
     1
1001
ACAD
1000
ASC_BOUNDS
1002
{
1070
    19
1005
33F
1002
}
  0
VERTEX
  5
C89
  8
0
 10
21.94899278563312
 20
8.8925179774590788
 30
0.0
  0
VERTEX
  5
C8A
  8
0
 10
21.913705015881309
 20
8.6219784093617875
 30
0.0
  0
VERTEX
  5
C8B
  8
0
 10
21.819604296543119
 20
8.3749640210990322
 30
0.0
  0
VERTEX
  5
C8C
  8
0
 10
21.725503577204929
 20
7.8456474748217033
 30
0.0
  0
VERTEX
  5
C8D
  8
0
 10
21.701978397370379
 20
7.763309345400784
 30
0.0
  0
VERTEX
  5
C8E
  8
0
 10
21.607877678032182
 20
7.2339927991234561
 30
0.0
  0
VERTEX
  5
C8F
  8
0
 10
21.537302138528538
 20
6.8928776915225276
 30
0.0
  0
VERTEX
  5
C90
  8
0
 10
21.490251778859449
 20
6.7282014326806907
 30
0.0
  0
VERTEX
  5
C91
  8
0
 10
21.38438846960398
 20
5.9989208578097069
 30
0.0
  0
VERTEX
  5
C92
  8
0
 10
21.349100699852158
 20
5.9165827283887893
 30
0.0
  0
VERTEX
  5
C93
  8
0
 10
21.302050340183062
 20
5.893057548554224
 30
0.0
  0
VERTEX
  5
C94
  8
0
 10
20.53748199556026
 20
5.9989208578097069
 30
0.0
  0
VERTEX
  5
C95
  8
0
 10
20.372805736718419
 20
6.0577338073960609
 30
0.0
  0
VERTEX
  5
C96
  8
0
 10
20.32575537704933
 20
6.0930215771478791
 30
0.0
  0
VERTEX
  5
C97
  8
0
 10
20.502194225808442
 20
7.0222661806125179
 30
0.0
  0
VERTEX
  5
C98
  8
0
 10
20.608057535063889
 20
7.563345316807129
 30
0.0
  0
VERTEX
  5
C99
  8
0
 10
20.91388487291303
 20
9.1160071858872982
 30
0.0
  0
VERTEX
  5
C9A
  8
0
 10
21.03151077208577
 20
9.1512949556391163
 30
0.0
  0
VERTEX
  5
C9B
  8
0
 10
21.913705015881309
 20
8.9748561068799972
 30
0.0
  0
VERTEX
  5
C9C
  8
0
 10
21.94899278563312
 20
8.8925179774590788
 30
0.0
  0
SEQEND
  5
C9D
  8
0
  0
POLYLINE
  5
5F5
  8
0
 66
     1
 10
0.0
 20
0.0
 30
0.0
 70
     1
1001
ACAD
1000
ASC_BOUNDS
1002
{
1070
    19
1005
33F
1002
}
  0
VERTEX
  5
C9E
  8
0
 10
15.644244589974299
 20
9.7041366817509811
 30
0.0
  0
VERTEX
  5
C9F
  8
0
 10
15.65600717989159
 20
6.7046762528461272
 30
0.0
  0
VERTEX
  5
CA0
  8
0
 10
15.667769769808849
 20
6.1753597065687984
 30
0.0
  0
VERTEX
  5
CA1
  8
0
 10
15.703057539560669
 20
5.7754316493814883
 30
0.0
  0
VERTEX
  5
CA2
  8
0
 10
15.83244602865069
 20
5.6695683401260331
 30
0.0
  0
VERTEX
  5
CA3
  8
0
 10
16.738165452280779
 20
5.6695683401260331
 30
0.0
  0
VERTEX
  5
CA4
  8
0
 10
17.37334530781358
 20
5.6225179804569327
 30
0.0
  0
VERTEX
  5
CA5
  8
0
 10
17.56154674648996
 20
5.6225179804569327
 30
0.0
  0
VERTEX
  5
CA6
  8
0
 10
17.702697825497239
 20
5.6695683401260331
 30
0.0
  0
VERTEX
  5
CA7
  8
0
 10
17.785035954918161
 20
5.7871942392987696
 30
0.0
  0
VERTEX
  5
CA8
  8
0
 10
17.832086314587261
 20
6.4458992746661181
 30
0.0
  0
VERTEX
  5
CA9
  8
0
 10
17.820323724669969
 20
7.034028770529801
 30
0.0
  0
VERTEX
  5
CAA
  8
0
 10
17.79679854483544
 20
7.6103956764762302
 30
0.0
  0
VERTEX
  5
CAB
  8
0
 10
17.79679854483544
 20
7.798597115152603
 30
0.0
  0
VERTEX
  5
CAC
  8
0
 10
17.820323724669969
 20
8.7160791286999597
 30
0.0
  0
VERTEX
  5
CAD
  8
0
 10
17.820323724669969
 20
9.7394244515027992
 30
0.0
  0
VERTEX
  5
CAE
  8
0
 10
17.84384890450454
 20
9.7864748111718995
 30
0.0
  0
VERTEX
  5
CAF
  8
0
 10
19.149496385321939
 20
9.7864748111718995
 30
0.0
  0
VERTEX
  5
CB0
  8
0
 10
19.208309334908311
 20
9.7041366817509811
 30
0.0
  0
VERTEX
  5
CB1
  8
0
 10
19.231834514742861
 20
6.3753237351624534
 30
0.0
  0
VERTEX
  5
CB2
  8
0
 10
19.231834514742861
 20
5.069676254345068
 30
0.0
  0
VERTEX
  5
CB3
  8
0
 10
19.243597104660122
 20
2.470143882627525
 30
0.0
  0
VERTEX
  5
CB4
  8
0
 10
19.243597104660122
 20
0.4940287765255107
 30
0.0
  0
VERTEX
  5
CB5
  8
0
 10
19.208309334908311
 20
0.3646402874354919
 30
0.0
  0
VERTEX
  5
CB6
  8
0
 10
19.208309334908311
 20
0.3528776975182097
 30
0.0
  0
VERTEX
  5
CB7
  8
0
 10
18.90248199705918
 20
0.3058273378491094
 30
0.0
  0
VERTEX
  5
CB8
  8
0
 10
17.93794962384273
 20
0.3293525176836738
 30
0.0
  0
VERTEX
  5
CB9
  8
0
 10
17.879136674256362
 20
0.4352158269391282
 30
0.0
  0
VERTEX
  5
CBA
  8
0
 10
17.855611494421801
 20
1.0233453228028391
 30
0.0
  0
VERTEX
  5
CBB
  8
0
 10
17.820323724669969
 20
3.199424457498508
 30
0.0
  0
VERTEX
  5
CBC
  8
0
 10
17.820323724669969
 20
3.4934892054303641
 30
0.0
  0
VERTEX
  5
CBD
  8
0
 10
17.79679854483544
 20
3.999280571873129
 30
0.0
  0
VERTEX
  5
CBE
  8
0
 10
17.737985595249071
 20
4.1169064710458647
 30
0.0
  0
VERTEX
  5
CBF
  8
0
 10
17.620359696076331
 20
4.187482010549501
 30
0.0
  0
VERTEX
  5
CC0
  8
0
 10
15.82068343873342
 20
4.1757194206322481
 30
0.0
  0
VERTEX
  5
CC1
  8
0
 10
15.71482012947796
 20
4.0345683416249472
 30
0.0
  0
VERTEX
  5
CC2
  8
0
 10
15.667769769808849
 20
3.7287410037758368
 30
0.0
  0
VERTEX
  5
CC3
  8
0
 10
15.67953235972614
 20
3.0700359684084901
 30
0.0
  0
VERTEX
  5
CC4
  8
0
 10
15.667769769808849
 20
2.1878417246129511
 30
0.0
  0
VERTEX
  5
CC5
  8
0
 10
15.667769769808849
 20
0.4352158269391282
 30
0.0
  0
VERTEX
  5
CC6
  8
0
 10
15.62071941013977
 20
0.3528776975182097
 30
0.0
  0
VERTEX
  5
CC7
  8
0
 10
15.15021581344881
 20
0.3175899277663916
 30
0.0
  0
VERTEX
  5
CC8
  8
0
 10
14.820863295765131
 20
0.3293525176836738
 30
0.0
  0
VERTEX
  5
CC9
  8
0
 10
14.738525166344219
 20
0.4234532370218745
 30
0.0
  0
VERTEX
  5
CCA
  8
0
 10
14.72676257642695
 20
2.434856112875706
 30
0.0
  0
VERTEX
  5
CCB
  8
0
 10
14.714999986509669
 20
4.5638848879022751
 30
0.0
  0
VERTEX
  5
CCC
  8
0
 10
14.714999986509669
 20
9.7276618615855455
 30
0.0
  0
VERTEX
  5
CCD
  8
0
 10
14.72676257642695
 20
9.7864748111718995
 30
0.0
  0
VERTEX
  5
CCE
  8
0
 10
14.797338115930581
 20
9.8217625809237177
 30
0.0
  0
VERTEX
  5
CCF
  8
0
 10
15.58543164038794
 20
9.7864748111718995
 30
0.0
  0
VERTEX
  5
CD0
  8
0
 10
15.644244589974299
 20
9.7041366817509811
 30
0.0
  0
SEQEND
  5
CD1
  8
0
  0
POLYLINE
  5
5F6
  8
0
 66
     1
 10
0.0
 20
0.0
 30
0.0
 70
     1
1001
ACAD
1000
ASC_BOUNDS
1002
{
1070
    19
1005
33F
1002
}
  0
VERTEX
  5
CD2
  8
0
 10
13.70341725362411
 20
9.0219064665490976
 30
0.0
  0
VERTEX
  5
CD3
  8
0
 10
13.70341725362411
 20
8.8337050278727247
 30
0.0
  0
VERTEX
  5
CD4
  8
0
 10
13.60931653428592
 20
8.7866546682036244
 30
0.0
  0
VERTEX
  5
CD5
  8
0
 10
13.23291365693316
 20
8.7278417186172401
 30
0.0
  0
VERTEX
  5
CD6
  8
0
 10
12.56244603164855
 20
8.6102158194445053
 30
0.0
  0
VERTEX
  5
CD7
  8
0
 10
12.362482003054881
 20
8.5866906396099694
 30
0.0
  0
VERTEX
  5
CD8
  8
0
 10
11.586151068514811
 20
8.4337769706854147
 30
0.0
  0
VERTEX
  5
CD9
  8
0
 10
11.3626618600866
 20
8.3279136614299318
 30
0.0
  0
VERTEX
  5
CDA
  8
0
 10
11.068597112154739
 20
8.1279496328362768
 30
0.0
  0
VERTEX
  5
CDB
  8
0
 10
10.95097121298201
 20
7.9044604244080849
 30
0.0
  0
VERTEX
  5
CDC
  8
0
 10
10.89215826339564
 20
7.5868704966416649
 30
0.0
  0
VERTEX
  5
CDD
  8
0
 10
10.93920862306474
 20
7.4457194176343933
 30
0.0
  0
VERTEX
  5
CDE
  8
0
 10
11.05683452223748
 20
7.3633812882134739
 30
0.0
  0
VERTEX
  5
CDF
  8
0
 10
11.25679855083113
 20
7.375143878130757
 30
0.0
  0
VERTEX
  5
CE0
  8
0
 10
11.492050349176621
 20
7.422194237799828
 30
0.0
  0
VERTEX
  5
CE1
  8
0
 10
12.13899279462669
 20
7.5515827268898468
 30
0.0
  0
VERTEX
  5
CE2
  8
0
 10
13.62107912420319
 20
7.8221222949871674
 30
0.0
  0
VERTEX
  5
CE3
  8
0
 10
13.82104315279685
 20
7.8456474748217033
 30
0.0
  0
VERTEX
  5
CE4
  8
0
 10
13.879856102383229
 20
7.8456474748217033
 30
0.0
  0
VERTEX
  5
CE5
  8
0
 10
13.95043164188686
 20
7.7044963958144299
 30
0.0
  0
VERTEX
  5
CE6
  8
0
 10
13.962194231804149
 20
7.539820136972593
 30
0.0
  0
VERTEX
  5
CE7
  8
0
 10
13.95043164188686
 20
7.4927697773034927
 30
0.0
  0
VERTEX
  5
CE8
  8
0
 10
13.832805742714131
 20
7.4339568277171111
 30
0.0
  0
VERTEX
  5
CE9
  8
0
 10
12.997661858587669
 20
7.2928057487098377
 30
0.0
  0
VERTEX
  5
CEA
  8
0
 10
12.17428056437851
 20
7.1398920797852554
 30
0.0
  0
VERTEX
  5
CEB
  8
0
 10
11.856690636612109
 20
7.1163668999507186
 30
0.0
  0
VERTEX
  5
CEC
  8
0
 10
11.444999989507521
 20
7.0222661806125179
 30
0.0
  0
VERTEX
  5
CED
  8
0
 10
11.15093524157567
 20
6.9752158209434461
 30
0.0
  0
VERTEX
  5
CEE
  8
0
 10
11.05683452223748
 20
6.8575899217706811
 30
0.0
  0
VERTEX
  5
CEF
  8
0
 10
11.02154675248566
 20
6.7282014326806907
 30
0.0
  0
VERTEX
  5
CF0
  8
0
 10
11.0921222919893
 20
6.5517625839215716
 30
0.0
  0
VERTEX
  5
CF1
  8
0
 10
11.444999989507521
 20
6.2459352460724631
 30
0.0
  0
VERTEX
  5
CF2
  8
0
 10
11.59791365843207
 20
6.1753597065687984
 30
0.0
  0
VERTEX
  5
CF3
  8
0
 10
11.891978406363931
 20
6.1283093468996981
 30
0.0
  0
VERTEX
  5
CF4
  8
0
 10
12.93884890900131
 20
6.2929856057415341
 30
0.0
  0
VERTEX
  5
CF5
  8
0
 10
13.432877685526821
 20
6.3753237351624534
 30
0.0
  0
VERTEX
  5
CF6
  8
0
 10
13.66812948387229
 20
6.4106115049142991
 30
0.0
  0
VERTEX
  5
CF7
  8
0
 10
14.03276977130778
 20
6.49294963433519
 30
0.0
  0
VERTEX
  5
CF8
  8
0
 10
14.115107900728701
 20
6.4694244545006541
 30
0.0
  0
VERTEX
  5
CF9
  8
0
 10
14.18568344023234
 20
6.3282733754933531
 30
0.0
  0
VERTEX
  5
CFA
  8
0
 10
14.209208620066891
 20
6.1871222964860797
 30
0.0
  0
VERTEX
  5
CFB
  8
0
 10
14.173920850315071
 20
6.0930215771478791
 30
0.0
  0
VERTEX
  5
CFC
  8
0
 10
13.797517972962311
 20
6.0224460376442428
 30
0.0
  0
VERTEX
  5
CFD
  8
0
 10
12.96237408883586
 20
5.8577697788024059
 30
0.0
  0
VERTEX
  5
CFE
  8
0
 10
12.291906463551239
 20
5.7754316493814883
 30
0.0
  0
VERTEX
  5
CFF
  8
0
 10
12.091942434957581
 20
5.7166186997951343
 30
0.0
  0
VERTEX
  5
D00
  8
0
 10
11.903740996281201
 20
5.7166186997951343
 30
0.0
  0
VERTEX
  5
D01
  8
0
 10
11.444999989507521
 20
5.6695683401260331
 30
0.0
  0
VERTEX
  5
D02
  8
0
 10
10.7745323642229
 20
5.7636690594642062
 30
0.0
  0
VERTEX
  5
D03
  8
0
 10
10.5510431557947
 20
5.8460071888851237
 30
0.0
  0
VERTEX
  5
D04
  8
0
 10
10.139352508690109
 20
6.1753597065687984
 30
0.0
  0
VERTEX
  5
D05
  8
0
 10
9.9158633002619183
 20
6.4458992746661181
 30
0.0
  0
VERTEX
  5
D06
  8
0
 10
9.7629496313373494
 20
7.4339568277171111
 30
0.0
  0
VERTEX
  5
D07
  8
0
 10
9.8923381204273682
 20
7.8338848849044211
 30
0.0
  0
VERTEX
  5
D08
  8
0
 10
10.0570143792692
 20
8.1397122227535572
 30
0.0
  0
VERTEX
  5
D09
  8
0
 10
10.49223020620833
 20
8.4808273303544865
 30
0.0
  0
VERTEX
  5
D0A
  8
0
 10
11.11564747182385
 20
8.7748920782863422
 30
0.0
  0
VERTEX
  5
D0B
  8
0
 10
12.17428056437851
 20
8.9513309270454613
 30
0.0
  0
VERTEX
  5
D0C
  8
0
 10
12.5859712114831
 20
9.0336690564663797
 30
0.0
  0
VERTEX
  5
D0D
  8
0
 10
13.4799280451959
 20
9.1983453153082166
 30
0.0
  0
VERTEX
  5
D0E
  8
0
 10
13.50345322503045
 20
9.2101079052254704
 30
0.0
  0
VERTEX
  5
D0F
  8
0
 10
13.62107912420319
 20
9.1865827253909345
 30
0.0
  0
VERTEX
  5
D10
  8
0
 10
13.70341725362411
 20
9.0219064665490976
 30
0.0
  0
SEQEND
  5
D11
  8
0
  0
POLYLINE
  5
5F7
  8
0
 66
     1
 10
0.0
 20
0.0
 30
0.0
 70
     1
1001
ACAD
1000
ASC_BOUNDS
1002
{
1070
    19
1005
33F
1002
}
  0
VERTEX
  5
D12
  8
0
 10
8.8337050278727105
 20
7.8809352445735206
 30
0.0
  0
VERTEX
  5
D13
  8
0
 10
8.9513309270454471
 20
7.5868704966416649
 30
0.0
  0
VERTEX
  5
D14
  8
0
 10
9.4806474733227741
 20
6.4458992746661181
 30
0.0
  0
VERTEX
  5
D15
  8
0
 10
9.6217985523300626
 20
6.1283093468996981
 30
0.0
  0
VERTEX
  5
D16
  8
0
 10
9.6688489119991612
 20
5.8224820090505878
 30
0.0
  0
VERTEX
  5
D17
  8
0
 10
9.5512230128264264
 20
5.3872661821114596
 30
0.0
  0
VERTEX
  5
D18
  8
0
 10
9.304208624563671
 20
5.0579136644277858
 30
0.0
  0
VERTEX
  5
D19
  8
0
 10
9.1160071858872822
 20
4.8814748156686667
 30
0.0
  0
VERTEX
  5
D1A
  8
0
 10
8.7631294883690742
 20
4.6226978374886576
 30
0.0
  0
VERTEX
  5
D1B
  8
0
 10
7.8456474748217033
 20
4.1404316508804291
 30
0.0
  0
VERTEX
  5
D1C
  8
0
 10
7.5515827268898468
 20
4.0345683416249472
 30
0.0
  0
VERTEX
  5
D1D
  8
0
 10
7.3280935184616558
 20
3.9169424424522101
 30
0.0
  0
VERTEX
  5
D1E
  8
0
 10
6.5870503536733898
 20
3.764028773527655
 30
0.0
  0
VERTEX
  5
D1F
  8
0
 10
6.0106834477269748
 20
3.7993165432794731
 30
0.0
  0
VERTEX
  5
D20
  8
0
 10
5.5872302107051146
 20
4.0228057517076934
 30
0.0
  0
VERTEX
  5
D21
  8
0
 10
5.4225539518632777
 20
4.2462949601358844
 30
0.0
  0
VERTEX
  5
D22
  8
0
 10
5.3166906426078091
 20
4.4697841685640753
 30
0.0
  0
VERTEX
  5
D23
  8
0
 10
5.1873021535177912
 20
4.705035966909576
 30
0.0
  0
VERTEX
  5
D24
  8
0
 10
4.8932374055859489
 20
5.3637410022768961
 30
0.0
  0
VERTEX
  5
D25
  8
0
 10
4.6109352475713763
 20
5.8812949586369712
 30
0.0
  0
VERTEX
  5
D26
  8
0
 10
4.5050719383159068
 20
6.1400719368169803
 30
0.0
  0
VERTEX
  5
D27
  8
0
 10
4.552122297985008
 20
6.2459352460724631
 30
0.0
  0
VERTEX
  5
D28
  8
0
 10
5.2931654627732589
 20
6.5870503536733898
 30
0.0
  0
VERTEX
  5
D29
  8
0
 10
5.3755035921941783
 20
6.5870503536733898
 30
0.0
  0
VERTEX
  5
D2A
  8
0
 10
5.5872302107051146
 20
6.1753597065687984
 30
0.0
  0
VERTEX
  5
D2B
  8
0
 10
5.7754316493814883
 20
5.728381289712388
 30
0.0
  0
VERTEX
  5
D2C
  8
0
 10
5.8930575485542391
 20
5.5401798510360152
 30
0.0
  0
VERTEX
  5
D2D
  8
0
 10
6.1283093468997123
 20
5.069676254345068
 30
0.0
  0
VERTEX
  5
D2E
  8
0
 10
6.23417265615518
 20
4.8226618660823126
 30
0.0
  0
VERTEX
  5
D2F
  8
0
 10
6.3753237351624668
 20
4.5874100677368403
 30
0.0
  0
VERTEX
  5
D30
  8
0
 10
6.5988129435906719
 20
4.4462589887295394
 30
0.0
  0
VERTEX
  5
D31
  8
0
 10
6.8340647419361451
 20
4.4227338088950026
 30
0.0
  0
VERTEX
  5
D32
  8
0
 10
7.2928057487098243
 20
4.4344963988122572
 30
0.0
  0
VERTEX
  5
D33
  8
0
 10
7.4692445974689434
 20
4.505071938315921
 30
0.0
  0
VERTEX
  5
D34
  8
0
 10
7.6692086260625976
 20
4.5521222979849929
 30
0.0
  0
VERTEX
  5
D35
  8
0
 10
8.1397122227535572
 20
4.7873740963304954
 30
0.0
  0
VERTEX
  5
D36
  8
0
 10
8.551402869858137
 20
5.1402517938487051
 30
0.0
  0
VERTEX
  5
D37
  8
0
 10
8.7043165387827042
 20
5.469604311532378
 30
0.0
  0
VERTEX
  5
D38
  8
0
 10
8.6807913589481558
 20
5.7989568292160518
 30
0.0
  0
VERTEX
  5
D39
  8
0
 10
8.4455395606026684
 20
6.3517985553279166
 30
0.0
  0
VERTEX
  5
D3A
  8
0
 10
8.3043884815953817
 20
6.6811510730115913
 30
0.0
  0
VERTEX
  5
D3B
  8
0
 10
7.8456474748217033
 20
7.5868704966416649
 30
0.0
  0
VERTEX
  5
D3C
  8
0
 10
7.8221222949871532
 20
7.7044963958144299
 30
0.0
  0
VERTEX
  5
D3D
  8
0
 10
7.8456474748217033
 20
7.7750719353180671
 30
0.0
  0
VERTEX
  5
D3E
  8
0
 10
8.2102877622571953
 20
7.9397481941599031
 30
0.0
  0
VERTEX
  5
D3F
  8
0
 10
8.4455395606026684
 20
8.0808992731671765
 30
0.0
  0
VERTEX
  5
D40
  8
0
 10
8.6219784093617875
 20
8.1514748126708128
 30
0.0
  0
VERTEX
  5
D41
  8
0
 10
8.6807913589481558
 20
8.1279496328362768
 30
0.0
  0
VERTEX
  5
D42
  8
0
 10
8.8337050278727105
 20
7.8809352445735206
 30
0.0
  0
SEQEND
  5
D43
  8
0
  0
POLYLINE
  5
5F8
  8
0
 66
     1
 10
0.0
 20
0.0
 30
0.0
 70
     1
1001
ACAD
1000
ASC_BOUNDS
1002
{
1070
    19
1005
33F
1002
}
  0
VERTEX
  5
D44
  8
0
 10
3.681690644106737
 20
5.2461151031041586
 30
0.0
  0
VERTEX
  5
D45
  8
0
 10
3.6699280541894548
 20
5.1520143837659873
 30
0.0
  0
VERTEX
  5
D46
  8
0
 10
3.2699999970021452
 20
4.7991366862477491
 30
0.0
  0
VERTEX
  5
D47
  8
0
 10
2.481906472544793
 20
4.1286690609631469
 30
0.0
  0
VERTEX
  5
D48
  8
0
 10
2.2584172641165869
 20
3.96399280212131
 30
0.0
  0
VERTEX
  5
D49
  8
0
 10
1.6232374085838039
 20
3.422913665926699
 30
0.0
  0
VERTEX
  5
D4A
  8
0
 10
1.4115107900728669
 20
3.1758992776639441
 30
0.0
  0
VERTEX
  5
D4B
  8
0
 10
1.3644604304037811
 20
2.9406474793184709
 30
0.0
  0
VERTEX
  5
D4C
  8
0
 10
1.4232733799901489
 20
2.7289208608075621
 30
0.0
  0
VERTEX
  5
D4D
  8
0
 10
1.599712228749254
 20
2.5642446019657248
 30
0.0
  0
VERTEX
  5
D4E
  8
0
 10
1.9055395665983781
 20
2.5642446019657248
 30
0.0
  0
VERTEX
  5
D4F
  8
0
 10
2.1172661851093011
 20
2.6701079112211801
 30
0.0
  0
VERTEX
  5
D50
  8
0
 10
3.4817266155130819
 20
3.7993165432794731
 30
0.0
  0
VERTEX
  5
D51
  8
0
 10
4.1169064710458647
 20
4.1521942407976828
 30
0.0
  0
VERTEX
  5
D52
  8
0
 10
4.528597118150457
 20
4.2345323702186022
 30
0.0
  0
VERTEX
  5
D53
  8
0
 10
4.763848916495931
 20
4.2345323702186022
 30
0.0
  0
VERTEX
  5
D54
  8
0
 10
4.9755755350068682
 20
4.1286690609631469
 30
0.0
  0
VERTEX
  5
D55
  8
0
 10
5.2931654627732589
 20
3.775791363444938
 30
0.0
  0
VERTEX
  5
D56
  8
0
 10
5.3284532325250771
 20
3.540539565099436
 30
0.0
  0
VERTEX
  5
D57
  8
0
 10
5.3166906426078091
 20
3.1876618675812258
 30
0.0
  0
VERTEX
  5
D58
  8
0
 10
5.0343884845932356
 20
2.7053956809729982
 30
0.0
  0
VERTEX
  5
D59
  8
0
 10
4.8814748156686809
 20
2.5054316523793432
 30
0.0
  0
VERTEX
  5
D5A
  8
0
 10
2.7642086305593661
 20
0.7410431647882662
 30
0.0
  0
VERTEX
  5
D5B
  8
0
 10
2.2348920842820368
 20
0.3175899277663916
 30
0.0
  0
VERTEX
  5
D5C
  8
0
 10
2.152553954861133
 20
0.3175899277663916
 30
0.0
  0
VERTEX
  5
D5D
  8
0
 10
1.940827336350196
 20
0.5528417261118648
 30
0.0
  0
VERTEX
  5
D5E
  8
0
 10
1.952589926267464
 20
0.6469424454500654
 30
0.0
  0
VERTEX
  5
D5F
  8
0
 10
2.5054316523793432
 20
1.129208632058293
 30
0.0
  0
VERTEX
  5
D60
  8
0
 10
2.999460428904853
 20
1.5291366892456031
 30
0.0
  0
VERTEX
  5
D61
  8
0
 10
3.5875899247685501
 20
2.034928055688396
 30
0.0
  0
VERTEX
  5
D62
  8
0
 10
4.1286690609631469
 20
2.4936690624620601
 30
0.0
  0
VERTEX
  5
D63
  8
0
 10
4.316870499639534
 20
2.775971220476634
 30
0.0
  0
VERTEX
  5
D64
  8
0
 10
4.316870499639534
 20
3.0700359684084901
 30
0.0
  0
VERTEX
  5
D65
  8
0
 10
4.2345323702186164
 20
3.2111870474157911
 30
0.0
  0
VERTEX
  5
D66
  8
0
 10
4.0698561113767786
 20
3.3288129465885272
 30
0.0
  0
VERTEX
  5
D67
  8
0
 10
3.764028773527655
 20
3.3288129465885272
 30
0.0
  0
VERTEX
  5
D68
  8
0
 10
3.4699640255958002
 20
3.1758992776639441
 30
0.0
  0
VERTEX
  5
D69
  8
0
 10
2.681870501138448
 20
2.5407194221311609
 30
0.0
  0
VERTEX
  5
D6A
  8
0
 10
2.3289928036202379
 20
2.27017985403387
 30
0.0
  0
VERTEX
  5
D6B
  8
0
 10
1.9173021565156461
 20
1.91730215651566
 30
0.0
  0
VERTEX
  5
D6C
  8
0
 10
1.717338127921991
 20
1.7761510775083591
 30
0.0
  0
VERTEX
  5
D6D
  8
0
 10
1.2938848909001299
 20
1.6467625884183399
 30
0.0
  0
VERTEX
  5
D6E
  8
0
 10
1.0821582723891929
 20
1.6467625884183399
 30
0.0
  0
VERTEX
  5
D6F
  8
0
 10
0.6822302152018837
 20
1.7761510775083591
 30
0.0
  0
VERTEX
  5
D70
  8
0
 10
0.3646402874354919
 20
2.1290287750265691
 30
0.0
  0
VERTEX
  5
D71
  8
0
 10
0.3058273378491236
 20
2.27017985403387
 30
0.0
  0
VERTEX
  5
D72
  8
0
 10
0.3058273378491236
 20
2.5407194221311609
 30
0.0
  0
VERTEX
  5
D73
  8
0
 10
0.4352158269391282
 20
2.7877338103939162
 30
0.0
  0
VERTEX
  5
D74
  8
0
 10
0.5410791361945968
 20
3.0112230188221361
 30
0.0
  0
VERTEX
  5
D75
  8
0
 10
1.1527338118928441
 20
3.6699280541894548
 30
0.0
  0
VERTEX
  5
D76
  8
0
 10
1.3291726606519481
 20
3.7875539533621909
 30
0.0
  0
VERTEX
  5
D77
  8
0
 10
1.893776976681095
 20
4.2580575500531657
 30
0.0
  0
VERTEX
  5
D78
  8
0
 10
2.564244601965711
 20
4.8226618660823126
 30
0.0
  0
VERTEX
  5
D79
  8
0
 10
3.1758992776639579
 20
5.3519784123596423
 30
0.0
  0
VERTEX
  5
D7A
  8
0
 10
3.411151076009431
 20
5.504892081284197
 30
0.0
  0
VERTEX
  5
D7B
  8
0
 10
3.4934892054303499
 20
5.493129491366914
 30
0.0
  0
VERTEX
  5
D7C
  8
0
 10
3.681690644106737
 20
5.2461151031041586
 30
0.0
  0
SEQEND
  5
D7D
  8
0
  0
ENDBLK
  5
5FA
  8
0
  0
BLOCK
  8
0
  2
*X2
 70
     1
 10
0.0
 20
0.0
 30
0.0
  3
*X2
  1

  0
LINE
  5
341
  8
0
 62
     0
 10
30.522879643656761
 20
0.2940647479318485
 30
0.0
 11
30.6259771796039
 21
0.3971622838789823
 31
0.0
  0
LINE
  5
342
  8
0
 62
     0
 10
30.346102948360119
 20
0.2940647479318485
 30
0.0
 11
30.535785447041981
 21
0.4837472466137083
 31
0.0
  0
LINE
  5
343
  8
0
 62
     0
 10
31.760454058092169
 20
1.88519255296053
 30
0.0
 11
31.99183965006323
 21
2.1165781449315921
 31
0.0
  0
LINE
  5
344
  8
0
 62
     0
 10
30.169326253063481
 20
0.294064747931845
 30
0.0
 11
30.440516569337198
 21
0.5652550642055659
 31
0.0
  0
LINE
  5
345
  8
0
 62
     0
 10
31.331584225822329
 20
1.6330994159873251
 30
0.0
 11
32.239166617443651
 21
2.5406818076086539
 31
0.0
  0
LINE
  5
346
  8
0
 62
     0
 10
29.99254955776685
 20
0.2940647479318485
 30
0.0
 11
30.34524769163243
 21
0.6467628817974324
 31
0.0
  0
LINE
  5
347
  8
0
 62
     0
 10
31.097416647889229
 20
1.5757085333508709
 30
0.0
 11
32.31376020064328
 21
2.7920520861049152
 31
0.0
  0
LINE
  5
348
  8
0
 62
     0
 10
29.815772862470212
 20
0.2940647479318485
 30
0.0
 11
30.249978813927662
 21
0.7282706993892952
 31
0.0
  0
LINE
  5
349
  8
0
 62
     0
 10
29.935791339462121
 20
0.5908599202203959
 30
0.0
 11
30.154709936222879
 21
0.8097785169811562
 31
0.0
  0
LINE
  5
34A
  8
0
 62
     0
 10
30.886285769130719
 20
1.541354349888997
 30
0.0
 11
32.317777852809108
 21
2.972846433567383
 31
0.0
  0
LINE
  5
34B
  8
0
 62
     0
 10
29.63899616717358
 20
0.2940647479318485
 30
0.0
 11
29.891156812337002
 21
0.5462253930952717
 31
0.0
  0
LINE
  5
34C
  8
0
 62
     0
 10
29.890403181066421
 20
0.7222484571213279
 30
0.0
 11
30.0594410585181
 21
0.891286334573019
 31
0.0
  0
LINE
  5
34D
  8
0
 62
     0
 10
30.738971856383522
 20
1.5708171324384379
 30
0.0
 11
32.321795504974951
 21
3.153640781029853
 31
0.0
  0
LINE
  5
34E
  8
0
 62
     0
 10
29.462219471876939
 20
0.2940647479318485
 30
0.0
 11
29.651292404434081
 21
0.483137680488996
 31
0.0
  0
LINE
  5
34F
  8
0
 62
     0
 10
29.815516237842459
 20
0.8241382091940074
 30
0.0
 11
29.964172180813328
 21
0.9727941521648801
 31
0.0
  0
LINE
  5
350
  8
0
 62
     0
 10
30.591657943636331
 20
1.600279914987877
 30
0.0
 11
32.305314560774363
 21
3.3139365321259131
 31
0.0
  0
LINE
  5
351
  8
0
 62
     0
 10
29.2854427765803
 20
0.294064747931845
 30
0.0
 11
29.476319552967009
 21
0.484941524318554
 31
0.0
  0
LINE
  5
352
  8
0
 62
     0
 10
29.698667559132002
 20
0.8840662257801845
 30
0.0
 11
29.86890330310856
 21
1.0543019697567431
 31
0.0
  0
LINE
  5
353
  8
0
 62
     0
 10
30.444344030889141
 20
1.6297426975373179
 30
0.0
 11
32.26535409801285
 21
3.4507527646610381
 31
0.0
  0
LINE
  5
354
  8
0
 62
     0
 10
29.109990421181969
 20
0.2953890878301575
 30
0.0
 11
29.301346701499931
 21
0.4867453681481138
 31
0.0
  0
LINE
  5
355
  8
0
 62
     0
 10
29.609504861087011
 20
0.9716802230318375
 30
0.0
 11
29.773634425403781
 21
1.135809787348605
 31
0.0
  0
LINE
  5
356
  8
0
 62
     0
 10
30.303730136732622
 20
1.665905498677442
 30
0.0
 11
32.218213645933737
 21
3.5803890078785701
 31
0.0
  0
LINE
  5
357
  8
0
 62
     0
 10
28.935933367351439
 20
0.2981087292962616
 30
0.0
 11
29.126373850032849
 21
0.4885492119776718
 31
0.0
  0
LINE
  5
358
  8
0
 62
     0
 10
29.512477050886609
 20
1.0514291081280669
 30
0.0
 11
29.678365547699009
 21
1.2173176049404699
 31
0.0
  0
LINE
  5
359
  8
0
 62
     0
 10
30.172280799204351
 20
1.711232856445809
 30
0.0
 11
32.171073193854653
 21
3.710025251096102
 31
0.0
  0
LINE
  5
35A
  8
0
 62
     0
 10
28.761876313520901
 20
0.3008283707623622
 30
0.0
 11
28.95140099856577
 21
0.490353055807228
 31
0.0
  0
LINE
  5
35B
  8
0
 62
     0
 10
30.040831461676081
 20
1.756560214214179
 30
0.0
 11
30.716617439509282
 21
2.4323461920473761
 31
0.0
  0
LINE
  5
35C
  8
0
 62
     0
 10
29.4154492406862
 20
1.131177993224294
 30
0.0
 11
29.583096669994241
 21
1.298825422532333
 31
0.0
  0
LINE
  5
35D
  8
0
 62
     0
 10
31.333741473414879
 20
3.0494702259529798
 30
0.0
 11
32.114970727365112
 21
3.8306994799032061
 31
0.0
  0
LINE
  5
35E
  8
0
 62
     0
 10
28.58781925969037
 20
0.3035480122284664
 30
0.0
 11
28.776428147098692
 21
0.492156899636786
 31
0.0
  0
LINE
  5
35F
  8
0
 62
     0
 10
29.922684430926669
 20
1.815189878761406
 30
0.0
 11
30.451935911645808
 21
2.3444413594805349
 31
0.0
  0
LINE
  5
360
  8
0
 62
     0
 10
29.318421430485792
 20
1.2109268783205169
 30
0.0
 11
29.484612312547089
 21
1.3771177603818301
 31
0.0
  0
LINE
  5
361
  8
0
 62
     0
 10
31.43523861377242
 20
3.3277440616071501
 30
0.0
 11
32.04964020953809
 21
3.9421456573728211
 31
0.0
  0
LINE
  5
362
  8
0
 62
     0
 10
28.425818177740759
 20
0.3183236255754931
 30
0.0
 11
28.601455295631609
 21
0.493960743466344
 31
0.0
  0
LINE
  5
363
  8
0
 62
     0
 10
29.807314377154139
 20
1.8765965202855039
 30
0.0
 11
30.256626309314441
 21
2.3259084524458098
 31
0.0
  0
LINE
  5
364
  8
0
 62
     0
 10
29.221393620285379
 20
1.2906757634167461
 30
0.0
 11
29.3842206090453
 21
1.453502752176673
 31
0.0
  0
LINE
  5
365
  8
0
 62
     0
 10
31.483626812460368
 20
3.5529089555917368
 30
0.0
 11
31.984309691711079
 21
4.053591834842444
 31
0.0
  0
LINE
  5
366
  8
0
 62
     0
 10
28.32622567334829
 20
0.3955078164796593
 30
0.0
 11
28.48144978522706
 21
0.5507319283584256
 31
0.0
  0
LINE
  5
367
  8
0
 62
     0
 10
29.691944323381591
 20
1.9380031618096001
 30
0.0
 11
30.117523335966268
 21
2.3635821743942751
 31
0.0
  0
LINE
  5
368
  8
0
 62
     0
 10
29.124365810084971
 20
1.3704246485129761
 30
0.0
 11
29.283828905543508
 21
1.5298877439715191
 31
0.0
  0
LINE
  5
369
  8
0
 62
     0
 10
31.45416402991092
 20
3.7002228683389351
 30
0.0
 11
31.911720045577461
 21
4.1577788840054613
 31
0.0
  0
LINE
  5
36A
  8
0
 62
     0
 10
28.226633168955821
 20
0.4726920073838237
 30
0.0
 11
28.370183689587339
 21
0.6162425280153486
 31
0.0
  0
LINE
  5
36B
  8
0
 62
     0
 10
29.576574269609051
 20
1.999409803333694
 30
0.0
 11
29.978420362618088
 21
2.401255896342732
 31
0.0
  0
LINE
  5
36C
  8
0
 62
     0
 10
29.027337999884558
 20
1.4501735336092001
 30
0.0
 11
29.18343720204172
 21
1.606272735766358
 31
0.0
  0
LINE
  5
36D
  8
0
 62
     0
 10
31.42470124736148
 20
3.8475367810861298
 30
0.0
 11
31.829581379075979
 21
4.2524169128006291
 31
0.0
  0
LINE
  5
36E
  8
0
 62
     0
 10
28.127040664563349
 20
0.5498761982879881
 30
0.0
 11
28.270356849890419
 21
0.6931923836150613
 31
0.0
  0
LINE
  5
36F
  8
0
 62
     0
 10
29.46120421583651
 20
2.0608164448577879
 30
0.0
 11
29.839317389269919
 21
2.4389296182912008
 31
0.0
  0
LINE
  5
370
  8
0
 62
     0
 10
28.930310189684139
 20
1.5299224187054259
 30
0.0
 11
29.083045498539931
 21
1.6826577275612029
 31
0.0
  0
LINE
  5
371
  8
0
 62
     0
 10
31.365940671107051
 20
3.9655529001283329
 30
0.0
 11
31.747442712574522
 21
4.3470549415958004
 31
0.0
  0
LINE
  5
372
  8
0
 62
     0
 10
28.02744816017087
 20
0.6270603891921543
 30
0.0
 11
28.170530010193492
 21
0.7701422392147741
 31
0.0
  0
LINE
  5
373
  8
0
 62
     0
 10
29.345834162063969
 20
2.1222230863818861
 30
0.0
 11
29.704048839961459
 21
2.4804377642793809
 31
0.0
  0
LINE
  5
374
  8
0
 62
     0
 10
28.833282379483741
 20
1.6096713038016519
 30
0.0
 11
28.982653795038129
 21
1.7590427193560449
 31
0.0
  0
LINE
  5
375
  8
0
 62
     0
 10
31.298349581728932
 20
4.0747385060468426
 30
0.0
 11
31.66530404607305
 21
4.4416929703909647
 31
0.0
  0
LINE
  5
376
  8
0
 62
     0
 10
27.92581618704288
 20
0.7022051113607902
 30
0.0
 11
28.070703170496571
 21
0.8470920948144868
 31
0.0
  0
LINE
  5
377
  8
0
 62
     0
 10
29.23914858358679
 20
2.192314203201343
 30
0.0
 11
29.587309512878779
 21
2.5404751324933321
 31
0.0
  0
LINE
  5
378
  8
0
 62
     0
 10
28.73302597329948
 20
1.6861915929140401
 30
0.0
 11
28.88226209153634
 21
1.8354277111508901
 31
0.0
  0
LINE
  5
379
  8
0
 62
     0
 10
31.230758492350802
 20
4.183924111965351
 30
0.0
 11
31.583165379571579
 21
4.536330999186136
 31
0.0
  0
LINE
  5
37A
  8
0
 62
     0
 10
27.821563264175619
 20
0.7747288837901803
 30
0.0
 11
27.970876330799651
 21
0.9240419504141996
 31
0.0
  0
LINE
  5
37B
  8
0
 62
     0
 10
29.140939308421991
 20
2.270881623333179
 30
0.0
 11
29.470570185796088
 21
2.6005125007072829
 31
0.0
  0
LINE
  5
37C
  8
0
 62
     0
 10
28.622540538739091
 20
1.752482853650279
 30
0.0
 11
28.781870388034541
 21
1.9118127029457339
 31
0.0
  0
LINE
  5
37D
  8
0
 62
     0
 10
31.163167402972672
 20
4.2931097178838673
 30
0.0
 11
31.501026713070111
 21
4.6309690279813056
 31
0.0
  0
LINE
  5
37E
  8
0
 62
     0
 10
27.71731034130838
 20
0.8472526562195704
 30
0.0
 11
27.87104949110272
 21
1.00099180601391
 31
0.0
  0
LINE
  5
37F
  8
0
 62
     0
 10
29.0427300332572
 20
2.349449043465019
 30
0.0
 11
29.353830858713408
 21
2.6605498689212359
 31
0.0
  0
LINE
  5
380
  8
0
 62
     0
 10
28.519948259156131
 20
1.826667269363955
 30
0.0
 11
28.681478684532738
 21
1.988197694740572
 31
0.0
  0
LINE
  5
381
  8
0
 62
     0
 10
31.08869536160125
 20
4.3954143718090783
 30
0.0
 11
31.41888804656865
 21
4.7256070567764707
 31
0.0
  0
LINE
  5
382
  8
0
 62
     0
 10
27.61509156305371
 20
0.9218105732615332
 30
0.0
 11
27.767936139610061
 21
1.074655149817884
 31
0.0
  0
LINE
  5
383
  8
0
 62
     0
 10
28.944520758092398
 20
2.4280164635968582
 30
0.0
 11
29.249674470829671
 21
2.7331701763341298
 31
0.0
  0
LINE
  5
384
  8
0
 62
     0
 10
28.421738983991329
 20
1.905234689495795
 30
0.0
 11
28.58108698103095
 21
2.0645826865354162
 31
0.0
  0
LINE
  5
385
  8
0
 62
     0
 10
30.992872480038599
 20
4.4763681855430546
 30
0.0
 11
31.325176318176791
 21
4.8086720236812504
 31
0.0
  0
LINE
  5
386
  8
0
 62
     0
 10
27.513252814676289
 20
0.9967485201807591
 30
0.0
 11
27.663477183298411
 21
1.1469728888028781
 31
0.0
  0
LINE
  5
387
  8
0
 62
     0
 10
28.8463114829276
 20
2.506583883728696
 30
0.0
 11
29.152447288416511
 21
2.8127196892176149
 31
0.0
  0
LINE
  5
388
  8
0
 62
     0
 10
28.320839871435489
 20
1.981112272236593
 30
0.0
 11
28.480695277529161
 21
2.1409676783302589
 31
0.0
  0
LINE
  5
389
  8
0
 62
     0
 10
30.897049598475931
 20
4.5573219992770273
 30
0.0
 11
31.22933353157017
 21
4.8896059323712757
 31
0.0
  0
LINE
  5
38A
  8
0
 62
     0
 10
27.411414066298882
 20
1.0716864670999851
 30
0.0
 11
27.559018226986758
 21
1.219290627787863
 31
0.0
  0
LINE
  5
38B
  8
0
 62
     0
 10
28.748102207762798
 20
2.5851513038605338
 30
0.0
 11
29.055220106003361
 21
2.8922692021011041
 31
0.0
  0
LINE
  5
38C
  8
0
 62
     0
 10
28.21176488923118
 20
2.0488139853289229
 30
0.0
 11
28.374949548905171
 21
2.211998645002907
 31
0.0
  0
LINE
  5
38D
  8
0
 62
     0
 10
30.801226716913259
 20
4.6382758130110036
 30
0.0
 11
31.13349074496357
 21
4.9705398410613038
 31
0.0
  0
LINE
  5
38E
  8
0
 62
     0
 10
27.309575317921471
 20
1.146624414019211
 30
0.0
 11
27.454559270675109
 21
1.291608366772852
 31
0.0
  0
LINE
  5
38F
  8
0
 62
     0
 10
28.649892932598
 20
2.6637187239923761
 30
0.0
 11
28.97110351113227
 21
2.9849293025266501
 31
0.0
  0
LINE
  5
390
  8
0
 62
     0
 10
28.102689907026878
 20
2.1165156984212521
 30
0.0
 11
28.26824649859098
 21
2.2820722899853592
 31
0.0
  0
LINE
  5
391
  8
0
 62
     0
 10
30.705403835350602
 20
4.719229626744978
 30
0.0
 11
31.03764795835696
 21
5.0514737497513318
 31
0.0
  0
LINE
  5
392
  8
0
 62
     0
 10
27.207736569544061
 20
1.2215623609384381
 30
0.0
 11
27.350100314363459
 21
1.36392610575784
 31
0.0
  0
LINE
  5
393
  8
0
 62
     0
 10
28.555116073106909
 20
2.7457185597979201
 30
0.0
 11
28.88720948624573
 21
3.077811972936745
 31
0.0
  0
LINE
  5
394
  8
0
 62
     0
 10
27.994226625367709
 20
2.184829112058718
 30
0.0
 11
28.161543448276799
 21
2.3521459349678091
 31
0.0
  0
LINE
  5
395
  8
0
 62
     0
 10
30.60958095378794
 20
4.8001834404789463
 30
0.0
 11
30.94180517175035
 21
5.1324076584413554
 31
0.0
  0
LINE
  5
396
  8
0
 62
     0
 10
27.10589782116665
 20
1.296500307857662
 30
0.0
 11
27.24564135805181
 21
1.4362438447428261
 31
0.0
  0
LINE
  5
397
  8
0
 62
     0
 10
28.467638945537441
 20
2.835018127525085
 30
0.0
 11
28.80331546135919
 21
3.1706946433468408
 31
0.0
  0
LINE
  5
398
  8
0
 62
     0
 10
27.890240334016742
 20
2.2576195160043908
 30
0.0
 11
28.054840397962611
 21
2.4222195799502599
 31
0.0
  0
LINE
  5
399
  8
0
 62
     0
 10
30.513758072225269
 20
4.8811372542129234
 30
0.0
 11
30.845775499400101
 21
5.2131546813877447
 31
0.0
  0
LINE
  5
39A
  8
0
 62
     0
 10
27.007589450406559
 20
1.374968632394207
 30
0.0
 11
27.141182401740171
 21
1.5085615837278139
 31
0.0
  0
LINE
  5
39B
  8
0
 62
     0
 10
28.38016181796797
 20
2.924317695252252
 30
0.0
 11
28.720531156531671
 21
3.2646870338159579
 31
0.0
  0
LINE
  5
39C
  8
0
 62
     0
 10
27.786254042665782
 20
2.330409919950065
 30
0.0
 11
27.94813734764843
 21
2.4922932249327099
 31
0.0
  0
LINE
  5
39D
  8
0
 62
     0
 10
30.41543141598477
 20
4.9595872932690499
 30
0.0
 11
30.749351847420112
 21
5.293507724704396
 31
0.0
  0
LINE
  5
39E
  8
0
 62
     0
 10
26.910647391695498
 20
1.4548032689797861
 30
0.0
 11
27.036723445428521
 21
1.5808793227127991
 31
0.0
  0
LINE
  5
39F
  8
0
 62
     0
 10
28.292684690398492
 20
3.0136172629794191
 30
0.0
 11
28.655939671711749
 21
3.3768722442926711
 31
0.0
  0
LINE
  5
3A0
  8
0
 62
     0
 10
27.682267751314821
 20
2.4032003238957418
 30
0.0
 11
27.841434297334239
 21
2.562366869915162
 31
0.0
  0
LINE
  5
3A1
  8
0
 62
     0
 10
30.29942170969635
 20
5.020354282277272
 30
0.0
 11
30.63901964756813
 21
5.3599522201490517
 31
0.0
  0
LINE
  5
3A2
  8
0
 62
     0
 10
26.791509636293501
 20
1.5124422088744209
 30
0.0
 11
26.932264489116871
 21
1.653197061697788
 31
0.0
  0
LINE
  5
3A3
  8
0
 62
     0
 10
28.205207562829031
 20
3.1029168307065862
 30
0.0
 11
28.591348186891832
 21
3.4890574547693851
 31
0.0
  0
LINE
  5
3A4
  8
0
 62
     0
 10
27.575485464848612
 20
2.4731947327261681
 30
0.0
 11
27.734731247020051
 21
2.6324405148976111
 31
0.0
  0
LINE
  5
3A5
  8
0
 62
     0
 10
30.183412003407941
 20
5.0811212712854941
 30
0.0
 11
30.526383169149032
 21
5.4240924370265962
 31
0.0
  0
LINE
  5
3A6
  8
0
 62
     0
 10
26.664115303030162
 20
1.5618245709077181
 30
0.0
 11
26.827805532805218
 21
1.725514800682777
 31
0.0
  0
LINE
  5
3A7
  8
0
 62
     0
 10
28.11773043525956
 20
3.192216398433755
 30
0.0
 11
28.5267567020719
 21
3.6012426652460969
 31
0.0
  0
LINE
  5
3A8
  8
0
 62
     0
 10
27.467651680717669
 20
2.5421376438918588
 30
0.0
 11
27.62372424180586
 21
2.6982102049800529
 31
0.0
  0
LINE
  5
3A9
  8
0
 62
     0
 10
30.04705967067196
 20
5.12154563384615
 30
0.0
 11
30.413746690729941
 21
5.4882326539041371
 31
0.0
  0
LINE
  5
3AA
  8
0
 62
     0
 10
26.55900483555649
 20
1.633490798730681
 30
0.0
 11
26.719718006137541
 21
1.794203969311734
 31
0.0
  0
LINE
  5
3AB
  8
0
 62
     0
 10
28.030253307690081
 20
3.2815159661609199
 30
0.0
 11
28.475151695937591
 21
3.7264143544084152
 31
0.0
  0
LINE
  5
3AC
  8
0
 62
     0
 10
27.359817896586719
 20
2.6110805550575451
 30
0.0
 11
27.50771453551744
 21
2.758977193988275
 31
0.0
  0
LINE
  5
3AD
  8
0
 62
     0
 10
29.910600467285072
 20
5.16186312575591
 30
0.0
 11
30.301110212310839
 21
5.5523728707816744
 31
0.0
  0
LINE
  5
3AE
  8
0
 62
     0
 10
26.45389436808281
 20
1.7051570265536391
 30
0.0
 11
26.6074128114785
 21
1.85867546994933
 31
0.0
  0
LINE
  5
3AF
  8
0
 62
     0
 10
27.95646079380705
 20
3.384500147574518
 30
0.0
 11
28.432296739502029
 21
3.8603360932694999
 31
0.0
  0
LINE
  5
3B0
  8
0
 62
     0
 10
27.251984112455769
 20
2.6800234662232341
 30
0.0
 11
27.392493703879101
 21
2.820533057646569
 31
0.0
  0
LINE
  5
3B1
  8
0
 62
     0
 10
29.774141263898201
 20
5.2021806176656664
 30
0.0
 11
30.188473733891751
 21
5.6165130876592162
 31
0.0
  0
LINE
  5
3B2
  8
0
 62
     0
 10
26.344541897361371
 20
1.772581251128835
 30
0.0
 11
26.49510761681946
 21
1.9231469705869251
 31
0.0
  0
LINE
  5
3B3
  8
0
 62
     0
 10
27.884794565984091
 20
3.4896106150481918
 30
0.0
 11
28.41786566237344
 21
4.0226817114375404
 31
0.0
  0
LINE
  5
3B4
  8
0
 62
     0
 10
27.14415032832482
 20
2.7489663773889239
 30
0.0
 11
27.27885154261697
 21
2.8836675916810801
 31
0.0
  0
LINE
  5
3B5
  8
0
 62
     0
 10
29.62358391291578
 20
5.2283999619798873
 30
0.0
 11
30.075837255472649
 21
5.6806533045367589
 31
0.0
  0
LINE
  5
3B6
  8
0
 62
     0
 10
26.233061098525649
 20
1.837877147589754
 30
0.0
 11
26.38280242216042
 21
1.9876184712245251
 31
0.0
  0
LINE
  5
3B7
  8
0
 62
     0
 10
27.81947409256351
 20
3.6010668369242529
 30
0.0
 11
28.458136129209858
 21
4.2397288735706029
 31
0.0
  0
LINE
  5
3B8
  8
0
 62
     0
 10
27.03631654419387
 20
2.8179092885546111
 30
0.0
 11
27.165209381354849
 21
2.946802125715597
 31
0.0
  0
LINE
  5
3B9
  8
0
 62
     0
 10
29.41705986921324
 20
5.1986526135739846
 30
0.0
 11
29.963200777053562
 21
5.7447935214142989
 31
0.0
  0
LINE
  5
3BA
  8
0
 62
     0
 10
26.121580299689931
 20
1.903173044050678
 30
0.0
 11
26.27049722750137
 21
2.0520899718621211
 31
0.0
  0
LINE
  5
3BB
  8
0
 62
     0
 10
27.763532100381031
 20
3.7219015400384068
 30
0.0
 11
28.69332311220457
 21
4.651692551861955
 31
0.0
  0
LINE
  5
3BC
  8
0
 62
     0
 10
26.926800673162798
 20
2.8851701128201759
 30
0.0
 11
27.053267290626721
 21
3.0116367302841001
 31
0.0
  0
LINE
  5
3BD
  8
0
 62
     0
 10
29.015512394037849
 20
4.9738818336952297
 30
0.0
 11
29.842139506341749
 21
5.8005089459991304
 31
0.0
  0
LINE
  5
3BE
  8
0
 62
     0
 10
26.010099500854221
 20
1.9684689405115949
 30
0.0
 11
26.15819203284234
 21
2.1165614724997162
 31
0.0
  0
LINE
  5
3BF
  8
0
 62
     0
 10
26.795854972943062
 20
2.9310011078970848
 30
0.0
 11
26.942781856066318
 21
3.0779279910203381
 31
0.0
  0
LINE
  5
3C0
  8
0
 62
     0
 10
27.707590108198549
 20
3.842736243152566
 30
0.0
 11
29.70464652111103
 21
5.8397926560650504
 31
0.0
  0
LINE
  5
3C1
  8
0
 62
     0
 10
25.898618702018499
 20
2.033764836972519
 30
0.0
 11
26.047750787936369
 21
2.1828969228903872
 31
0.0
  0
LINE
  5
3C2
  8
0
 62
     0
 10
26.670404306030228
 20
2.9823271362808859
 30
0.0
 11
26.83229642150593
 21
3.144219251756577
 31
0.0
  0
LINE
  5
3C3
  8
0
 62
     0
 10
27.651648116016069
 20
3.9635709462667199
 30
0.0
 11
29.567153535880308
 21
5.8790763661309677
 31
0.0
  0
LINE
  5
3C4
  8
0
 62
     0
 10
25.787137903182781
 20
2.0990607334334359
 30
0.0
 11
25.937756399751802
 21
2.2496792300024491
 31
0.0
  0
LINE
  5
3C5
  8
0
 62
     0
 10
26.55935227949773
 20
3.0480518050450232
 30
0.0
 11
26.721810986945531
 21
3.2105105124928168
 31
0.0
  0
LINE
  5
3C6
  8
0
 62
     0
 10
27.59570612383359
 20
4.08440564938088
 30
0.0
 11
29.42966055064959
 21
5.9183600761968851
 31
0.0
  0
LINE
  5
3C7
  8
0
 62
     0
 10
25.675657104347071
 20
2.164356629894356
 30
0.0
 11
25.82776201156722
 21
2.316461537114511
 31
0.0
  0
LINE
  5
3C8
  8
0
 62
     0
 10
26.448300252965229
 20
3.11377647380916
 30
0.0
 11
26.611325552385129
 21
3.2768017732290562
 31
0.0
  0
LINE
  5
3C9
  8
0
 62
     0
 10
27.543655620163861
 20
4.2091318410077898
 30
0.0
 11
29.287661584445448
 21
5.9531378052893782
 31
0.0
  0
LINE
  5
3CA
  8
0
 62
     0
 10
25.5623923423984
 20
2.2278685632423239
 30
0.0
 11
25.717767623382649
 21
2.3832438442265782
 31
0.0
  0
LINE
  5
3CB
  8
0
 62
     0
 10
26.337248226432731
 20
3.1795011425732902
 30
0.0
 11
26.50084011782473
 21
3.343093033965292
 31
0.0
  0
LINE
  5
3CC
  8
0
 62
     0
 10
27.51419283761442
 20
4.3564457537549863
 30
0.0
 11
29.119508142577921
 21
5.9617610587184826
 31
0.0
  0
LINE
  5
3CD
  8
0
 62
     0
 10
25.44454121220064
 20
2.2867941283412012
 30
0.0
 11
25.607773235198081
 21
2.4500261513386361
 31
0.0
  0
LINE
  5
3CE
  8
0
 62
     0
 10
26.226196199900219
 20
3.2452258113374248
 30
0.0
 11
26.390354683264331
 21
3.4093842947015331
 31
0.0
  0
LINE
  5
3CF
  8
0
 62
     0
 10
27.51523390734063
 20
4.5342635187778342
 30
0.0
 11
28.951354700710379
 21
5.970384312147587
 31
0.0
  0
LINE
  5
3D0
  8
0
 62
     0
 10
25.32669008200288
 20
2.3457196934400808
 30
0.0
 11
25.4977788470135
 21
2.516808458450702
 31
0.0
  0
LINE
  5
3D1
  8
0
 62
     0
 10
26.114268265982918
 20
3.3100745727167569
 30
0.0
 11
26.274651156028369
 21
3.4704574627621989
 31
0.0
  0
LINE
  5
3D2
  8
0
 62
     0
 10
27.54123048017837
 20
4.7370367869122108
 30
0.0
 11
28.759021677954749
 21
5.9548279846885928
 31
0.0
  0
LINE
  5
3D3
  8
0
 62
     0
 10
25.20883895180512
 20
2.4046452585389608
 30
0.0
 11
25.377962119527592
 21
2.5737684262614322
 31
0.0
  0
LINE
  5
3D4
  8
0
 62
     0
 10
25.99304996063665
 20
3.3656329626671311
 30
0.0
 11
26.155728651919709
 21
3.5283116539501882
 31
0.0
  0
LINE
  5
3D5
  8
0
 62
     0
 10
27.610604538707381
 20
4.9831875407378572
 30
0.0
 11
28.49889152718448
 21
5.8714745292149546
 31
0.0
  0
LINE
  5
3D6
  8
0
 62
     0
 10
25.09098782160736
 20
2.4635708236378391
 30
0.0
 11
25.255961301646821
 21
2.6285443036772942
 31
0.0
  0
LINE
  5
3D7
  8
0
 62
     0
 10
26.41952739381583
 20
3.9688870911429399
 30
0.0
 11
26.519835274688539
 21
4.0691949720156551
 31
0.0
  0
LINE
  5
3D8
  8
0
 62
     0
 10
25.871831655290389
 20
3.4211913526175031
 30
0.0
 11
26.03680614781107
 21
3.5861658451381788
 31
0.0
  0
LINE
  5
3D9
  8
0
 62
     0
 10
27.88245619370938
 20
5.4318158910364982
 30
0.0
 11
28.064870584323771
 21
5.614230281650884
 31
0.0
  0
LINE
  5
3DA
  8
0
 62
     0
 10
24.9731366914096
 20
2.5224963887367169
 30
0.0
 11
25.133960483766039
 21
2.683320181093154
 31
0.0
  0
LINE
  5
3DB
  8
0
 62
     0
 10
25.76092384866698
 20
3.4870602412907248
 30
0.0
 11
25.917883643702421
 21
3.6440200363261681
 31
0.0
  0
LINE
  5
3DC
  8
0
 62
     0
 10
26.297143527841239
 20
4.0232799204649812
 30
0.0
 11
26.47331509171574
 21
4.1994514843394892
 31
0.0
  0
LINE
  5
3DD
  8
0
 62
     0
 10
24.855285561211851
 20
2.5814219538355969
 30
0.0
 11
25.011959665885271
 21
2.7380960585090128
 31
0.0
  0
LINE
  5
3DE
  8
0
 62
     0
 10
25.648321760440371
 20
3.5512348483607581
 30
0.0
 11
25.798961139593771
 21
3.7018742275141561
 31
0.0
  0
LINE
  5
3DF
  8
0
 62
     0
 10
26.174759661866641
 20
4.0776727497870251
 30
0.0
 11
26.426794908742941
 21
4.3297079966633278
 31
0.0
  0
LINE
  5
3E0
  8
0
 62
     0
 10
24.737434431014091
 20
2.6403475189344738
 30
0.0
 11
24.89008236063744
 21
2.7929954485578259
 31
0.0
  0
LINE
  5
3E1
  8
0
 62
     0
 10
25.52193213540961
 20
3.6016219186266318
 30
0.0
 11
25.680038635485129
 21
3.7597284187021489
 31
0.0
  0
LINE
  5
3E2
  8
0
 62
     0
 10
26.05237579589204
 20
4.1320655791090646
 30
0.0
 11
26.373988647659601
 21
4.4536784308766206
 31
0.0
  0
LINE
  5
3E3
  8
0
 62
     0
 10
24.614768269906978
 20
2.694458053124007
 30
0.0
 11
24.76939827057916
 21
2.8490880537961809
 31
0.0
  0
LINE
  5
3E4
  8
0
 62
     0
 10
25.40648613031793
 20
3.662952608831588
 30
0.0
 11
25.56111613137648
 21
3.8175826098901391
 31
0.0
  0
LINE
  5
3E5
  8
0
 62
     0
 10
25.933418346680789
 20
4.1898848251944498
 30
0.0
 11
26.319873332772868
 21
4.5763398112865321
 31
0.0
  0
LINE
  5
3E6
  8
0
 62
     0
 10
24.489984720285829
 20
2.7464511987994871
 30
0.0
 11
24.64871418052088
 21
2.9051806590345421
 31
0.0
  0
LINE
  5
3E7
  8
0
 62
     0
 10
25.29104012522625
 20
3.724283299036546
 30
0.0
 11
25.44078833301128
 21
3.874031506821578
 31
0.0
  0
LINE
  5
3E8
  8
0
 62
     0
 10
25.816473763638399
 20
4.2497169374486967
 30
0.0
 11
26.265758017886139
 21
4.6990011916964436
 31
0.0
  0
LINE
  5
3E9
  8
0
 62
     0
 10
24.365201170664669
 20
2.798444344474972
 30
0.0
 11
24.5280300904626
 21
2.9612732642728949
 31
0.0
  0
LINE
  5
3EA
  8
0
 62
     0
 10
25.699529180596009
 20
4.3095490497029418
 30
0.0
 11
26.21164270299942
 21
4.8216625721063551
 31
0.0
  0
LINE
  5
3EB
  8
0
 62
     0
 10
25.175594120134569
 20
3.7856139892414991
 30
0.0
 11
25.317168266370281
 21
3.9271881354772069
 31
0.0
  0
LINE
  5
3EC
  8
0
 62
     0
 10
26.968841366276958
 20
5.5788612353838927
 30
0.0
 11
27.537119672265511
 21
6.1471395413724457
 31
0.0
  0
LINE
  5
3ED
  8
0
 62
     0
 10
24.24041762104352
 20
2.850437490150453
 30
0.0
 11
24.407346000404321
 21
3.0173658695112522
 31
0.0
  0
LINE
  5
3EE
  8
0
 62
     0
 10
25.58258459755362
 20
4.3693811619571887
 30
0.0
 11
26.157527388112701
 21
4.9443239525162648
 31
0.0
  0
LINE
  5
3EF
  8
0
 62
     0
 10
25.0521128991609
 20
3.8389094635644669
 30
0.0
 11
25.193548199729271
 21
3.9803447641328411
 31
0.0
  0
LINE
  5
3F0
  8
0
 62
     0
 10
26.717737254820172
 20
5.5045338192237407
 30
0.0
 11
27.545958507030338
 21
6.3327550714339154
 31
0.0
  0
LINE
  5
3F1
  8
0
 62
     0
 10
24.11604177216897
 20
2.9028383365725432
 30
0.0
 11
24.28666191034603
 21
3.0734584747496081
 31
0.0
  0
LINE
  5
3F2
  8
0
 62
     0
 10
25.482272476636091
 20
4.4458457363362953
 30
0.0
 11
26.103412073225972
 21
5.0669853329261763
 31
0.0
  0
LINE
  5
3F3
  8
0
 62
     0
 10
24.928369212453251
 20
3.891942472153457
 30
0.0
 11
25.069928133088261
 21
4.0335013927884713
 31
0.0
  0
LINE
  5
3F4
  8
0
 62
     0
 10
26.537494349811841
 20
5.5010676095120434
 30
0.0
 11
27.509061268886011
 21
6.4726345285862168
 31
0.0
  0
LINE
  5
3F5
  8
0
 62
     0
 10
23.993657906194379
 20
2.9572311658945871
 30
0.0
 11
24.16597782028775
 21
3.12955107998796
 31
0.0
  0
LINE
  5
3F6
  8
0
 62
     0
 10
25.419880701825509
 20
4.5602306568223527
 30
0.0
 11
26.058825148690762
 21
5.1991751036876011
 31
0.0
  0
LINE
  5
3F7
  8
0
 62
     0
 10
24.8046255257456
 20
3.9449754807424489
 30
0.0
 11
24.946308066447259
 21
4.0866580214441033
 31
0.0
  0
LINE
  5
3F8
  8
0
 62
     0
 10
26.357251444803499
 20
5.4976013998003452
 30
0.0
 11
27.458553641658401
 21
6.5989035966552461
 31
0.0
  0
LINE
  5
3F9
  8
0
 62
     0
 10
23.871274040219781
 20
3.0116239952166248
 30
0.0
 11
24.04396292487953
 21
3.1843128798763738
 31
0.0
  0
LINE
  5
3FA
  8
0
 62
     0
 10
25.358116571134939
 20
4.6752432214284196
 30
0.0
 11
26.03576731886946
 21
5.35289396916294
 31
0.0
  0
LINE
  5
3FB
  8
0
 62
     0
 10
24.680881839037959
 20
3.9980084893314389
 30
0.0
 11
24.822687999806249
 21
4.139814650099737
 31
0.0
  0
LINE
  5
3FC
  8
0
 62
     0
 10
26.177008539795171
 20
5.4941351900886479
 30
0.0
 11
27.408046014430791
 21
6.7251726647242744
 31
0.0
  0
LINE
  5
3FD
  8
0
 62
     0
 10
23.744208970079711
 20
3.0613356203731961
 30
0.0
 11
23.915618200897029
 21
3.232744851190521
 31
0.0
  0
LINE
  5
3FE
  8
0
 62
     0
 10
24.557138152330321
 20
4.0510414979204308
 30
0.0
 11
24.699067933165249
 21
4.192971278755369
 31
0.0
  0
LINE
  5
3FF
  8
0
 62
     0
 10
25.31047462488479
 20
4.8043779704748992
 30
0.0
 11
27.32964716138822
 21
6.8235505069783349
 31
0.0
  0
LINE
  5
400
  8
0
 62
     0
 10
23.613681991575799
 20
3.1075853371659221
 30
0.0
 11
23.78727347691455
 21
3.2811768225046691
 31
0.0
  0
LINE
  5
401
  8
0
 62
     0
 10
24.433394465622669
 20
4.1040745065094226
 30
0.0
 11
24.57544786652424
 21
4.2461279074110001
 31
0.0
  0
LINE
  5
402
  8
0
 62
     0
 10
25.26283267863462
 20
4.9335127195213788
 30
0.0
 11
27.250562850334461
 21
6.9212428912212154
 31
0.0
  0
LINE
  5
403
  8
0
 62
     0
 10
23.48315501307189
 20
3.1538350539586482
 30
0.0
 11
23.658928752932059
 21
3.3296087938188168
 31
0.0
  0
LINE
  5
404
  8
0
 62
     0
 10
24.309650778915021
 20
4.1571075150984127
 30
0.0
 11
24.45182779988324
 21
4.2992845360666321
 31
0.0
  0
LINE
  5
405
  8
0
 62
     0
 10
25.215190732384471
 20
5.0626474685678602
 30
0.0
 11
27.16194302039348
 21
7.0093997565768742
 31
0.0
  0
LINE
  5
406
  8
0
 62
     0
 10
23.352628034567982
 20
3.2000847707513702
 30
0.0
 11
23.530584028949569
 21
3.3780407651329609
 31
0.0
  0
LINE
  5
407
  8
0
 62
     0
 10
24.18590709220738
 20
4.2101405236874072
 30
0.0
 11
24.328207733242241
 21
4.3524411647222632
 31
0.0
  0
LINE
  5
408
  8
0
 62
     0
 10
25.167548786134311
 20
5.1917822176143371
 30
0.0
 11
27.061551316891691
 21
7.0857847483717133
 31
0.0
  0
LINE
  5
409
  8
0
 62
     0
 10
23.222101056064069
 20
3.246334487544094
 30
0.0
 11
23.40457787419178
 21
3.428811305671811
 31
0.0
  0
LINE
  5
40A
  8
0
 62
     0
 10
25.119906839884148
 20
5.3209169666608194
 30
0.0
 11
25.996126914844751
 21
6.197137041621418
 31
0.0
  0
LINE
  5
40B
  8
0
 62
     0
 10
24.062163405499732
 20
4.2631735322763991
 30
0.0
 11
24.201816005951169
 21
4.4028261327278422
 31
0.0
  0
LINE
  5
40C
  8
0
 62
     0
 10
26.237401457592
 20
6.4384115843686711
 30
0.0
 11
26.961159613389889
 21
7.1621697401665561
 31
0.0
  0
LINE
  5
40D
  8
0
 62
     0
 10
23.09157407756015
 20
3.2925842043368201
 30
0.0
 11
23.28284223045932
 21
3.4838523572359898
 31
0.0
  0
LINE
  5
40E
  8
0
 62
     0
 10
25.072264893633989
 20
5.4500517157072981
 30
0.0
 11
25.804618828273401
 21
6.1824056503467002
 31
0.0
  0
LINE
  5
40F
  8
0
 62
     0
 10
23.93841971879208
 20
4.3162065408653874
 30
0.0
 11
24.074660839158859
 21
4.4524476612321582
 31
0.0
  0
LINE
  5
410
  8
0
 62
     0
 10
26.261837031685289
 20
6.6396238537585894
 30
0.0
 11
26.8607679098881
 21
7.2385547319613996
 31
0.0
  0
LINE
  5
411
  8
0
 62
     0
 10
22.961047099056241
 20
3.338833921129543
 30
0.0
 11
23.146860157154219
 21
3.5246469792275219
 31
0.0
  0
LINE
  5
412
  8
0
 62
     0
 10
25.024622947383829
 20
5.5791864647537759
 30
0.0
 11
25.638362926334469
 21
6.19292644370441
 31
0.0
  0
LINE
  5
413
  8
0
 62
     0
 10
23.81182915207393
 20
4.3663926694438722
 30
0.0
 11
23.947505672366539
 21
4.5020691897364769
 31
0.0
  0
LINE
  5
414
  8
0
 62
     0
 10
26.246100705995111
 20
6.8006642233650432
 30
0.0
 11
26.760376206386312
 21
7.3149397237562432
 31
0.0
  0
LINE
  5
415
  8
0
 62
     0
 10
22.830520120552329
 20
3.3850836379222691
 30
0.0
 11
23.01145353404775
 21
3.5660170514176932
 31
0.0
  0
LINE
  5
416
  8
0
 62
     0
 10
24.97698100113368
 20
5.7083212138002546
 30
0.0
 11
25.495257982522912
 21
6.2265981951894833
 31
0.0
  0
LINE
  5
417
  8
0
 62
     0
 10
23.679246630601451
 20
4.4105868432680291
 30
0.0
 11
23.820350505574218
 21
4.5516907182407973
 31
0.0
  0
LINE
  5
418
  8
0
 62
     0
 10
26.179822420507289
 20
6.9111626331738707
 30
0.0
 11
26.658411138479909
 21
7.3897513511464812
 31
0.0
  0
LINE
  5
419
  8
0
 62
     0
 10
22.69999314204842
 20
3.431333354714992
 30
0.0
 11
22.877258086523302
 21
3.6085982991898771
 31
0.0
  0
LINE
  5
41A
  8
0
 62
     0
 10
24.929339054883521
 20
5.8374559628467351
 30
0.0
 11
25.352153038711339
 21
6.2602699466745539
 31
0.0
  0
LINE
  5
41B
  8
0
 62
     0
 10
23.546664109128979
 20
4.4547810170921931
 30
0.0
 11
23.687815188136259
 21
4.5959320960994789
 31
0.0
  0
LINE
  5
41C
  8
0
 62
     0
 10
26.09382294711974
 20
7.001939855082953
 30
0.0
 11
26.53081828179403
 21
7.4389351897572391
 31
0.0
  0
LINE
  5
41D
  8
0
 62
     0
 10
22.569466163544512
 20
3.4775830715077181
 30
0.0
 11
22.74306263899884
 21
3.6511795469620578
 31
0.0
  0
LINE
  5
41E
  8
0
 62
     0
 10
24.854783400081629
 20
5.9396770033414841
 30
0.0
 11
25.22086825115916
 21
6.3057618544190097
 31
0.0
  0
LINE
  5
41F
  8
0
 62
     0
 10
23.41381378011198
 20
4.4987073833718352
 30
0.0
 11
23.555232666663791
 21
4.640126269923635
 31
0.0
  0
LINE
  5
420
  8
0
 62
     0
 10
26.00490220773553
 20
7.0897958109953807
 30
0.0
 11
26.40322542510815
 21
7.4881190283679953
 31
0.0
  0
LINE
  5
421
  8
0
 62
     0
 10
22.438939185040599
 20
3.5238327883004441
 30
0.0
 11
22.608867191474388
 21
3.693760794734243
 31
0.0
  0
LINE
  5
422
  8
0
 62
     0
 10
23.280825807503511
 20
4.5424961060599918
 30
0.0
 11
23.427221836362261
 21
4.6888921349187491
 31
0.0
  0
LINE
  5
423
  8
0
 62
     0
 10
24.766395052433321
 20
6.0280653509898023
 30
0.0
 11
25.094020851480661
 21
6.3556911500371447
 31
0.0
  0
LINE
  5
424
  8
0
 62
     0
 10
22.307236807768749
 20
3.568907106325236
 30
0.0
 11
22.474671743949941
 21
3.7363420425064251
 31
0.0
  0
LINE
  5
425
  8
0
 62
     0
 10
25.896116549091449
 20
7.1577868476479329
 30
0.0
 11
26.275632568422271
 21
7.537302866978755
 31
0.0
  0
LINE
  5
426
  8
0
 62
     0
 10
19.069916137880529
 20
0.3315864364370213
 30
0.0
 11
19.243597104660129
 21
0.5052674032166175
 31
0.0
  0
LINE
  5
427
  8
0
 62
     0
 10
23.147837834895022
 20
4.586284828748151
 30
0.0
 11
23.29904911912525
 21
4.7374961129783797
 31
0.0
  0
LINE
  5
428
  8
0
 62
     0
 10
24.639454327717839
 20
6.0779013215709643
 30
0.0
 11
24.96717345180215
 21
6.4056204456552797
 31
0.0
  0
LINE
  5
429
  8
0
 62
     0
 10
22.167676258850349
 20
3.6061232527034739
 30
0.0
 11
22.340476296425479
 21
3.7789232902786072
 31
0.0
  0
LINE
  5
42A
  8
0
 62
     0
 10
25.78063392107023
 20
7.2190809149233486
 30
0.0
 11
26.148039711736391
 21
7.5864867055895138
 31
0.0
  0
LINE
  5
42B
  8
0
 62
     0
 10
18.86821609764036
 20
0.3066630914934834
 30
0.0
 11
19.243597104660122
 21
0.6820440985132539
 31
0.0
  0
LINE
  5
42C
  8
0
 62
     0
 10
23.01484986228655
 20
4.6300735514363094
 30
0.0
 11
23.167270128085949
 21
4.7824938172357054
 31
0.0
  0
LINE
  5
42D
  8
0
 62
     0
 10
24.509633942109371
 20
6.1248576312591316
 30
0.0
 11
24.84032605212365
 21
6.4555497412734129
 31
0.0
  0
LINE
  5
42E
  8
0
 62
     0
 10
22.028115709931949
 20
3.643339399081714
 30
0.0
 11
22.206280848901031
 21
3.8215045380507919
 31
0.0
  0
LINE
  5
42F
  8
0
 62
     0
 10
25.655029427043669
 20
7.2702531161934276
 30
0.0
 11
26.020446855050508
 21
7.6356705442002681
 31
0.0
  0
LINE
  5
430
  8
0
 62
     0
 10
18.695648371279351
 20
0.3108720604291157
 30
0.0
 11
19.243597104660122
 21
0.8588207938098886
 31
0.0
  0
LINE
  5
431
  8
0
 62
     0
 10
22.881861889678071
 20
4.6738622741244651
 30
0.0
 11
23.03549113704663
 21
4.8274915214930321
 31
0.0
  0
LINE
  5
432
  8
0
 62
     0
 10
24.379813556500899
 20
6.1718139409472998
 30
0.0
 11
24.713478652445151
 21
6.5054790368915461
 31
0.0
  0
LINE
  5
433
  8
0
 62
     0
 10
21.88855516101356
 20
3.6805555454599541
 30
0.0
 11
22.072085401376579
 21
3.8640857858229749
 31
0.0
  0
LINE
  5
434
  8
0
 62
     0
 10
25.529424933017111
 20
7.3214253174635093
 30
0.0
 11
25.892853998364629
 21
7.6848543828110261
 31
0.0
  0
LINE
  5
435
  8
0
 62
     0
 10
18.523080644918348
 20
0.3150810293647517
 30
0.0
 11
19.243597104660122
 21
1.035597489106528
 31
0.0
  0
LINE
  5
436
  8
0
 62
     0
 10
22.748873917069591
 20
4.7176509968126217
 30
0.0
 11
22.903712146007319
 21
4.8724892257503578
 31
0.0
  0
LINE
  5
437
  8
0
 62
     0
 10
24.249993170892441
 20
6.2187702506354698
 30
0.0
 11
24.586631252766651
 21
6.5554083325096828
 31
0.0
  0
LINE
  5
438
  8
0
 62
     0
 10
21.748778131614181
 20
3.717555211357213
 30
0.0
 11
21.937889953852121
 21
3.906667033595157
 31
0.0
  0
LINE
  5
439
  8
0
 62
     0
 10
25.40382043899055
 20
7.3725975187335901
 30
0.0
 11
25.765261141678749
 21
7.7340382214217849
 31
0.0
  0
LINE
  5
43A
  8
0
 62
     0
 10
18.350512918557349
 20
0.3192899983003858
 30
0.0
 11
19.243597104660129
 21
1.212374184403165
 31
0.0
  0
LINE
  5
43B
  8
0
 62
     0
 10
22.615885944461109
 20
4.76143971950078
 30
0.0
 11
22.771933154968011
 21
4.9174869300076809
 31
0.0
  0
LINE
  5
43C
  8
0
 62
     0
 10
24.12705131802657
 20
6.2726050930662476
 30
0.0
 11
24.459783853088151
 21
6.605337628127816
 31
0.0
  0
LINE
  5
43D
  8
0
 62
     0
 10
21.608575924999599
 20
3.754129700039273
 30
0.0
 11
21.80098935378264
 21
3.9465431288223112
 31
0.0
  0
LINE
  5
43E
  8
0
 62
     0
 10
25.278215944964
 20
7.4237697200036692
 30
0.0
 11
25.63766828499287
 21
7.7832220600325419
 31
0.0
  0
LINE
  5
43F
  8
0
 62
     0
 10
18.177945192196351
 20
0.32349896723602
 30
0.0
 11
19.243597104660129
 21
1.3891508796998009
 31
0.0
  0
LINE
  5
440
  8
0
 62
     0
 10
22.480404650937359
 20
4.8027351212736731
 30
0.0
 11
22.640154163928699
 21
4.9624846342650102
 31
0.0
  0
LINE
  5
441
  8
0
 62
     0
 10
24.007467082972969
 20
6.3297975533092758
 30
0.0
 11
24.332936453409641
 21
6.655266923745951
 31
0.0
  0
LINE
  5
442
  8
0
 62
     0
 10
21.468373718385021
 20
3.7907041887213371
 30
0.0
 11
21.653675441035439
 21
3.9760059113717521
 31
0.0
  0
LINE
  5
443
  8
0
 62
     0
 10
25.152611450937439
 20
7.4749419212737456
 30
0.0
 11
25.51007542830699
 21
7.8324058986433007
 31
0.0
  0
LINE
  5
444
  8
0
 62
     0
 10
18.005377465835341
 20
0.3277079361716542
 30
0.0
 11
19.243597104660122
 21
1.5659275749964381
 31
0.0
  0
LINE
  5
445
  8
0
 62
     0
 10
22.911684196313061
 20
5.4107913619460026
 30
0.0
 11
23.139716907968019
 21
5.6388240736009703
 31
0.0
  0
LINE
  5
446
  8
0
 62
     0
 10
22.34130167758919
 20
4.8404088432221348
 30
0.0
 11
22.508375172889391
 21
5.007482338522335
 31
0.0
  0
LINE
  5
447
  8
0
 62
     0
 10
23.879363259444052
 20
6.3784704250769897
 30
0.0
 11
24.206082844200122
 21
6.705190009833073
 31
0.0
  0
LINE
  5
448
  8
0
 62
     0
 10
21.32817151177046
 20
3.8272786774034002
 30
0.0
 11
21.506361528288249
 21
4.0054686939211912
 31
0.0
  0
LINE
  5
449
  8
0
 62
     0
 10
25.027006956910881
 20
7.5261141225438246
 30
0.0
 11
25.382482571621111
 21
7.8815897372540578
 31
0.0
  0
LINE
  5
44A
  8
0
 62
     0
 10
17.899483812488441
 20
0.3985909781213852
 30
0.0
 11
19.243597104660129
 21
1.742704270293074
 31
0.0
  0
LINE
  5
44B
  8
0
 62
     0
 10
22.770739973036751
 20
5.4466238339663402
 30
0.0
 11
23.268899877607879
 21
5.9447837385374589
 31
0.0
  0
LINE
  5
44C
  8
0
 62
     0
 10
22.20219870424101
 20
4.8780825651705992
 30
0.0
 11
22.376596181850068
 21
5.052480042779659
 31
0.0
  0
LINE
  5
44D
  8
0
 62
     0
 10
23.738981766120251
 20
6.414865627049827
 30
0.0
 11
24.078639180149072
 21
6.7545230410786461
 31
0.0
  0
LINE
  5
44E
  8
0
 62
     0
 10
21.185181640018119
 20
3.8610655009476988
 30
0.0
 11
21.359047615541051
 21
4.0349314764706303
 31
0.0
  0
LINE
  5
44F
  8
0
 62
     0
 10
24.901402462884331
 20
7.5772863238139063
 30
0.0
 11
25.254889714935238
 21
7.9307735758648166
 31
0.0
  0
LINE
  5
450
  8
0
 62
     0
 10
17.87452880086224
 20
0.5504126617918317
 30
0.0
 11
19.243597104660122
 21
1.9194809655897109
 31
0.0
  0
LINE
  5
451
  8
0
 62
     0
 10
22.638157451564279
 20
5.4908180077904989
 30
0.0
 11
23.425836644662319
 21
6.2784972008885394
 31
0.0
  0
LINE
  5
452
  8
0
 62
     0
 10
22.06309573089284
 20
4.9157562871190636
 30
0.0
 11
22.23205144001815
 21
5.084711996244363
 31
0.0
  0
LINE
  5
453
  8
0
 62
     0
 10
23.583473030147591
 20
6.4361335863738036
 30
0.0
 11
23.951195516098
 21
6.8038560723242192
 31
0.0
  0
LINE
  5
454
  8
0
 62
     0
 10
21.039148717816541
 20
3.891809274042767
 30
0.0
 11
21.21173370279385
 21
4.0643942590200712
 31
0.0
  0
LINE
  5
455
  8
0
 62
     0
 10
24.77591992788545
 20
7.6285804841116738
 30
0.0
 11
25.127296858249359
 21
7.9799574144755763
 31
0.0
  0
LINE
  5
456
  8
0
 62
     0
 10
17.867729697196989
 20
0.7203902534232151
 30
0.0
 11
19.243597104660129
 21
2.0962576608863488
 31
0.0
  0
LINE
  5
457
  8
0
 62
     0
 10
21.919660149694401
 20
4.9490974012172577
 30
0.0
 11
22.085753485289889
 21
5.1151907368127469
 31
0.0
  0
LINE
  5
458
  8
0
 62
     0
 10
22.5055749300918
 20
5.5350121816146567
 30
0.0
 11
23.831907540320959
 21
6.8613447918438117
 31
0.0
  0
LINE
  5
459
  8
0
 62
     0
 10
20.903399013680911
 20
3.9328362652037709
 30
0.0
 11
21.06441979004666
 21
4.0938570415695104
 31
0.0
  0
LINE
  5
45A
  8
0
 62
     0
 10
24.650465498965261
 20
7.6799027504881137
 30
0.0
 11
24.999704001563479
 21
8.0291412530863333
 31
0.0
  0
LINE
  5
45B
  8
0
 62
     0
 10
17.860930593531741
 20
0.8903678450545947
 30
0.0
 11
19.243597104660129
 21
2.2730343561829862
 31
0.0
  0
LINE
  5
45C
  8
0
 62
     0
 10
21.768137268011571
 20
4.9743512148310653
 30
0.0
 11
21.951032675908429
 21
5.1572466227279259
 31
0.0
  0
LINE
  5
45D
  8
0
 62
     0
 10
22.372992408619329
 20
5.5792063554388172
 30
0.0
 11
23.761070102630651
 21
6.9672840494501393
 31
0.0
  0
LINE
  5
45E
  8
0
 62
     0
 10
20.7529648605387
 20
3.959178807358199
 30
0.0
 11
20.917105877299459
 21
4.1233198241189468
 31
0.0
  0
LINE
  5
45F
  8
0
 62
     0
 10
24.525011070045071
 20
7.7312250168645589
 30
0.0
 11
24.8721111448776
 21
8.0783250916970921
 31
0.0
  0
LINE
  5
460
  8
0
 62
     0
 10
17.85499744997864
 20
1.0612113967981349
 30
0.0
 11
19.243597104660122
 21
2.4498110514796219
 31
0.0
  0
LINE
  5
461
  8
0
 62
     0
 10
21.63463650640724
 20
5.0176271485233679
 30
0.0
 11
21.816555491576779
 21
5.1995461336929116
 31
0.0
  0
LINE
  5
462
  8
0
 62
     0
 10
22.241292435952889
 20
5.6242830780690189
 30
0.0
 11
23.79820361409919
 21
7.181194256215317
 31
0.0
  0
LINE
  5
463
  8
0
 62
     0
 10
20.599103662780522
 20
3.9820943048966502
 30
0.0
 11
20.769791964552262
 21
4.1527826066683859
 31
0.0
  0
LINE
  5
464
  8
0
 62
     0
 10
24.399556641124871
 20
7.7825472832409988
 30
0.0
 11
24.744518288191721
 21
8.1275089303078492
 31
0.0
  0
LINE
  5
465
  8
0
 62
     0
 10
17.85217654526646
 20
1.23516718738259
 30
0.0
 11
19.242892402569371
 21
2.625883044685497
 31
0.0
  0
LINE
  5
466
  8
0
 62
     0
 10
21.496312228195489
 20
5.0560795656082593
 30
0.0
 11
21.663884709275141
 21
5.2236520466879082
 31
0.0
  0
LINE
  5
467
  8
0
 62
     0
 10
22.15290408830457
 20
5.7126714257173381
 30
0.0
 11
23.922602029307932
 21
7.4823693667206976
 31
0.0
  0
LINE
  5
468
  8
0
 62
     0
 10
20.445242465022339
 20
4.0050098024351044
 30
0.0
 11
20.620302728943201
 21
4.180070066355964
 31
0.0
  0
LINE
  5
469
  8
0
 62
     0
 10
24.250979171833279
 20
7.8107465092460489
 30
0.0
 11
24.616925431505841
 21
8.1766927689186062
 31
0.0
  0
LINE
  5
46A
  8
0
 62
     0
 10
17.849355640554279
 20
1.4091229779670471
 30
0.0
 11
19.24209611114911
 21
2.801863448561881
 31
0.0
  0
LINE
  5
46B
  8
0
 62
     0
 10
21.35447976336447
 20
5.0910237960738751
 30
0.0
 11
21.523295378753861
 21
5.2598394114632621
 31
0.0
  0
LINE
  5
46C
  8
0
 62
     0
 10
20.29378432053181
 20
4.030328353241214
 30
0.0
 11
20.463167888679521
 21
4.1997119213889258
 31
0.0
  0
LINE
  5
46D
  8
0
 62
     0
 10
22.232490666432081
 20
5.9690346991414787
 30
0.0
 11
24.487350586762751
 21
8.2238946194721603
 31
0.0
  0
LINE
  5
46E
  8
0
 62
     0
 10
17.846534735842098
 20
1.5830787685515031
 30
0.0
 11
19.241299819728859
 21
2.9778438524382631
 31
0.0
  0
LINE
  5
46F
  8
0
 62
     0
 10
21.21264729853344
 20
5.1259680265394847
 30
0.0
 11
21.392349678534131
 21
5.305670406540167
 31
0.0
  0
LINE
  5
470
  8
0
 62
     0
 10
20.150679376720252
 20
4.0640001047262881
 30
0.0
 11
20.306033048415841
 21
4.2193537764218831
 31
0.0
  0
LINE
  5
471
  8
0
 62
     0
 10
22.34654014726862
 20
6.259860875274657
 30
0.0
 11
24.356193683800729
 21
8.2695144118067745
 31
0.0
  0
LINE
  5
472
  8
0
 62
     0
 10
17.843713831129921
 20
1.7570345591359591
 30
0.0
 11
19.240503528308601
 21
3.1538242563146439
 31
0.0
  0
LINE
  5
473
  8
0
 62
     0
 10
21.070814833702421
 20
5.1609122570050987
 30
0.0
 11
21.24939379730851
 21
5.3394912206111851
 31
0.0
  0
LINE
  5
474
  8
0
 62
     0
 10
19.991441300904619
 20
4.0815387242073022
 30
0.0
 11
20.148898208152161
 21
4.238995631454844
 31
0.0
  0
LINE
  5
475
  8
0
 62
     0
 10
22.462644290394209
 20
6.5527417136968849
 30
0.0
 11
24.23160170530717
 21
8.3216991286098452
 31
0.0
  0
LINE
  5
476
  8
0
 62
     0
 10
17.84089292641773
 20
1.9309903497204151
 30
0.0
 11
19.239707236888339
 21
3.3298046601910261
 31
0.0
  0
LINE
  5
477
  8
0
 62
     0
 10
20.928982368871399
 20
5.1958564874707136
 30
0.0
 11
21.102635786118839
 21
5.369509904718158
 31
0.0
  0
LINE
  5
478
  8
0
 62
     0
 10
19.834172401344372
 20
4.1010465199436847
 30
0.0
 11
20.022144971216289
 21
4.2890190898156071
 31
0.0
  0
LINE
  5
479
  8
0
 62
     0
 10
22.58239624527258
 20
6.8492703638718879
 30
0.0
 11
24.112008248856711
 21
8.3788823674560291
 31
0.0
  0
LINE
  5
47A
  8
0
 62
     0
 10
17.83807202170556
 20
2.1049461403048721
 30
0.0
 11
19.238910945468088
 21
3.5057850640674069
 31
0.0
  0
LINE
  5
47B
  8
0
 62
     0
 10
20.78714990404038
 20
5.2308007179363312
 30
0.0
 11
20.955877774929181
 21
5.3995285888251336
 31
0.0
  0
LINE
  5
47C
  8
0
 62
     0
 10
19.712643993866589
 20
4.1562948077625403
 30
0.0
 11
19.935677265772949
 21
4.3793280796689
 31
0.0
  0
LINE
  5
47D
  8
0
 62
     0
 10
22.705479388452339
 20
7.149130202348295
 30
0.0
 11
23.98826456214907
 21
8.4319153760450192
 31
0.0
  0
LINE
  5
47E
  8
0
 62
     0
 10
17.835251116993369
 20
2.278901930889329
 30
0.0
 11
19.23811465404783
 21
3.6817654679437899
 31
0.0
  0
LINE
  5
47F
  8
0
 62
     0
 10
20.6139250039943
 20
5.2343525131868898
 30
0.0
 11
20.81193189284657
 21
5.4323594020391539
 31
0.0
  0
LINE
  5
480
  8
0
 62
     0
 10
21.276208184056141
 20
5.8966356932487303
 30
0.0
 11
21.385389527884769
 21
6.0058170370773611
 31
0.0
  0
LINE
  5
481
  8
0
 62
     0
 10
19.667727073190751
 20
4.288154582383342
 30
0.0
 11
19.891753370117979
 21
4.5121808793105691
 31
0.0
  0
LINE
  5
482
  8
0
 62
     0
 10
22.83642508867208
 20
7.4568525978646676
 30
0.0
 11
23.861243298067478
 21
8.4816708072600697
 31
0.0
  0
LINE
  5
483
  8
0
 62
     0
 10
17.832430212281189
 20
2.4528577214737841
 30
0.0
 11
19.23731836262758
 21
3.8577458718201698
 31
0.0
  0
LINE
  5
484
  8
0
 62
     0
 10
20.452635431819282
 20
5.2498396363085051
 30
0.0
 11
20.677244886906269
 21
5.4744490913954991
 31
0.0
  0
LINE
  5
485
  8
0
 62
     0
 10
19.669291468724349
 20
4.4664956732135783
 30
0.0
 11
19.8945593494084
 21
4.691763553897629
 31
0.0
  0
LINE
  5
486
  8
0
 62
     0
 10
21.120931357106389
 20
5.9181355615956184
 30
0.0
 11
21.41540821199175
 21
6.2126124164809751
 31
0.0
  0
LINE
  5
487
  8
0
 62
     0
 10
17.829609307569012
 20
2.6268135120582419
 30
0.0
 11
19.236522071207322
 21
4.0337262756965542
 31
0.0
  0
LINE
  5
488
  8
0
 62
     0
 10
22.950629381040081
 20
7.747833585529305
 30
0.0
 11
23.726556292127189
 21
8.5237604966164113
 31
0.0
  0
LINE
  5
489
  8
0
 62
     0
 10
15.550399499749741
 20
0.347603704238967
 30
0.0
 11
15.667769769808849
 21
0.4649739742980837
 31
0.0
  0
LINE
  5
48A
  8
0
 62
     0
 10
20.317948425878988
 20
5.2919293256648468
 30
0.0
 11
20.524562965974159
 21
5.4985438657600207
 31
0.0
  0
LINE
  5
48B
  8
0
 62
     0
 10
19.670855864257948
 20
4.6448367640438137
 30
0.0
 11
19.897365328698822
 21
4.871346228484688
 31
0.0
  0
LINE
  5
48C
  8
0
 62
     0
 10
20.965654530156641
 20
5.9396354299425074
 30
0.0
 11
21.44542689609872
 21
6.4194077958845863
 31
0.0
  0
LINE
  5
48D
  8
0
 62
     0
 10
17.826788402856831
 20
2.8007693026426992
 30
0.0
 11
19.235725779787071
 21
4.2097066795729354
 31
0.0
  0
LINE
  5
48E
  8
0
 62
     0
 10
23.048161350858908
 20
8.0221422506447748
 30
0.0
 11
23.60296893884896
 21
8.5769498386348211
 31
0.0
  0
LINE
  5
48F
  8
0
 62
     0
 10
15.359289558888509
 20
0.3332704586743747
 30
0.0
 11
15.667769769808849
 21
0.6417506695947193
 31
0.0
  0
LINE
  5
490
  8
0
 62
     0
 10
20.155117861723451
 20
5.3058754568059481
 30
0.0
 11
20.368341700363182
 21
5.5190992954456757
 31
0.0
  0
LINE
  5
491
  8
0
 62
     0
 10
19.672420259791551
 20
4.82317785487405
 30
0.0
 11
19.90017130798925
 21
5.0509289030717497
 31
0.0
  0
LINE
  5
492
  8
0
 62
     0
 10
20.8103777032069
 20
5.9611352982893937
 30
0.0
 11
21.475445580205701
 21
6.6262031752881967
 31
0.0
  0
LINE
  5
493
  8
0
 62
     0
 10
17.823967498144651
 20
2.9747250932271538
 30
0.0
 11
19.234929488366809
 21
4.3856870834493158
 31
0.0
  0
LINE
  5
494
  8
0
 62
     0
 10
23.168016710287791
 20
8.3187743053702903
 30
0.0
 11
23.47629312101828
 21
8.6270507161007828
 31
0.0
  0
LINE
  5
495
  8
0
 62
     0
 10
15.168179618027279
 20
0.3189372131097823
 30
0.0
 11
15.667769769808849
 21
0.8185273648913566
 31
0.0
  0
LINE
  5
496
  8
0
 62
     0
 10
19.67398465532515
 20
5.0015189457042846
 30
0.0
 11
20.212120434752201
 21
5.5396547251313333
 31
0.0
  0
LINE
  5
497
  8
0
 62
     0
 10
20.655100876257141
 20
5.98263516663628
 30
0.0
 11
21.526085633482609
 21
6.8536199238617419
 31
0.0
  0
LINE
  5
498
  8
0
 62
     0
 10
17.82114659343247
 20
3.1486808838116089
 30
0.0
 11
19.234133196946559
 21
4.5616674873256988
 31
0.0
  0
LINE
  5
499
  8
0
 62
     0
 10
23.318441681783749
 20
8.645975972162887
 30
0.0
 11
23.32897920827109
 21
8.6565134986502201
 31
0.0
  0
LINE
  5
49A
  8
0
 62
     0
 10
14.99557840207903
 20
0.3231126924581726
 30
0.0
 11
15.667769769808849
 21
0.9953040601879941
 31
0.0
  0
LINE
  5
49B
  8
0
 62
     0
 10
19.675549050858749
 20
5.1798600365345209
 30
0.0
 11
20.051180919806139
 21
5.5554919054819116
 31
0.0
  0
LINE
  5
49C
  8
0
 62
     0
 10
17.820323724669979
 20
3.3246347103457561
 30
0.0
 11
19.233336905526301
 21
4.7376478912020792
 31
0.0
  0
LINE
  5
49D
  8
0
 62
     0
 10
20.505892009877691
 20
6.0102029955534686
 30
0.0
 11
21.576102686184669
 21
7.0804136718604376
 31
0.0
  0
LINE
  5
49E
  8
0
 62
     0
 10
14.824897454896069
 20
0.3292084405718487
 30
0.0
 11
15.667769769808849
 21
1.1720807554846291
 31
0.0
  0
LINE
  5
49F
  8
0
 62
     0
 10
19.677113446392351
 20
5.3582011273647572
 30
0.0
 11
19.890117708535868
 21
5.5712053895082789
 31
0.0
  0
LINE
  5
4A0
  8
0
 62
     0
 10
17.819971626882779
 20
3.5010593078551921
 30
0.0
 11
19.23254061410605
 21
4.9136282950784613
 31
0.0
  0
LINE
  5
4A1
  8
0
 62
     0
 10
20.375635497553858
 20
6.056723178526271
 30
0.0
 11
21.619763636925409
 21
7.3008513178978172
 31
0.0
  0
LINE
  5
4A2
  8
0
 62
     0
 10
14.740317348206659
 20
0.4214050291790708
 30
0.0
 11
15.667769769808849
 21
1.3488574507812681
 31
0.0
  0
LINE
  5
4A3
  8
0
 62
     0
 10
19.678677841925939
 20
5.5365422181949926
 30
0.0
 11
19.729054497265601
 21
5.586918873534648
 31
0.0
  0
LINE
  5
4A4
  8
0
 62
     0
 10
17.812114884869601
 20
3.6699792611386459
 30
0.0
 11
19.23183451474285
 21
5.0896988910118992
 31
0.0
  0
LINE
  5
4A5
  8
0
 62
     0
 10
20.346989324589291
 20
6.2048537008583384
 30
0.0
 11
21.657985625097648
 21
7.5158500013666973
 31
0.0
  0
LINE
  5
4A6
  8
0
 62
     0
 10
14.73751972270705
 20
0.5953840989761057
 30
0.0
 11
15.667769769808849
 21
1.525634146077903
 31
0.0
  0
LINE
  5
4A7
  8
0
 62
     0
 10
17.804258142856419
 20
3.838899214422101
 30
0.0
 11
19.23183451474285
 21
5.2664755863085357
 31
0.0
  0
LINE
  5
4A8
  8
0
 62
     0
 10
20.38842136254944
 20
6.4230624341151232
 30
0.0
 11
21.696207613269902
 21
7.730848684835582
 31
0.0
  0
LINE
  5
4A9
  8
0
 62
     0
 10
14.736491951222771
 20
0.7711330227884599
 30
0.0
 11
15.667769769808849
 21
1.7024108413745409
 31
0.0
  0
LINE
  5
4AA
  8
0
 62
     0
 10
17.793819964893888
 20
4.0052377317562167
 30
0.0
 11
19.23183451474285
 21
5.443252281605174
 31
0.0
  0
LINE
  5
4AB
  8
0
 62
     0
 10
20.42985340050959
 20
6.641271167371908
 30
0.0
 11
21.745238467852609
 21
7.9566562347149281
 31
0.0
  0
LINE
  5
4AC
  8
0
 62
     0
 10
14.735464179738489
 20
0.946881946600814
 30
0.0
 11
15.667769769808849
 21
1.8791875366711781
 31
0.0
  0
LINE
  5
4AD
  8
0
 62
     0
 10
17.732189603772721
 20
4.1203840659316784
 30
0.0
 11
19.23183451474285
 21
5.6200289769018088
 31
0.0
  0
LINE
  5
4AE
  8
0
 62
     0
 10
20.471285438469732
 20
6.859479900628692
 30
0.0
 11
21.783460456024859
 21
8.1716549181838118
 31
0.0
  0
LINE
  5
4AF
  8
0
 62
     0
 10
14.734436408254201
 20
1.1226308704131669
 30
0.0
 11
15.667769769808849
 21
2.0559642319678142
 31
0.0
  0
LINE
  5
4B0
  8
0
 62
     0
 10
17.621704169212322
 20
4.1866753266679186
 30
0.0
 11
19.23183451474285
 21
5.7968056721984489
 31
0.0
  0
LINE
  5
4B1
  8
0
 62
     0
 10
20.513115653480419
 20
7.0780868109360178
 30
0.0
 11
21.82551902448138
 21
8.3904901819369755
 31
0.0
  0
LINE
  5
4B2
  8
0
 62
     0
 10
14.733408636769919
 20
1.298379794225524
 30
0.0
 11
15.66837651579063
 21
2.233347673246227
 31
0.0
  0
LINE
  5
4B3
  8
0
 62
     0
 10
17.44458530557176
 20
4.1863331583239951
 30
0.0
 11
19.23183451474285
 21
5.9735823674950872
 31
0.0
  0
LINE
  5
4B4
  8
0
 62
     0
 10
20.556115390174199
 20
7.2978632429264279
 30
0.0
 11
21.918726184772069
 21
8.6604740375243043
 31
0.0
  0
LINE
  5
4B5
  8
0
 62
     0
 10
14.73238086528564
 20
1.4741287180378759
 30
0.0
 11
15.6707653900514
 21
2.4125132428036311
 31
0.0
  0
LINE
  5
4B6
  8
0
 62
     0
 10
17.266645605700798
 20
4.1851701537496737
 30
0.0
 11
19.231834514742861
 21
6.150359062791722
 31
0.0
  0
LINE
  5
4B7
  8
0
 62
     0
 10
20.599115126867972
 20
7.5176396749168424
 30
0.0
 11
21.945242689066561
 21
8.8637672371154324
 31
0.0
  0
LINE
  5
4B8
  8
0
 62
     0
 10
14.73135309380136
 20
1.6498776418502299
 30
0.0
 11
15.67315426431216
 21
2.5916788123610339
 31
0.0
  0
LINE
  5
4B9
  8
0
 62
     0
 10
17.088705905829851
 20
4.1840071491753541
 30
0.0
 11
19.23183451474285
 21
6.3271357580883603
 31
0.0
  0
LINE
  5
4BA
  8
0
 62
     0
 10
20.64240045960786
 20
7.7377017029533617
 30
0.0
 11
21.8852465555923
 21
8.9805477989378009
 31
0.0
  0
LINE
  5
4BB
  8
0
 62
     0
 10
14.73032532231708
 20
1.8256265656625841
 30
0.0
 11
15.67554313857293
 21
2.7708443819184381
 31
0.0
  0
LINE
  5
4BC
  8
0
 62
     0
 10
16.91076620595889
 20
4.1828441446010354
 30
0.0
 11
19.230932137772871
 21
6.5030100764150127
 31
0.0
  0
LINE
  5
4BD
  8
0
 62
     0
 10
20.685760781095709
 20
7.9578387197378486
 30
0.0
 11
21.737932642845099
 21
9.0100105814872382
 31
0.0
  0
LINE
  5
4BE
  8
0
 62
     0
 10
14.729297550832801
 20
2.0013754894749392
 30
0.0
 11
15.677932012833701
 21
2.95000995147584
 31
0.0
  0
LINE
  5
4BF
  8
0
 62
     0
 10
16.732826506087932
 20
4.1816811400267131
 30
0.0
 11
19.229691599560262
 21
6.6785462334990431
 31
0.0
  0
LINE
  5
4C0
  8
0
 62
     0
 10
20.729121102583559
 20
8.1779757365223453
 30
0.0
 11
21.590618730097901
 21
9.0394733640366791
 31
0.0
  0
LINE
  5
4C1
  8
0
 62
     0
 10
14.72826977934851
 20
2.1771244132872938
 30
0.0
 11
15.678508657528649
 21
3.127363291467431
 31
0.0
  0
LINE
  5
4C2
  8
0
 62
     0
 10
16.55488680621697
 20
4.1805181354523926
 30
0.0
 11
19.228451061347648
 21
6.8540823905830726
 31
0.0
  0
LINE
  5
4C3
  8
0
 62
     0
 10
20.772481424071419
 20
8.3981127533068332
 30
0.0
 11
21.443304817350711
 21
9.06893614658612
 31
0.0
  0
LINE
  5
4C4
  8
0
 62
     0
 10
14.727242007864231
 20
2.352873337099648
 30
0.0
 11
15.67540731199713
 21
3.3010386412325481
 31
0.0
  0
LINE
  5
4C5
  8
0
 62
     0
 10
16.376947106346019
 20
4.1793551308780756
 30
0.0
 11
19.227210523135039
 21
7.0296185476670994
 31
0.0
  0
LINE
  5
4C6
  8
0
 62
     0
 10
20.815841745559279
 20
8.6182497700913281
 30
0.0
 11
21.29599090460351
 21
9.0983989291355591
 31
0.0
  0
LINE
  5
4C7
  8
0
 62
     0
 10
14.72624436495396
 20
2.5286523894860129
 30
0.0
 11
15.672305966465609
 21
3.4747139909976639
 31
0.0
  0
LINE
  5
4C8
  8
0
 62
     0
 10
17.731430970963689
 20
5.7106156907923822
 30
0.0
 11
19.22596998492244
 21
7.205154704751128
 31
0.0
  0
LINE
  5
4C9
  8
0
 62
     0
 10
16.199007406475062
 20
4.1781921263037543
 30
0.0
 11
17.684226517697379
 21
5.6634112375260752
 31
0.0
  0
LINE
  5
4CA
  8
0
 62
     0
 10
20.859202067047129
 20
8.8383867868758212
 30
0.0
 11
21.148676991856309
 21
9.1278617116849983
 31
0.0
  0
LINE
  5
4CB
  8
0
 62
     0
 10
14.72527306443035
 20
2.7044577842590409
 30
0.0
 11
15.66920462093409
 21
3.648389340762781
 31
0.0
  0
LINE
  5
4CC
  8
0
 62
     0
 10
17.79686696497545
 20
5.9528283801007751
 30
0.0
 11
19.22472944670983
 21
7.3806908618351583
 31
0.0
  0
LINE
  5
4CD
  8
0
 62
     0
 10
16.021067706604111
 20
4.1770291217294329
 30
0.0
 11
17.466556565331601
 21
5.6225179804569301
 31
0.0
  0
LINE
  5
4CE
  8
0
 62
     0
 10
20.902562388534989
 20
9.0585238036603108
 30
0.0
 11
20.979829012697209
 21
9.1357904278225401
 31
0.0
  0
LINE
  5
4CF
  8
0
 62
     0
 10
14.724301763906739
 20
2.8802631790320712
 30
0.0
 11
15.685040711837649
 21
3.8410021269629731
 31
0.0
  0
LINE
  5
4D0
  8
0
 62
     0
 10
15.843128006733149
 20
4.175866117155115
 30
0.0
 11
17.295543003674869
 21
5.6282811140968354
 31
0.0
  0
LINE
  5
4D1
  8
0
 62
     0
 10
17.81046517230596
 20
6.1432032827279253
 30
0.0
 11
19.22348890849722
 21
7.5562270189191878
 31
0.0
  0
LINE
  5
4D2
  8
0
 62
     0
 10
14.72333046338313
 20
3.0560685738050979
 30
0.0
 11
15.75378982430283
 21
4.0865279347248
 31
0.0
  0
LINE
  5
4D3
  8
0
 62
     0
 10
17.82406337963647
 20
6.3335781853550719
 30
0.0
 11
19.222248370284621
 21
7.7317631760032182
 31
0.0
  0
LINE
  5
4D4
  8
0
 62
     0
 10
14.722359162859529
 20
3.231873968578129
 30
0.0
 11
17.13095780460559
 21
5.6404726103241902
 31
0.0
  0
LINE
  5
4D5
  8
0
 62
     0
 10
17.830665166725758
 20
6.5169566677409962
 30
0.0
 11
19.221007832072001
 21
7.9072993330872441
 31
0.0
  0
LINE
  5
4D6
  8
0
 62
     0
 10
14.72138786233592
 20
3.4076793633511571
 30
0.0
 11
16.966372605536311
 21
5.6526641065515451
 31
0.0
  0
LINE
  5
4D7
  8
0
 62
     0
 10
17.827198957014058
 20
6.6902671533259346
 30
0.0
 11
19.219767293859402
 21
8.0828354901712736
 31
0.0
  0
LINE
  5
4D8
  8
0
 62
     0
 10
14.720416561812311
 20
3.5834847581241851
 30
0.0
 11
16.801787406467021
 21
5.664855602778899
 31
0.0
  0
LINE
  5
4D9
  8
0
 62
     0
 10
17.823732747302358
 20
6.8635776389108738
 30
0.0
 11
19.218526755646788
 21
8.2583716472553022
 31
0.0
  0
LINE
  5
4DA
  8
0
 62
     0
 10
14.719445261288699
 20
3.7592901528972149
 30
0.0
 11
16.62972344851751
 21
5.6695683401260268
 31
0.0
  0
LINE
  5
4DB
  8
0
 62
     0
 10
17.820209350511341
 20
7.0368309374164904
 30
0.0
 11
19.217286217434179
 21
8.4339078043393307
 31
0.0
  0
LINE
  5
4DC
  8
0
 62
     0
 10
14.71847396076509
 20
3.9350955476702438
 30
0.0
 11
16.452946753220878
 21
5.6695683401260286
 31
0.0
  0
LINE
  5
4DD
  8
0
 62
     0
 10
17.813276931087941
 20
7.2066752132897287
 30
0.0
 11
19.216045679221569
 21
8.6094439614233611
 31
0.0
  0
LINE
  5
4DE
  8
0
 62
     0
 10
14.717502660241481
 20
4.1109009424432719
 30
0.0
 11
16.27617005792424
 21
5.6695683401260277
 31
0.0
  0
LINE
  5
4DF
  8
0
 62
     0
 10
17.806344511664548
 20
7.3765194891629724
 30
0.0
 11
19.214805141008959
 21
8.7849801185073915
 31
0.0
  0
LINE
  5
4E0
  8
0
 62
     0
 10
14.71653135971788
 20
4.2867063372162999
 30
0.0
 11
16.099393362627598
 21
5.6695683401260268
 31
0.0
  0
LINE
  5
4E1
  8
0
 62
     0
 10
17.799412092241148
 20
7.5463637650362134
 30
0.0
 11
19.21356460279636
 21
8.9605162755914201
 31
0.0
  0
LINE
  5
4E2
  8
0
 62
     0
 10
14.715560059194271
 20
4.4625117319893297
 30
0.0
 11
15.922616667330971
 21
5.6695683401260277
 31
0.0
  0
LINE
  5
4E3
  8
0
 62
     0
 10
17.79679854483544
 20
7.7205269129271326
 30
0.0
 11
19.212324064583751
 21
9.1360524326754486
 31
0.0
  0
LINE
  5
4E4
  8
0
 62
     0
 10
14.714999986509669
 20
4.6387283546013638
 30
0.0
 11
15.78481269751169
 21
5.7085410656033897
 31
0.0
  0
LINE
  5
4E5
  8
0
 62
     0
 10
14.714999986509669
 20
4.8155050498980021
 30
0.0
 11
15.70077665143358
 21
5.8012817148219149
 31
0.0
  0
LINE
  5
4E6
  8
0
 62
     0
 10
17.79939608412678
 20
7.8999011475151173
 30
0.0
 11
19.211083526371141
 21
9.3115885897594772
 31
0.0
  0
LINE
  5
4E7
  8
0
 62
     0
 10
13.96912137540173
 20
4.069626438790066
 30
0.0
 11
14.24449638981871
 21
4.3450014532070442
 31
0.0
  0
LINE
  5
4E8
  8
0
 62
     0
 10
14.714999986509669
 20
4.9922817451946377
 30
0.0
 11
15.686443405868991
 21
5.9637251645539591
 31
0.0
  0
LINE
  5
4E9
  8
0
 62
     0
 10
17.804048102424058
 20
8.0813298611090332
 30
0.0
 11
19.209842988158531
 21
9.4871247468435058
 31
0.0
  0
LINE
  5
4EA
  8
0
 62
     0
 10
13.767961687650381
 20
4.0452434463353573
 30
0.0
 11
14.24774293869155
 21
4.525024697376522
 31
0.0
  0
LINE
  5
4EB
  8
0
 62
     0
 10
14.714999986509669
 20
5.1690584404912761
 30
0.0
 11
15.67211016030439
 21
6.1261686142860041
 31
0.0
  0
LINE
  5
4EC
  8
0
 62
     0
 10
14.058728722461289
 20
4.5127871764429006
 30
0.0
 11
14.251671309698141
 21
4.7057297636797513
 31
0.0
  0
LINE
  5
4ED
  8
0
 62
     0
 10
17.80870012072134
 20
8.2627585747029482
 30
0.0
 11
19.208602449945928
 21
9.6626609039275344
 31
0.0
  0
LINE
  5
4EE
  8
0
 62
     0
 10
13.55080946419735
 20
4.0048679181789559
 30
0.0
 11
13.75969594041754
 21
4.213754394399146
 31
0.0
  0
LINE
  5
4EF
  8
0
 62
     0
 10
14.714999986509669
 20
5.3458351357879126
 30
0.0
 11
15.66509052605846
 21
6.2959256753367017
 31
0.0
  0
LINE
  5
4F0
  8
0
 62
     0
 10
14.061448363927401
 20
4.6922835132056386
 30
0.0
 11
14.255599680704741
 21
4.8864348299829814
 31
0.0
  0
LINE
  5
4F1
  8
0
 62
     0
 10
17.813352139018619
 20
8.4441872882968632
 30
0.0
 11
19.152056083893491
 21
9.7828912331717301
 31
0.0
  0
LINE
  5
4F2
  8
0
 62
     0
 10
13.32120295191551
 20
3.9520381011937551
 30
0.0
 11
13.54363553505498
 21
4.1744706843332269
 31
0.0
  0
LINE
  5
4F3
  8
0
 62
     0
 10
14.714999986509669
 20
5.5226118310845491
 30
0.0
 11
15.661247554421569
 21
6.4688593989964538
 31
0.0
  0
LINE
  5
4F4
  8
0
 62
     0
 10
14.064168005393499
 20
4.8717798499683767
 30
0.0
 11
14.25193226682744
 21
5.0595441114023272
 31
0.0
  0
LINE
  5
4F5
  8
0
 62
     0
 10
17.818004157315901
 20
8.6256160018907782
 30
0.0
 11
18.978862966597021
 21
9.7864748111718942
 31
0.0
  0
LINE
  5
4F6
  8
0
 62
     0
 10
13.091596439633671
 20
3.899208284208552
 30
0.0
 11
13.34458239622281
 21
4.1521942407976908
 31
0.0
  0
LINE
  5
4F7
  8
0
 62
     0
 10
14.714999986509669
 20
5.6993885263811874
 30
0.0
 11
15.657404582784689
 21
6.6417931226562086
 31
0.0
  0
LINE
  5
4F8
  8
0
 62
     0
 10
14.0668876468596
 20
5.0512761867311156
 30
0.0
 11
14.24673295225989
 21
5.2311214921314146
 31
0.0
  0
LINE
  5
4F9
  8
0
 62
     0
 10
17.820323724669979
 20
8.8047122645415001
 30
0.0
 11
18.802086271300379
 21
9.7864748111718995
 31
0.0
  0
LINE
  5
4FA
  8
0
 62
     0
 10
12.86198992735183
 20
3.8463784672233521
 30
0.0
 11
13.150297163590411
 21
4.1346857034619298
 31
0.0
  0
LINE
  5
4FB
  8
0
 62
     0
 10
14.714999986509669
 20
5.8761652216778231
 30
0.0
 11
15.655567741757929
 21
6.8167329769260876
 31
0.0
  0
LINE
  5
4FC
  8
0
 62
     0
 10
14.032081265239491
 20
5.19324650040764
 30
0.0
 11
14.25999386247968
 21
5.4211590976478421
 31
0.0
  0
LINE
  5
4FD
  8
0
 62
     0
 10
17.820323724669979
 20
8.9814889598381331
 30
0.0
 11
18.62530957600374
 21
9.7864748111718978
 31
0.0
  0
LINE
  5
4FE
  8
0
 62
     0
 10
12.63238341506999
 20
3.793548650238149
 30
0.0
 11
12.899088175537299
 21
4.0602534107054513
 31
0.0
  0
LINE
  5
4FF
  8
0
 62
     0
 10
14.714999986509669
 20
6.0529419169744596
 30
0.0
 11
15.65487720779193
 21
6.9928191382567233
 31
0.0
  0
LINE
  5
500
  8
0
 62
     0
 10
13.93980827839561
 20
5.2777502088604056
 30
0.0
 11
14.227547223207001
 21
5.5654891536717948
 31
0.0
  0
LINE
  5
501
  8
0
 62
     0
 10
17.820323724669979
 20
9.1582656551347732
 30
0.0
 11
18.448532880707109
 21
9.7864748111718995
 31
0.0
  0
LINE
  5
502
  8
0
 62
     0
 10
12.402776902788149
 20
3.7407188332529451
 30
0.0
 11
12.673338784175391
 21
4.0112807146401801
 31
0.0
  0
LINE
  5
503
  8
0
 62
     0
 10
14.714999986509669
 20
6.229718612271097
 30
0.0
 11
15.654186673825929
 21
7.1689052995873581
 31
0.0
  0
LINE
  5
504
  8
0
 62
     0
 10
13.783704415285801
 20
5.2984230410472311
 30
0.0
 11
14.067606403652899
 21
5.5823250294143314
 31
0.0
  0
LINE
  5
505
  8
0
 62
     0
 10
17.820323724669979
 20
9.3350423504314097
 30
0.0
 11
18.271756185410471
 21
9.7864748111718978
 31
0.0
  0
LINE
  5
506
  8
0
 62
     0
 10
12.16754538607251
 20
3.68226401183394
 30
0.0
 11
12.448350262888759
 21
3.9630688886501888
 31
0.0
  0
LINE
  5
507
  8
0
 62
     0
 10
14.714999986509669
 20
6.4064953075677327
 30
0.0
 11
15.65349613985993
 21
7.3449914609179912
 31
0.0
  0
LINE
  5
508
  8
0
 62
     0
 10
13.61124804804083
 20
5.3027433690989012
 30
0.0
 11
13.86496625658725
 21
5.5564615776453099
 31
0.0
  0
LINE
  5
509
  8
0
 62
     0
 10
17.820323724669979
 20
9.5118190457280463
 30
0.0
 11
18.094979490113829
 21
9.7864748111718995
 31
0.0
  0
LINE
  5
50A
  8
0
 62
     0
 10
11.93066461437502
 20
3.622159935433082
 30
0.0
 11
12.22300027577152
 21
3.91449559682958
 31
0.0
  0
LINE
  5
50B
  8
0
 62
     0
 10
14.714999986509669
 20
6.583272002864371
 30
0.0
 11
15.65280560589393
 21
7.5210776222486277
 31
0.0
  0
LINE
  5
50C
  8
0
 62
     0
 10
13.38396372551659
 20
5.2522357418712913
 30
0.0
 11
13.64477072384933
 21
5.5130427402040318
 31
0.0
  0
LINE
  5
50D
  8
0
 62
     0
 10
17.820323724669979
 20
9.6885957410246846
 30
0.0
 11
17.918202794817201
 21
9.7864748111718995
 31
0.0
  0
LINE
  5
50E
  8
0
 62
     0
 10
11.69378384267752
 20
3.562055859032228
 30
0.0
 11
11.989655037979951
 21
3.8579270543346569
 31
0.0
  0
LINE
  5
50F
  8
0
 62
     0
 10
14.01890794592304
 20
6.0639566575743826
 30
0.0
 11
14.199617900748009
 21
6.2446666123993531
 31
0.0
  0
LINE
  5
510
  8
0
 62
     0
 10
13.15816233019885
 20
5.2032110418501896
 30
0.0
 11
13.42457519111141
 21
5.4696239027627529
 31
0.0
  0
LINE
  5
511
  8
0
 62
     0
 10
14.714999986509669
 20
6.7600486981610066
 30
0.0
 11
15.65211507192792
 21
7.6971637835792626
 31
0.0
  0
LINE
  5
512
  8
0
 62
     0
 10
11.43244480718371
 20
3.47749351883505
 30
0.0
 11
11.74646332835434
 21
3.7915120400056841
 31
0.0
  0
LINE
  5
513
  8
0
 62
     0
 10
13.80133662863488
 20
6.0231620355828541
 30
0.0
 11
14.159271616336691
 21
6.3810970232846671
 31
0.0
  0
LINE
  5
514
  8
0
 62
     0
 10
12.933173808912221
 20
5.1549992158601983
 30
0.0
 11
13.20437965837349
 21
5.426205065321474
 31
0.0
  0
LINE
  5
515
  8
0
 62
     0
 10
14.714999986509669
 20
6.936825393457644
 30
0.0
 11
15.651424537961921
 21
7.8732499449098983
 31
0.0
  0
LINE
  5
516
  8
0
 62
     0
 10
11.14475493471846
 20
3.3665803416664399
 30
0.0
 11
11.48831538994877
 21
3.710140796896749
 31
0.0
  0
LINE
  5
517
  8
0
 62
     0
 10
13.58118715424389
 20
5.9797892564885009
 30
0.0
 11
14.08066358524996
 21
6.4792656874945784
 31
0.0
  0
LINE
  5
518
  8
0
 62
     0
 10
12.708185287625589
 20
5.1067873898702043
 30
0.0
 11
12.97433382534023
 21
5.3729359275848463
 31
0.0
  0
LINE
  5
519
  8
0
 62
     0
 10
14.714999986509669
 20
7.1136020887542823
 30
0.0
 11
15.65073400399592
 21
8.0493361062405313
 31
0.0
  0
LINE
  5
51A
  8
0
 62
     0
 10
10.887625196105169
 20
3.2862272983497882
 30
0.0
 11
11.23198918176865
 21
3.630591284013263
 31
0.0
  0
LINE
  5
51B
  8
0
 62
     0
 10
13.360991621505971
 20
5.9363704190472228
 30
0.0
 11
13.88397114756075
 21
6.4593499451020007
 31
0.0
  0
LINE
  5
51C
  8
0
 62
     0
 10
12.484702238960679
 20
5.0600810365019271
 30
0.0
 11
12.74338362664624
 21
5.3187624241874909
 31
0.0
  0
LINE
  5
51D
  8
0
 62
     0
 10
14.714999986509669
 20
7.290378784050918
 30
0.0
 11
15.65004347002991
 21
8.225422267571167
 31
0.0
  0
LINE
  5
51E
  8
0
 62
     0
 10
10.630495457491881
 20
3.2058742550331352
 30
0.0
 11
10.97566297358852
 21
3.551041771129777
 31
0.0
  0
LINE
  5
51F
  8
0
 62
     0
 10
13.140796088768051
 20
5.8929515816059421
 30
0.0
 11
13.656748928818301
 21
6.408904421656187
 31
0.0
  0
LINE
  5
520
  8
0
 62
     0
 10
12.259907194501119
 20
5.0120626873390028
 30
0.0
 11
12.51243342795224
 21
5.2645889207901329
 31
0.0
  0
LINE
  5
521
  8
0
 62
     0
 10
14.714999986509669
 20
7.4671554793475554
 30
0.0
 11
15.649352936063909
 21
8.4015084289017992
 31
0.0
  0
LINE
  5
522
  8
0
 62
     0
 10
10.32347852756096
 20
3.0756340203988488
 30
0.0
 11
10.70589960958393
 21
3.4580551024218229
 31
0.0
  0
LINE
  5
523
  8
0
 62
     0
 10
12.92414248092437
 20
5.8530746690588957
 30
0.0
 11
13.44877634611637
 21
6.377708534250897
 31
0.0
  0
LINE
  5
524
  8
0
 62
     0
 10
12.026883368882819
 20
4.9558155570173472
 30
0.0
 11
12.281483229258249
 21
5.2104154173927766
 31
0.0
  0
LINE
  5
525
  8
0
 62
     0
 10
14.714999986509669
 20
7.6439321746441911
 30
0.0
 11
15.64866240209791
 21
8.5775945902324331
 31
0.0
  0
LINE
  5
526
  8
0
 62
     0
 10
10.03970541142688
 20
2.9686375995614109
 30
0.0
 11
10.430913639122499
 21
3.359845827257026
 31
0.0
  0
LINE
  5
527
  8
0
 62
     0
 10
12.7226170482862
 20
5.828325931717365
 30
0.0
 11
13.236962284972201
 21
6.3426711684033599
 31
0.0
  0
LINE
  5
528
  8
0
 62
     0
 10
11.79385954326453
 20
4.8995684266956889
 30
0.0
 11
12.05658279317208
 21
5.1622916766032381
 31
0.0
  0
LINE
  5
529
  8
0
 62
     0
 10
14.714999986509669
 20
7.8207088699408267
 30
0.0
 11
15.64797186813191
 21
8.7536807515630706
 31
0.0
  0
LINE
  5
52A
  8
0
 62
     0
 10
9.755932295292812
 20
2.8616411787239722
 30
0.0
 11
10.15592766866107
 21
3.2616365520922281
 31
0.0
  0
LINE
  5
52B
  8
0
 62
     0
 10
12.521091615648039
 20
5.8035771943758352
 30
0.0
 11
13.02483025061623
 21
6.3073158293440317
 31
0.0
  0
LINE
  5
52C
  8
0
 62
     0
 10
11.554118622996191
 20
4.8366042017239881
 30
0.0
 11
11.8076757546743
 21
5.0901613334021016
 31
0.0
  0
LINE
  5
52D
  8
0
 62
     0
 10
14.714999986509669
 20
7.9974855652374659
 30
0.0
 11
15.64728133416591
 21
8.9297669128937045
 31
0.0
  0
LINE
  5
52E
  8
0
 62
     0
 10
9.4433693657938012
 20
2.7258549445216009
 30
0.0
 11
9.8583391529753008
 21
3.1408247317030979
 31
0.0
  0
LINE
  5
52F
  8
0
 62
     0
 10
12.31956618300987
 20
5.778828457034308
 30
0.0
 11
12.81409989062406
 21
6.2733621646484963
 31
0.0
  0
LINE
  5
530
  8
0
 62
     0
 10
11.295267033454691
 20
4.7545293074791219
 30
0.0
 11
11.55774053188283
 21
5.0170028059072687
 31
0.0
  0
LINE
  5
531
  8
0
 62
     0
 10
14.714999986509669
 20
8.1742622605341033
 30
0.0
 11
15.646590800199901
 21
9.1058530742243384
 31
0.0
  0
LINE
  5
532
  8
0
 62
     0
 10
9.1260778614152258
 20
2.5853401354396608
 30
0.0
 11
9.5522136562420972
 21
3.0114759302665339
 31
0.0
  0
LINE
  5
533
  8
0
 62
     0
 10
12.080579730474049
 20
5.7166186997951209
 30
0.0
 11
12.604324878872051
 21
6.2403638481931232
 31
0.0
  0
LINE
  5
534
  8
0
 62
     0
 10
13.79082201751779
 20
7.42686098683886
 30
0.0
 11
13.95830002752729
 21
7.5943389968483661
 31
0.0
  0
LINE
  5
535
  8
0
 62
     0
 10
11.031845180727959
 20
4.66788415004903
 30
0.0
 11
11.319091993232369
 21
4.9551309625534472
 31
0.0
  0
LINE
  5
536
  8
0
 62
     0
 10
14.714999986509669
 20
8.3510389558307399
 30
0.0
 11
15.6459002662339
 21
9.2819392355549724
 31
0.0
  0
LINE
  5
537
  8
0
 62
     0
 10
8.7968845052766014
 20
2.432923474597672
 30
0.0
 11
9.2460881595088971
 21
2.882127128829969
 31
0.0
  0
LINE
  5
538
  8
0
 62
     0
 10
11.903803035177409
 20
5.7166186997951227
 30
0.0
 11
12.394549867120039
 21
6.207365531737751
 31
0.0
  0
LINE
  5
539
  8
0
 62
     0
 10
13.578090740126919
 20
7.39090640474463
 30
0.0
 11
13.930848004990141
 21
7.7436636696078534
 31
0.0
  0
LINE
  5
53A
  8
0
 62
     0
 10
10.769270330937159
 20
4.5820859955548707
 30
0.0
 11
11.080443454581911
 21
4.8932591191996231
 31
0.0
  0
LINE
  5
53B
  8
0
 62
     0
 10
14.714999986509669
 20
8.5278156511273764
 30
0.0
 11
15.645209732267899
 21
9.4580253968856081
 31
0.0
  0
LINE
  5
53C
  8
0
 62
     0
 10
8.434492279918496
 20
2.2473079445362041
 30
0.0
 11
8.8926420552515069
 21
2.705457719869214
 31
0.0
  0
LINE
  5
53D
  8
0
 62
     0
 10
11.7068303791493
 20
5.6964227390636459
 30
0.0
 11
12.18477485536803
 21
6.1743672152823788
 31
0.0
  0
LINE
  5
53E
  8
0
 62
     0
 10
13.36535946273605
 20
7.3549518226504
 30
0.0
 11
13.85605511490736
 21
7.8456474748217042
 31
0.0
  0
LINE
  5
53F
  8
0
 62
     0
 10
10.512195790348249
 20
4.5017881502626009
 30
0.0
 11
10.807714232197091
 21
4.7973065921114326
 31
0.0
  0
LINE
  5
540
  8
0
 62
     0
 10
14.714999986509669
 20
8.7045923464240111
 30
0.0
 11
15.6445191983019
 21
9.6341115582162402
 31
0.0
  0
LINE
  5
541
  8
0
 62
     0
 10
8.0436916431105132
 20
2.0332840030248591
 30
0.0
 11
8.5390886646582302
 21
2.5286810245725748
 31
0.0
  0
LINE
  5
542
  8
0
 62
     0
 10
11.509850632961619
 20
5.676219688172603
 30
0.0
 11
11.97499984361602
 21
6.1413688988270074
 31
0.0
  0
LINE
  5
543
  8
0
 62
     0
 10
13.152628185345179
 20
7.3189972405561683
 30
0.0
 11
13.660376455185901
 21
7.8267455103968837
 31
0.0
  0
LINE
  5
544
  8
0
 62
     0
 10
10.241138190893411
 20
4.4075072461043963
 30
0.0
 11
10.534973045167989
 21
4.701342100378973
 31
0.0
  0
LINE
  5
545
  8
0
 62
     0
 10
14.714999986509669
 20
8.8813690417206477
 30
0.0
 11
15.599879188543341
 21
9.7662482437543261
 31
0.0
  0
LINE
  5
546
  8
0
 62
     0
 10
7.6508545424513201
 20
1.817223597662303
 30
0.0
 11
8.1855352740649554
 21
2.351904329275937
 31
0.0
  0
LINE
  5
547
  8
0
 62
     0
 10
11.34101673114322
 20
5.6841624816508416
 30
0.0
 11
11.79989667362959
 21
6.1430424241372057
 31
0.0
  0
LINE
  5
548
  8
0
 62
     0
 10
12.938712205482719
 20
7.2818579559903363
 30
0.0
 11
13.44724490046357
 21
7.7903906509711929
 31
0.0
  0
LINE
  5
549
  8
0
 62
     0
 10
9.9700805914385704
 20
4.313226341946188
 30
0.0
 11
10.26473597714276
 21
4.6078817276503807
 31
0.0
  0
LINE
  5
54A
  8
0
 62
     0
 10
14.714999986509669
 20
9.0581457370172842
 30
0.0
 11
15.44941917122387
 21
9.7925649217314863
 31
0.0
  0
LINE
  5
54B
  8
0
 62
     0
 10
7.258017441792127
 20
1.601163192299746
 30
0.0
 11
7.8163650778209393
 21
2.1595108283285578
 31
0.0
  0
LINE
  5
54C
  8
0
 62
     0
 10
11.185997167575399
 20
5.705919613379657
 30
0.0
 11
11.647502970787659
 21
6.1674254165919118
 31
0.0
  0
LINE
  5
54D
  8
0
 62
     0
 10
12.72161801827632
 20
7.2415404640805754
 30
0.0
 11
13.230993797479339
 21
7.7509162432835943
 31
0.0
  0
LINE
  5
54E
  8
0
 62
     0
 10
9.6843170233841125
 20
4.2042394691883667
 30
0.0
 11
9.9957279625609257
 21
4.5156504083651798
 31
0.0
  0
LINE
  5
54F
  8
0
 62
     0
 10
14.714999986509669
 20
9.2349224323139207
 30
0.0
 11
15.28021862001137
 21
9.8001410658156267
 31
0.0
  0
LINE
  5
550
  8
0
 62
     0
 10
6.7914178495348292
 20
1.311340295339084
 30
0.0
 11
7.3883865236922652
 21
1.9083089694965201
 31
0.0
  0
LINE
  5
551
  8
0
 62
     0
 10
11.03097760400758
 20
5.727676745108476
 30
0.0
 11
11.51631943693028
 21
6.213018578031174
 31
0.0
  0
LINE
  5
552
  8
0
 62
     0
 10
12.504523831069919
 20
7.2012229721708163
 30
0.0
 11
13.0147426944951
 21
7.7114418355959939
 31
0.0
  0
LINE
  5
553
  8
0
 62
     0
 10
9.3853218501535451
 20
4.0820209912544376
 30
0.0
 11
9.7267199479790865
 21
4.4234190890799781
 31
0.0
  0
LINE
  5
554
  8
0
 62
     0
 10
14.714999986509669
 20
9.411699127610559
 30
0.0
 11
15.111018068798881
 21
9.8077172098997671
 31
0.0
  0
LINE
  5
555
  8
0
 62
     0
 10
6.2360289166403069
 20
0.9327280577412008
 30
0.0
 11
6.901657092822167
 21
1.5983562339230599
 31
0.0
  0
LINE
  5
556
  8
0
 62
     0
 10
10.875958040439761
 20
5.7494338768372906
 30
0.0
 11
11.406138964597201
 21
6.279614800994727
 31
0.0
  0
LINE
  5
557
  8
0
 62
     0
 10
12.28742964386352
 20
7.1609054802610563
 30
0.0
 11
12.79849159151086
 21
7.6719674279083963
 31
0.0
  0
LINE
  5
558
  8
0
 62
     0
 10
9.0855700624766413
 20
3.9590458988741699
 30
0.0
 11
9.4277075230781051
 21
4.3011833594756341
 31
0.0
  0
LINE
  5
559
  8
0
 62
     0
 10
14.714999986509669
 20
9.5884758229071956
 30
0.0
 11
14.941817517586379
 21
9.8152933539839076
 31
0.0
  0
LINE
  5
55A
  8
0
 62
     0
 10
5.6506006023359072
 20
0.5240764387334372
 30
0.0
 11
6.3904861065086207
 21
1.2639619429061499
 31
0.0
  0
LINE
  5
55B
  8
0
 62
     0
 10
10.729870791430431
 20
5.7801233231246023
 30
0.0
 11
11.311437163545429
 21
6.3616896952395949
 31
0.0
  0
LINE
  5
55C
  8
0
 62
     0
 10
12.082868266788109
 20
7.1331207984822749
 30
0.0
 11
12.582240488526629
 21
7.6324930202207968
 31
0.0
  0
LINE
  5
55D
  8
0
 62
     0
 10
8.7593496602173442
 20
3.8096021919115128
 30
0.0
 11
9.1419593303807432
 21
4.1922118620749087
 31
0.0
  0
LINE
  5
55E
  8
0
 62
     0
 10
14.724397650664249
 20
9.7746501823584122
 30
0.0
 11
14.74568198252852
 21
9.7959345142226883
 31
0.0
  0
LINE
  5
55F
  8
0
 62
     0
 10
5.1922999120969431
 20
0.2425524437911117
 30
0.0
 11
5.8088337542422659
 21
0.8590862859364346
 31
0.0
  0
LINE
  5
560
  8
0
 62
     0
 10
10.60068782179059
 20
5.8277170487813912
 30
0.0
 11
11.21673536249366
 21
6.443764589484462
 31
0.0
  0
LINE
  5
561
  8
0
 62
     0
 10
11.89194943586774
 20
7.1189786628585452
 30
0.0
 11
12.36598938554239
 21
7.5930186125331982
 31
0.0
  0
LINE
  5
562
  8
0
 62
     0
 10
8.4315762043548332
 20
3.6586054313456349
 30
0.0
 11
8.8420105222846104
 21
4.0690397492754133
 31
0.0
  0
LINE
  5
563
  8
0
 62
     0
 10
13.550423386940009
 20
8.7774526139308175
 30
0.0
 11
13.70341725362411
 21
8.9304464806149166
 31
0.0
  0
LINE
  5
564
  8
0
 62
     0
 10
5.0047001538229621
 20
0.2317293808137664
 30
0.0
 11
5.2761214060479587
 21
0.503150633038764
 31
0.0
  0
LINE
  5
565
  8
0
 62
     0
 10
10.490575439574149
 20
5.8943813618615852
 30
0.0
 11
11.12203356144189
 21
6.5258394837293281
 31
0.0
  0
LINE
  5
566
  8
0
 62
     0
 10
11.66985589353029
 20
7.073661815817732
 30
0.0
 11
12.149738282558159
 21
7.5535442048455979
 31
0.0
  0
LINE
  5
567
  8
0
 62
     0
 10
8.1038027484923187
 20
3.5076086707797578
 30
0.0
 11
8.4881220503594541
 21
3.8919279726468932
 31
0.0
  0
LINE
  5
568
  8
0
 62
     0
 10
13.34091026658845
 20
8.7447161888758842
 30
0.0
 11
13.67497835050329
 21
9.0787842727907311
 31
0.0
  0
LINE
  5
569
  8
0
 62
     0
 10
4.8171003955489802
 20
0.220906317836421
 30
0.0
 11
5.0265724873540503
 21
0.4303784096414903
 31
0.0
  0
LINE
  5
56A
  8
0
 62
     0
 10
10.392366164409349
 20
5.9729487819934226
 30
0.0
 11
11.05756734180307
 21
6.6381499593871487
 31
0.0
  0
LINE
  5
56B
  8
0
 62
     0
 10
11.44105186274672
 20
7.0216344803308006
 30
0.0
 11
11.929001937975549
 21
7.5095845555596279
 31
0.0
  0
LINE
  5
56C
  8
0
 62
     0
 10
7.7204842427419846
 20
3.3010668603260629
 30
0.0
 11
8.1903390849801436
 21
3.7709217025642201
 31
0.0
  0
LINE
  5
56D
  8
0
 62
     0
 10
13.12903472743743
 20
8.7096173450215062
 30
0.0
 11
13.60851327720624
 21
9.1890958947903201
 31
0.0
  0
LINE
  5
56E
  8
0
 62
     0
 10
4.6327229189453014
 20
0.2133055365293788
 30
0.0
 11
4.8419390500442283
 21
0.4225216676283062
 31
0.0
  0
LINE
  5
56F
  8
0
 62
     0
 10
10.294156889244549
 20
6.0515162021252618
 30
0.0
 11
11.04056098974279
 21
6.797920302623508
 31
0.0
  0
LINE
  5
570
  8
0
 62
     0
 10
9.245740256298113
 20
5.0030995691788256
 30
0.0
 11
9.3151714436134583
 21
5.0725307564941708
 31
0.0
  0
LINE
  5
571
  8
0
 62
     0
 10
11.23060341596501
 20
6.9879627288457273
 30
0.0
 11
11.70803106885475
 21
7.4653903817354683
 31
0.0
  0
LINE
  5
572
  8
0
 62
     0
 10
7.3173361725400197
 20
3.074695485420734
 30
0.0
 11
7.8323662770044553
 21
3.5897255898851679
 31
0.0
  0
LINE
  5
573
  8
0
 62
     0
 10
12.914645969311721
 20
8.6720052821924334
 30
0.0
 11
13.43219263793139
 21
9.1895519508121097
 31
0.0
  0
LINE
  5
574
  8
0
 62
     0
 10
4.4663448527837613
 20
0.2237041656644751
 30
0.0
 11
4.6573056127344081
 21
0.4146649256151225
 31
0.0
  0
LINE
  5
575
  8
0
 62
     0
 10
8.6059328017067411
 20
4.5400688098840929
 30
0.0
 11
9.5875536938976502
 21
5.5216897020750011
 31
0.0
  0
LINE
  5
576
  8
0
 62
     0
 10
10.195947614079749
 20
6.1300836222571
 30
0.0
 11
11.487060199733961
 21
7.4211962079113114
 31
0.0
  0
LINE
  5
577
  8
0
 62
     0
 10
6.910749773357753
 20
2.8448857815351052
 30
0.0
 11
7.4743934690287626
 21
3.4085294772061139
 31
0.0
  0
LINE
  5
578
  8
0
 62
     0
 10
12.70025721118601
 20
8.6343932193633606
 30
0.0
 11
13.21549862434197
 21
9.1496346325193212
 31
0.0
  0
LINE
  5
579
  8
0
 62
     0
 10
4.2999667866222193
 20
0.2341027947995711
 30
0.0
 11
4.479416595347737
 21
0.4135526035250888
 31
0.0
  0
LINE
  5
57A
  8
0
 62
     0
 10
8.2332684170273467
 20
4.3441811205013341
 30
0.0
 11
9.6530265440075151
 21
5.7639392474815043
 31
0.0
  0
LINE
  5
57B
  8
0
 62
     0
 10
10.105466684730329
 20
6.2163793882043246
 30
0.0
 11
11.266089330613161
 21
7.3770020340871509
 31
0.0
  0
LINE
  5
57C
  8
0
 62
     0
 10
6.504163374175489
 20
2.6150760776494768
 30
0.0
 11
7.078817602596553
 21
3.18973030607054
 31
0.0
  0
LINE
  5
57D
  8
0
 62
     0
 10
12.490884060546779
 20
8.6017967640207704
 30
0.0
 11
12.99880461075254
 21
9.1097173142265309
 31
0.0
  0
LINE
  5
57E
  8
0
 62
     0
 10
4.1335887204606792
 20
0.2445014239346674
 30
0.0
 11
4.3056361152256191
 21
0.4165488186996083
 31
0.0
  0
LINE
  5
57F
  8
0
 62
     0
 10
7.8606040323479496
 20
4.1482934311185753
 30
0.0
 11
9.6509747384366005
 21
5.9386641372072253
 31
0.0
  0
LINE
  5
580
  8
0
 62
     0
 10
10.02549627495328
 20
6.3131856737239129
 30
0.0
 11
11.07687047489318
 21
7.364559873663806
 31
0.0
  0
LINE
  5
581
  8
0
 62
     0
 10
6.0044150294047354
 20
2.2921044281753611
 30
0.0
 11
6.6663386469044008
 21
2.9540280456750261
 31
0.0
  0
LINE
  5
582
  8
0
 62
     0
 10
12.28343048784307
 20
8.5711198866136904
 30
0.0
 11
12.78211059716312
 21
9.0697999959337405
 31
0.0
  0
LINE
  5
583
  8
0
 62
     0
 10
3.925810914062327
 20
0.2135003128329533
 30
0.0
 11
4.1318556351035021
 21
0.4195450338741271
 31
0.0
  0
LINE
  5
584
  8
0
 62
     0
 10
7.5805194779333496
 20
4.0449855720006109
 30
0.0
 11
9.6274045123970495
 21
6.09187060646431
 31
0.0
  0
LINE
  5
585
  8
0
 62
     0
 10
9.9455258651762382
 20
6.4099919592434977
 30
0.0
 11
10.96394079983085
 21
7.4284068938981127
 31
0.0
  0
LINE
  5
586
  8
0
 62
     0
 10
5.448831129901019
 20
1.9132972239682799
 30
0.0
 11
6.2538596912122477
 21
2.7183257852795091
 31
0.0
  0
LINE
  5
587
  8
0
 62
     0
 10
12.06329347105858
 20
8.5277595651258373
 30
0.0
 11
12.56501090012811
 21
9.0294769941953721
 31
0.0
  0
LINE
  5
588
  8
0
 62
     0
 10
3.7521085792439122
 20
0.2165746733111749
 30
0.0
 11
3.9580751549813842
 21
0.4225412490486465
 31
0.0
  0
LINE
  5
589
  8
0
 62
     0
 10
8.5968108865150263
 20
5.2380536758789242
 30
0.0
 11
9.5803425539318336
 21
6.2215853432957307
 31
0.0
  0
LINE
  5
58A
  8
0
 62
     0
 10
7.2620772480912477
 20
3.903320037455146
 30
0.0
 11
8.1846458122447991
 21
4.825888601608697
 31
0.0
  0
LINE
  5
58B
  8
0
 62
     0
 10
9.9009592941332905
 20
6.5422020834971883
 30
0.0
 11
10.905525624366179
 21
7.546768413730077
 31
0.0
  0
LINE
  5
58C
  8
0
 62
     0
 10
4.7713468541548831
 20
1.4125896435187819
 30
0.0
 11
5.7404827622877006
 21
2.3817255516516012
 31
0.0
  0
LINE
  5
58D
  8
0
 62
     0
 10
11.843156454274091
 20
8.484399243637986
 30
0.0
 11
12.34404003100731
 21
8.9852828203712125
 31
0.0
  0
LINE
  5
58E
  8
0
 62
     0
 10
3.5803826466700359
 20
0.2216254360339358
 30
0.0
 11
3.828308558301432
 21
0.4695513476653315
 31
0.0
  0
LINE
  5
58F
  8
0
 62
     0
 10
8.7008010913219742
 20
5.5188205759825086
 30
0.0
 11
9.5259497246097897
 21
6.3439692092703241
 31
0.0
  0
LINE
  5
590
  8
0
 62
     0
 10
9.8772675720832268
 20
6.6952870567437603
 30
0.0
 11
10.920182638717121
 21
7.7382021233776586
 31
0.0
  0
LINE
  5
591
  8
0
 62
     0
 10
7.0393386120174863
 20
3.8573580966780212
 30
0.0
 11
7.798997000586346
 21
4.6170164852468814
 31
0.0
  0
LINE
  5
592
  8
0
 62
     0
 10
11.623019437489591
 20
8.4410389221501294
 30
0.0
 11
12.1251176179862
 21
8.9431371026467321
 31
0.0
  0
LINE
  5
593
  8
0
 62
     0
 10
3.408656714096161
 20
0.2266761987566968
 30
0.0
 11
5.247497989758334
 21
2.0655174744188689
 31
0.0
  0
LINE
  5
594
  8
0
 62
     0
 10
8.6890159783021979
 20
5.6838121582593688
 30
0.0
 11
9.4712848181282485
 21
6.4660809980854204
 31
0.0
  0
LINE
  5
595
  8
0
 62
     0
 10
9.8535758500331614
 20
6.8483720299903332
 30
0.0
 11
10.99686784468325
 21
7.9916640246404258
 31
0.0
  0
LINE
  5
596
  8
0
 62
     0
 10
6.8165999759437232
 20
3.8113961559008951
 30
0.0
 11
7.5229007309402141
 21
4.5176969108973859
 31
0.0
  0
LINE
  5
597
  8
0
 62
     0
 10
11.27033567691835
 20
8.2651318568755219
 30
0.0
 11
11.912985583630229
 21
8.9077817635874048
 31
0.0
  0
LINE
  5
598
  8
0
 62
     0
 10
3.2369307815222852
 20
0.2317269614794579
 30
0.0
 11
4.5421422235924647
 21
1.5369384035496381
 31
0.0
  0
LINE
  5
599
  8
0
 62
     0
 10
8.6648488499971297
 20
5.8364217252509381
 30
0.0
 11
9.4152640344074854
 21
6.586836909661292
 31
0.0
  0
LINE
  5
59A
  8
0
 62
     0
 10
6.593861339869961
 20
3.7654342151237712
 30
0.0
 11
7.2621371492123696
 21
4.4337100244661789
 31
0.0
  0
LINE
  5
59B
  8
0
 62
     0
 10
9.8298841279830942
 20
7.0014570032369052
 30
0.0
 11
11.700853549274269
 21
8.8724264245280757
 31
0.0
  0
LINE
  5
59C
  8
0
 62
     0
 10
3.0935611482430398
 20
0.26513402349685
 30
0.0
 11
3.5870383094859108
 21
0.7586111847397208
 31
0.0
  0
LINE
  5
59D
  8
0
 62
     0
 10
8.612079687222014
 20
5.9604292577724589
 30
0.0
 11
9.3592432506867187
 21
6.7075928212371627
 31
0.0
  0
LINE
  5
59E
  8
0
 62
     0
 10
9.8061924059330323
 20
7.1545419764834772
 30
0.0
 11
11.4887215149183
 21
8.8370710854687484
 31
0.0
  0
LINE
  5
59F
  8
0
 62
     0
 10
6.4255660001327559
 20
3.7739155706832022
 30
0.0
 11
7.0807084356184511
 21
4.4290580061688969
 31
0.0
  0
LINE
  5
5A0
  8
0
 62
     0
 10
8.5593105244468983
 20
6.0844367902939807
 30
0.0
 11
9.3032224669659538
 21
6.8283487328130361
 31
0.0
  0
LINE
  5
5A1
  8
0
 62
     0
 10
9.7825006838829651
 20
7.307626949730051
 30
0.0
 11
11.27658948056234
 21
8.8017157464094247
 31
0.0
  0
LINE
  5
5A2
  8
0
 62
     0
 10
6.2589879603340011
 20
3.7841142261810852
 30
0.0
 11
6.8992797220245343
 21
4.4244059878716167
 31
0.0
  0
LINE
  5
5A3
  8
0
 62
     0
 10
8.5065413616717844
 20
6.2084443228155033
 30
0.0
 11
9.2472016832451889
 21
6.949104644388906
 31
0.0
  0
LINE
  5
5A4
  8
0
 62
     0
 10
6.0924099205352471
 20
3.7943128816789669
 30
0.0
 11
6.7311248381317164
 21
4.4330277992754361
 31
0.0
  0
LINE
  5
5A5
  8
0
 62
     0
 10
9.7777258666592424
 20
7.4796288278029603
 30
0.0
 11
11.03490130046295
 21
8.7368042616066717
 31
0.0
  0
LINE
  5
5A6
  8
0
 62
     0
 10
4.413798069070368
 20
2.1157010302140891
 30
0.0
 11
5.0780060348482312
 21
2.779908995991951
 31
0.0
  0
LINE
  5
5A7
  8
0
 62
     0
 10
8.4537721988966688
 20
6.332451855337025
 30
0.0
 11
9.1911808995244222
 21
7.0698605559647802
 31
0.0
  0
LINE
  5
5A8
  8
0
 62
     0
 10
5.9517438806003762
 20
3.8304235370407329
 30
0.0
 11
6.5796697624704032
 21
4.4583494189107604
 31
0.0
  0
LINE
  5
5A9
  8
0
 62
     0
 10
9.862271242670678
 20
7.7409508991110343
 30
0.0
 11
10.70028827008003
 21
8.5789679265203898
 31
0.0
  0
LINE
  5
5AA
  8
0
 62
     0
 10
3.3531378972905461
 20
1.231817553730902
 30
0.0
 11
5.3169564505894282
 21
3.195636107029785
 31
0.0
  0
LINE
  5
5AB
  8
0
 62
     0
 10
8.4007803534991474
 20
6.4562367052361402
 30
0.0
 11
9.1351601158036573
 21
7.1906164675406501
 31
0.0
  0
LINE
  5
5AC
  8
0
 62
     0
 10
5.8360354982243949
 20
3.8914918499613891
 30
0.0
 11
6.4713227556756898
 21
4.5267791074126844
 31
0.0
  0
LINE
  5
5AD
  8
0
 62
     0
 10
10.025232638897281
 20
8.0806889906342736
 30
0.0
 11
10.183006278600731
 21
8.2384626303377271
 31
0.0
  0
LINE
  5
5AE
  8
0
 62
     0
 10
2.37109954301883
 20
0.426555894755825
 30
0.0
 11
5.3230521987031061
 21
3.3785085504400989
 31
0.0
  0
LINE
  5
5AF
  8
0
 62
     0
 10
5.7203271158484164
 20
3.9525601628820461
 30
0.0
 11
6.3677687172402386
 21
4.6000017642738689
 31
0.0
  0
LINE
  5
5B0
  8
0
 62
     0
 10
8.3477473449101556
 20
6.5799803919437858
 30
0.0
 11
9.0791393320828924
 21
7.3113723791165226
 31
0.0
  0
LINE
  5
5B1
  8
0
 62
     0
 10
2.1207237618529549
 20
0.3529568088865864
 30
0.0
 11
5.3258254002043097
 21
3.55805844723794
 31
0.0
  0
LINE
  5
5B2
  8
0
 62
     0
 10
5.6046187334724351
 20
4.013628475802701
 30
0.0
 11
6.3014774565040002
 21
4.710487198834266
 31
0.0
  0
LINE
  5
5B3
  8
0
 62
     0
 10
4.21668854262583
 20
2.6256982849560968
 30
0.0
 11
5.3027675703830104
 21
3.7117773127132772
 31
0.0
  0
LINE
  5
5B4
  8
0
 62
     0
 10
8.2935467670639316
 20
6.7025565093941966
 30
0.0
 11
9.0231185483621275
 21
7.4321282906923942
 31
0.0
  0
LINE
  5
5B5
  8
0
 62
     0
 10
2.0369874325019159
 20
0.4459971748321846
 30
0.0
 11
3.8394621926428969
 21
2.2484719349731641
 31
0.0
  0
LINE
  5
5B6
  8
0
 62
     0
 10
5.523504375773574
 20
4.1092908134004791
 30
0.0
 11
6.2351861957677608
 21
4.8209726333946641
 31
0.0
  0
LINE
  5
5B7
  8
0
 62
     0
 10
4.3168704996395268
 20
2.9026569372664319
 30
0.0
 11
5.2442999452681489
 21
3.8300863828950531
 31
0.0
  0
LINE
  5
5B8
  8
0
 62
     0
 10
8.23411322295558
 20
6.8198996605824824
 30
0.0
 11
8.9670977646413625
 21
7.5528842022682658
 31
0.0
  0
LINE
  5
5B9
  8
0
 62
     0
 10
1.9532511031508779
 20
0.5390375407777829
 30
0.0
 11
2.704881998152592
 21
1.290668435779496
 31
0.0
  0
LINE
  5
5BA
  8
0
 62
     0
 10
5.4485082020113644
 20
4.211071334934906
 30
0.0
 11
6.1819504792562521
 21
4.9445136121797937
 31
0.0
  0
LINE
  5
5BB
  8
0
 62
     0
 10
8.1746796788472267
 20
6.9372428117707674
 30
0.0
 11
8.9150384803805043
 21
7.677601613304045
 31
0.0
  0
LINE
  5
5BC
  8
0
 62
     0
 10
4.3134082023194198
 20
3.075971335242961
 30
0.0
 11
5.1605636159171091
 21
3.9231267488406512
 31
0.0
  0
LINE
  5
5BD
  8
0
 62
     0
 10
5.3853971883086986
 20
4.3247370165288768
 30
0.0
 11
6.128917470667262
 21
5.0682572988874401
 31
0.0
  0
LINE
  5
5BE
  8
0
 62
     0
 10
8.1152461347388751
 20
7.0545859629590533
 30
0.0
 11
8.8645308531528926
 21
7.8038706813730681
 31
0.0
  0
LINE
  5
5BF
  8
0
 62
     0
 10
4.2482799461575009
 20
3.1876197743776791
 30
0.0
 11
5.0768272865660711
 21
4.0161671147862501
 31
0.0
  0
LINE
  5
5C0
  8
0
 62
     0
 10
5.3285761076776366
 20
4.444692631194453
 30
0.0
 11
6.0700594748758867
 21
5.1861759983927023
 31
0.0
  0
LINE
  5
5C1
  8
0
 62
     0
 10
8.0558125906305236
 20
7.1719291141473382
 30
0.0
 11
8.8073661458548287
 21
7.9234826693716416
 31
0.0
  0
LINE
  5
5C2
  8
0
 62
     0
 10
4.1531796265321486
 20
3.269296150048965
 30
0.0
 11
4.993090957215033
 21
4.1092074807318477
 31
0.0
  0
LINE
  5
5C3
  8
0
 62
     0
 10
5.2670842999810707
 20
4.559977518794522
 30
0.0
 11
6.0111339097770102
 21
5.3040271285904614
 31
0.0
  0
LINE
  5
5C4
  8
0
 62
     0
 10
7.996379046522172
 20
7.2892722653356232
 30
0.0
 11
8.7397750564767023
 21
8.0326682752901544
 31
0.0
  0
LINE
  5
5C5
  8
0
 62
     0
 10
4.0359197277750658
 20
3.3288129465885179
 30
0.0
 11
4.8823757397687508
 21
4.175268958582202
 31
0.0
  0
LINE
  5
5C6
  8
0
 62
     0
 10
5.2043570855209751
 20
4.6740269996310628
 30
0.0
 11
5.9522083446781311
 21
5.4218782587882179
 31
0.0
  0
LINE
  5
5C7
  8
0
 62
     0
 10
7.9369455024138187
 20
7.4066154165239073
 30
0.0
 11
8.6647116159324646
 21
8.1343815300425515
 31
0.0
  0
LINE
  5
5C8
  8
0
 62
     0
 10
3.8591430324784288
 20
3.3288129465885179
 30
0.0
 11
4.7645246095709934
 21
4.2341945236810812
 31
0.0
  0
LINE
  5
5C9
  8
0
 62
     0
 10
5.1475759819082434
 20
4.7940225913149694
 30
0.0
 11
5.8932827795792511
 21
5.5397293889859771
 31
0.0
  0
LINE
  5
5CA
  8
0
 62
     0
 10
7.8775119583054671
 20
7.5239585677121932
 30
0.0
 11
8.4178223184971337
 21
8.0642689279038589
 31
0.0
  0
LINE
  5
5CB
  8
0
 62
     0
 10
3.593898697807111
 20
3.2403453072138362
 30
0.0
 11
4.5880857608118841
 21
4.2345323702186102
 31
0.0
  0
LINE
  5
5CC
  8
0
 62
     0
 10
5.0930152734833554
 20
4.9162385781867171
 30
0.0
 11
5.8253263938536248
 21
5.6485496985569883
 31
0.0
  0
LINE
  5
5CD
  8
0
 62
     0
 10
7.831980761007804
 20
7.6552040657111666
 30
0.0
 11
8.0393084059736353
 21
7.8625317106769961
 31
0.0
  0
LINE
  5
5CE
  8
0
 62
     0
 10
2.8654794466297222
 20
2.6887027513330848
 30
0.0
 11
4.381987052356445
 21
4.2052103570598067
 31
0.0
  0
LINE
  5
5CF
  8
0
 62
     0
 10
5.0384545650584673
 20
5.0384545650584656
 30
0.0
 11
5.7614908020721316
 21
5.7614908020721307
 31
0.0
  0
LINE
  5
5D0
  8
0
 62
     0
 10
1.9173021565156481
 20
1.9173021565156481
 30
0.0
 11
4.161016183235648
 21
4.161016183235648
 31
0.0
  0
LINE
  5
5D1
  8
0
 62
     0
 10
4.9838938566335793
 20
5.1606705519302141
 30
0.0
 11
5.70911252198424
 21
5.8858892172808748
 31
0.0
  0
LINE
  5
5D2
  8
0
 62
     0
 10
1.5474703340992071
 20
1.7242470293958441
 30
0.0
 11
3.7985563885700371
 21
3.9753330838666732
 31
0.0
  0
LINE
  5
5D3
  8
0
 62
     0
 10
4.9293331482086922
 20
5.2828865388019643
 30
0.0
 11
5.6567342418963484
 21
6.0102876324896197
 31
0.0
  0
LINE
  5
5D4
  8
0
 62
     0
 10
1.293209197825075
 20
1.6467625884183481
 30
0.0
 11
3.273138531117183
 21
3.6266919217104561
 31
0.0
  0
LINE
  5
5D5
  8
0
 62
     0
 10
4.8721221741039651
 20
5.4024522599938756
 30
0.0
 11
5.6043559618084542
 21
6.1346860476983638
 31
0.0
  0
LINE
  5
5D6
  8
0
 62
     0
 10
1.1164325025284381
 20
1.6467625884183481
 30
0.0
 11
2.2478336983966951
 21
2.7781637842866052
 31
0.0
  0
LINE
  5
5D7
  8
0
 62
     0
 10
4.8097303992933877
 20
5.5168371804799348
 30
0.0
 11
5.5468228307841416
 21
6.2539296119706886
 31
0.0
  0
LINE
  5
5D8
  8
0
 62
     0
 10
0.9744897431591654
 20
1.6815965243457121
 30
0.0
 11
1.857137820779166
 21
2.5642446019657141
 31
0.0
  0
LINE
  5
5D9
  8
0
 62
     0
 10
4.7473386244828104
 20
5.6312221009659931
 30
0.0
 11
5.4867854625701913
 21
6.3706689390533739
 31
0.0
  0
LINE
  5
5DA
  8
0
 62
     0
 10
0.8409251289350397
 20
1.724808605418223
 30
0.0
 11
1.6803611254825299
 21
2.5642446019657141
 31
0.0
  0
LINE
  5
5DB
  8
0
 62
     0
 10
4.6849468496722331
 20
5.7456070214520532
 30
0.0
 11
5.4267480943562392
 21
6.4874082661360593
 31
0.0
  0
LINE
  5
5DC
  8
0
 62
     0
 10
0.7073605147109143
 20
1.7680206864907351
 30
0.0
 11
1.5499909536302729
 21
2.6106511254100941
 31
0.0
  0
LINE
  5
5DD
  8
0
 62
     0
 10
4.6225550748616548
 20
5.8599919419381123
 30
0.0
 11
5.3496134865969367
 21
6.5870503536733942
 31
0.0
  0
LINE
  5
5DE
  8
0
 62
     0
 10
0.6142489497845265
 20
1.851685816860984
 30
0.0
 11
1.458554731925116
 21
2.6959915990015739
 31
0.0
  0
LINE
  5
5DF
  8
0
 62
     0
 10
4.5691712262240323
 20
5.9833847885971272
 30
0.0
 11
5.0702035126910081
 21
6.484417075064103
 31
0.0
  0
LINE
  5
5E0
  8
0
 62
     0
 10
0.5305126204334884
 20
1.9447261828065829
 30
0.0
 11
1.3996720579128199
 21
2.8138856202859142
 31
0.0
  0
LINE
  5
5E1
  8
0
 62
     0
 10
2.8555810885605282
 20
4.4465713462302601
 30
0.0
 11
3.670202731167362
 21
5.2611929888370943
 31
0.0
  0
LINE
  5
5E2
  8
0
 62
     0
 10
4.5178489598475888
 20
6.1088392175173212
 30
0.0
 11
4.7426466949354742
 21
6.3336369526052048
 31
0.0
  0
LINE
  5
5E3
  8
0
 62
     0
 10
0.4467762910824496
 20
2.037766548752181
 30
0.0
 11
1.3681612325925301
 21
2.9591514902622631
 31
0.0
  0
LINE
  5
5E4
  8
0
 62
     0
 10
1.838625213125453
 20
3.6063921660918221
 30
0.0
 11
3.5937587548228711
 21
5.3615257077892391
 31
0.0
  0
LINE
  5
5E5
  8
0
 62
     0
 10
0.3636466211486443
 20
2.1314135741150122
 30
0.0
 11
1.431781582324555
 21
3.1995485352909241
 31
0.0
  0
LINE
  5
5E6
  8
0
 62
     0
 10
0.3116534754731626
 20
2.2561971237361682
 30
0.0
 11
3.5173147784783798
 21
5.4618584267413848
 31
0.0
  0
LINE
  5
5E7
  8
0
 62
     0
 10
0.3058273378491219
 20
2.4271476814087638
 30
0.0
 11
3.3323529666240508
 21
5.4536733101836923
 31
0.0
  0
LINE
  5
5E8
  8
0
 62
     0
 10
0.3753527878807799
 20
2.6734498267370581
 30
0.0
 11
2.3129393619476941
 21
4.6110364008039726
 31
0.0
  0
LINE
  5
5E9
  8
0
 62
     0
 10
0.602567206024715
 20
3.077440940177631
 30
0.0
 11
1.2796953363239509
 21
3.7545690704768671
 31
0.0
  0
ENDBLK
  5
5EB
  8
0
  0
BLOCK
  8
0
  2
WAKU
 70
     0
 10
0.0
 20
0.0
 30
0.0
  3
WAKU
  1

  0
INSERT
  5
33D
  8
0
  2
LOGO
 10
26.349999999999842
 20
273.6500000000002
 30
0.0
  0
POLYLINE
  5
5FB
  8
0
 66
     1
 10
0.0
 20
0.0
 30
0.0
 70
     1
 40
0.7
 41
0.7
  0
VERTEX
  5
D7E
  8
0
 10
24.99999999999984
 20
285.00000000000023
 30
0.0
  0
VERTEX
  5
D7F
  8
0
 10
408.0
 20
285.00000000000023
 30
0.0
  0
VERTEX
  5
D80
  8
0
 10
408.0
 20
11.99999999999995
 30
0.0
  0
VERTEX
  5
D81
  8
0
 10
24.99999999999984
 20
11.99999999999994
 30
0.0
  0
SEQEND
  5
D82
  8
0
  0
POLYLINE
  5
5FC
  8
0
 66
     1
 10
0.0
 20
0.0
 30
0.0
 70
     1
 40
0.3
 41
0.3
  0
VERTEX
  5
D83
  8
0
 10
347.00000000000011
 20
285.00000000000023
 30
0.0
  0
VERTEX
  5
D84
  8
0
 10
408.0
 20
285.00000000000023
 30
0.0
  0
VERTEX
  5
D85
  8
0
 10
408.0
 20
278.00000000000023
 30
0.0
  0
VERTEX
  5
D86
  8
0
 10
347.00000000000011
 20
278.00000000000023
 30
0.0
  0
SEQEND
  5
D87
  8
0
  0
POLYLINE
  5
5FD
  8
0
 66
     1
 10
0.0
 20
0.0
 30
0.0
 70
     1
 40
0.3
 41
0.3
  0
VERTEX
  5
D88
  8
0
 10
24.99999999999984
 20
36.000000000000163
 30
0.0
  0
VERTEX
  5
D89
  8
0
 10
108.9999999999998
 20
36.000000000000163
 30
0.0
  0
VERTEX
  5
D8A
  8
0
 10
108.9999999999998
 20
12.000000000000149
 30
0.0
  0
VERTEX
  5
D8B
  8
0
 10
24.99999999999984
 20
12.00000000000013
 30
0.0
  0
SEQEND
  5
D8C
  8
0
  0
POLYLINE
  5
5FE
  8
0
 66
     1
 10
0.0
 20
0.0
 30
0.0
 40
0.3
 41
0.3
  0
VERTEX
  5
D8D
  8
0
 10
24.99999999999984
 20
30.000000000000149
 30
0.0
  0
VERTEX
  5
D8E
  8
0
 10
108.9999999999998
 20
30.000000000000149
 30
0.0
  0
SEQEND
  5
D8F
  8
0
  0
POLYLINE
  5
5FF
  8
0
 66
     1
 10
0.0
 20
0.0
 30
0.0
 40
0.3
 41
0.3
  0
VERTEX
  5
D90
  8
0
 10
24.99999999999984
 20
24.000000000000149
 30
0.0
  0
VERTEX
  5
D91
  8
0
 10
108.9999999999998
 20
24.000000000000149
 30
0.0
  0
SEQEND
  5
D92
  8
0
  0
POLYLINE
  5
600
  8
0
 66
     1
 10
0.0
 20
0.0
 30
0.0
 40
0.3
 41
0.3
  0
VERTEX
  5
D93
  8
0
 10
24.99999999999984
 20
18.000000000000131
 30
0.0
  0
VERTEX
  5
D94
  8
0
 10
108.9999999999998
 20
18.000000000000131
 30
0.0
  0
SEQEND
  5
D95
  8
0
  0
TEXT
  5
601
  8
TEXT
 10
76.749999999999815
 20
13.12500000000014
 30
0.0
 40
3.75
  1
年 月 日
 72
     1
 11
84.999999999999844
 21
13.12500000000014
 31
0.0
  0
TEXT
  5
602
  8
TEXT
 10
39.749999999999829
 20
13.125000000000041
 30
0.0
 40
3.75
  1
訂　正　箇　所
 72
     1
 11
54.999999999999829
 21
13.125000000000041
 31
0.0
  0
POLYLINE
  5
603
  8
0
 66
     1
 10
0.0
 20
0.0
 30
0.0
 40
0.3
 41
0.3
  0
VERTEX
  5
D96
  8
0
 10
34.999999999999837
 20
12.000000000000149
 30
0.0
  0
VERTEX
  5
D97
  8
0
 10
34.999999999999837
 20
36.000000000000163
 30
0.0
  0
SEQEND
  5
D98
  8
0
  0
TEXT
  5
604
  8
TEXT
 10
28.74999999999984
 20
31.125000000000171
 30
0.0
 40
3.75
  1
3
 72
     1
 11
29.99999999999984
 21
31.125000000000171
 31
0.0
  0
TEXT
  5
605
  8
TEXT
 10
28.74999999999984
 20
25.12500000000016
 30
0.0
 40
3.75
  1
2
 72
     1
 11
29.99999999999984
 21
25.12500000000016
 31
0.0
  0
TEXT
  5
606
  8
TEXT
 10
26.87499999999984
 20
13.12500000000014
 30
0.0
 40
3.75
  1
No
 72
     1
 11
29.99999999999984
 21
13.12500000000014
 31
0.0
  0
TEXT
  5
607
  8
TEXT
 10
29.37499999999984
 20
19.125000000000149
 30
0.0
 40
3.75
  1
1
 72
     1
 11
29.99999999999984
 21
19.125000000000149
 31
0.0
  0
POLYLINE
  5
608
  8
0
 66
     1
 10
0.0
 20
0.0
 30
0.0
 40
0.3
 41
0.3
  0
VERTEX
  5
D99
  8
0
 10
74.999999999999829
 20
12.000000000000149
 30
0.0
  0
VERTEX
  5
D9A
  8
0
 10
74.999999999999829
 20
36.000000000000163
 30
0.0
  0
SEQEND
  5
D9B
  8
0
  0
POLYLINE
  5
609
  8
0
 66
     1
 10
0.0
 20
0.0
 30
0.0
 40
0.3
 41
0.3
  0
VERTEX
  5
D9C
  8
0
 10
94.999999999999844
 20
12.000000000000149
 30
0.0
  0
VERTEX
  5
D9D
  8
0
 10
94.999999999999844
 20
36.000000000000163
 30
0.0
  0
SEQEND
  5
D9E
  8
0
  0
TEXT
  5
60A
  8
TEXT
 10
95.749999999999829
 20
13.12500000000014
 30
0.0
 40
3.75
  1
訂正者
 72
     1
 11
101.9999999999998
 21
13.12500000000014
 31
0.0
  0
POLYLINE
  5
60B
  8
0
 66
     1
 10
0.0
 20
0.0
 30
0.0
 40
0.7
 41
0.7
  0
VERTEX
  5
D9F
  8
0
 10
408.0
 20
28.99999999999995
 30
0.0
  0
VERTEX
  5
DA0
  8
0
 10
133.0
 20
28.99999999999995
 30
0.0
  0
VERTEX
  5
DA1
  8
0
 10
133.0
 20
11.99999999999994
 30
0.0
  0
SEQEND
  5
DA2
  8
0
  0
POLYLINE
  5
60C
  8
0
 66
     1
 10
0.0
 20
0.0
 30
0.0
 40
0.3
 41
0.3
  0
VERTEX
  5
DA3
  8
0
 10
149.0
 20
12.000000000000099
 30
0.0
  0
VERTEX
  5
DA4
  8
0
 10
149.0
 20
28.99999999999995
 30
0.0
  0
SEQEND
  5
DA5
  8
0
  0
POLYLINE
  5
60D
  8
0
 66
     1
 10
0.0
 20
0.0
 30
0.0
 40
0.3
 41
0.3
  0
VERTEX
  5
DA6
  8
0
 10
165.0
 20
12.000000000000099
 30
0.0
  0
VERTEX
  5
DA7
  8
0
 10
165.0
 20
28.99999999999995
 30
0.0
  0
SEQEND
  5
DA8
  8
0
  0
POLYLINE
  5
60E
  8
0
 66
     1
 10
0.0
 20
0.0
 30
0.0
 40
0.3
 41
0.3
  0
VERTEX
  5
DA9
  8
0
 10
181.0
 20
12.000000000000099
 30
0.0
  0
VERTEX
  5
DAA
  8
0
 10
181.0
 20
28.99999999999995
 30
0.0
  0
SEQEND
  5
DAB
  8
0
  0
TEXT
  5
60F
  8
TEXT
 10
136.125
 20
24.69999999999995
 30
0.0
 40
2.9249999999999989
  1
設　計
 72
     1
 11
141.0
 21
24.69999999999995
 31
0.0
  0
TEXT
  5
610
  8
TEXT
 10
152.2225
 20
24.69999999999995
 30
0.0
 40
2.9249999999999989
  1
製　図
 72
     1
 11
157.0
 21
24.69999999999995
 31
0.0
  0
TEXT
  5
611
  8
TEXT
 10
168.2225
 20
24.69999999999995
 30
0.0
 40
2.9249999999999989
  1
検　図
 72
     1
 11
173.0
 21
24.69999999999995
 31
0.0
  0
TEXT
  5
612
  8
TEXT
 10
184.125
 20
24.69999999999995
 30
0.0
 40
2.9249999999999989
  1
承　認
 72
     1
 11
189.0
 21
24.69999999999995
 31
0.0
  0
POLYLINE
  5
613
  8
0
 66
     1
 10
0.0
 20
0.0
 30
0.0
 40
0.3
 41
0.3
  0
VERTEX
  5
DAC
  8
0
 10
197.0
 20
12.000000000000099
 30
0.0
  0
VERTEX
  5
DAD
  8
0
 10
197.0
 20
28.99999999999995
 30
0.0
  0
SEQEND
  5
DAE
  8
0
  0
TEXT
  5
614
  8
TEXT
 10
199.46250000000001
 20
27.683333333333341
 30
0.0
 40
3.25
  1
尺度
  7
TATE
 72
     1
 11
199.46250000000001
 21
24.000000000000011
 31
0.0
  0
TEXT
  5
616
  8
TEXT
 10
198.0
 20
14.03750000000001
 30
0.0
 40
3.25
  1
日付
  0
POLYLINE
  5
617
  8
0
 66
     1
 10
0.0
 20
0.0
 30
0.0
 40
0.3
 41
0.3
  0
VERTEX
  5
DAF
  8
0
 10
197.0
 20
19.000000000000082
 30
0.0
  0
VERTEX
  5
DB0
  8
0
 10
408.0
 20
19.000000000000039
 30
0.0
  0
SEQEND
  5
DB1
  8
0
  0
TEXT
  5
618
  8
TEXT
 10
243.46250000000001
 20
27.574999999999999
 30
0.0
 40
3.25
  1
材質
  7
TATE
 72
     1
 11
243.46250000000001
 21
24.0
 31
0.0
  0
TEXT
  5
619
  8
TEXT
 10
242.0
 20
14.0375
 30
0.0
 40
3.25
  1
仕上
  0
POLYLINE
  5
61A
  8
0
 66
     1
 10
0.0
 20
0.0
 30
0.0
 40
0.3
 41
0.3
  0
VERTEX
  5
DB2
  8
0
 10
241.0
 20
12.000000000000099
 30
0.0
  0
VERTEX
  5
DB3
  8
0
 10
241.0
 20
28.99999999999995
 30
0.0
  0
SEQEND
  5
DB4
  8
0
  0
POLYLINE
  5
61B
  8
0
 66
     1
 10
0.0
 20
0.0
 30
0.0
 40
0.3
 41
0.3
  0
VERTEX
  5
DB5
  8
0
 10
291.0
 20
12.000000000000099
 30
0.0
  0
VERTEX
  5
DB6
  8
0
 10
291.0
 20
28.99999999999995
 30
0.0
  0
SEQEND
  5
DB7
  8
0
  0
TEXT
  5
61C
  8
TEXT
 10
293.46249999999998
 20
27.683333333333319
 30
0.0
 40
3.25
  1
図番
  7
TATE
 72
     1
 11
293.46249999999998
 21
23.999999999999989
 31
0.0
  0
TEXT
  5
61D
  8
TEXT
 10
292.0
 20
14.0375
 30
0.0
 40
3.25
  1
品名
  0
POLYLINE
  5
61E
  8
0
 66
     1
 10
0.0
 20
0.0
 30
0.0
 40
0.3
 41
0.3
  0
VERTEX
  5
DB8
  8
0
 10
408.0
 20
33.99999999999995
 30
0.0
  0
VERTEX
  5
DB9
  8
0
 10
278.0
 20
33.99999999999995
 30
0.0
  0
VERTEX
  5
DBA
  8
0
 10
278.0
 20
28.99999999999995
 30
0.0
  0
SEQEND
  5
DBB
  8
0
  0
TEXT
  5
61F
  8
TEXT
 10
283.77249999999998
 20
30.19999999999995
 30
0.0
 40
2.9249999999999989
  1
図　　番
 72
     1
 11
290.5
 21
30.19999999999995
 31
0.0
  0
POLYLINE
  5
620
  8
0
 66
     1
 10
0.0
 20
0.0
 30
0.0
 40
0.3
 41
0.3
  0
VERTEX
  5
DBC
  8
0
 10
334.0
 20
19.00000000000006
 30
0.0
  0
VERTEX
  5
DBD
  8
0
 10
334.0
 20
28.99999999999995
 30
0.0
  0
SEQEND
  5
DBE
  8
0
  0
TEXT
  5
621
  8
TEXT
 10
336.46249999999998
 20
27.683333333333309
 30
0.0
 40
3.25
  1
品番
  7
TATE
 72
     1
 11
336.46249999999998
 21
23.999999999999979
 31
0.0
  0
POLYLINE
  5
622
  8
0
 66
     1
 10
0.0
 20
0.0
 30
0.0
 40
0.3
 41
0.3
  0
VERTEX
  5
DBF
  8
0
 10
303.0
 20
33.99999999999995
 30
0.0
  0
VERTEX
  5
DC0
  8
0
 10
303.0
 20
28.99999999999995
 30
0.0
  0
SEQEND
  5
DC1
  8
0
  0
POLYLINE
  5
623
  8
0
 66
     1
 10
0.0
 20
0.0
 30
0.0
 40
0.3
 41
0.3
  0
VERTEX
  5
DC2
  8
0
 10
313.0
 20
33.99999999999995
 30
0.0
  0
VERTEX
  5
DC3
  8
0
 10
313.0
 20
28.99999999999995
 30
0.0
  0
SEQEND
  5
DC4
  8
0
  0
POLYLINE
  5
624
  8
0
 66
     1
 10
0.0
 20
0.0
 30
0.0
 40
0.3
 41
0.3
  0
VERTEX
  5
DC5
  8
0
 10
353.0
 20
33.99999999999995
 30
0.0
  0
VERTEX
  5
DC6
  8
0
 10
353.0
 20
28.99999999999995
 30
0.0
  0
SEQEND
  5
DC7
  8
0
  0
POLYLINE
  5
625
  8
0
 66
     1
 10
0.0
 20
0.0
 30
0.0
 40
0.3
 41
0.3
  0
VERTEX
  5
DC8
  8
0
 10
363.0
 20
33.99999999999995
 30
0.0
  0
VERTEX
  5
DC9
  8
0
 10
363.0
 20
28.99999999999995
 30
0.0
  0
SEQEND
  5
DCA
  8
0
  0
POLYLINE
  5
626
  8
0
 66
     1
 10
0.0
 20
0.0
 30
0.0
 40
0.3
 41
0.3
  0
VERTEX
  5
DCB
  8
0
 10
383.0
 20
33.99999999999995
 30
0.0
  0
VERTEX
  5
DCC
  8
0
 10
383.0
 20
28.99999999999995
 30
0.0
  0
SEQEND
  5
DCD
  8
0
  0
TEXT
  5
627
  8
TEXT
 10
304.88
 20
30.19999999999995
 30
0.0
 40
2.9249999999999989
  1
番号
 72
     1
 11
308.0
 21
30.19999999999995
 31
0.0
  0
TEXT
  5
628
  8
TEXT
 10
326.46749999999997
 20
30.19999999999995
 30
0.0
 40
2.9249999999999989
  1
品　　名
 72
     1
 11
333.0
 21
30.19999999999995
 31
0.0
  0
TEXT
  5
629
  8
TEXT
 10
354.88
 20
30.19999999999995
 30
0.0
 40
2.9249999999999989
  1
個数
 72
     1
 11
358.0
 21
30.19999999999995
 31
0.0
  0
TEXT
  5
62A
  8
TEXT
 10
366.37
 20
30.19999999999995
 30
0.0
 40
2.9249999999999989
  1
材　　質
 72
     1
 11
373.0
 21
30.19999999999995
 31
0.0
  0
TEXT
  5
62B
  8
TEXT
 10
388.87
 20
30.19999999999995
 30
0.0
 40
2.9249999999999989
  1
備　　考
 72
     1
 11
395.5
 21
30.19999999999995
 31
0.0
  0
ENDBLK
  5
62D
  8
0
  0
BLOCK
  8
0
  2
*D4
 70
     1
 10
0.0
 20
0.0
 30
0.0
  3
*D4
  1

  0
LINE
  5
253
  8
SUNPOU
 62
     0
 10
265.85657193144237
 20
148.5
 30
0.0
 11
275.80306266385787
 21
148.5
 31
0.0
  0
LINE
  5
254
  8
SUNPOU
 62
     0
 10
265.85657193144237
 20
167.0
 30
0.0
 11
275.80306266385787
 21
167.0
 31
0.0
  0
LINE
  5
255
  8
SUNPOU
 62
     0
 10
274.80306266385787
 20
149.5
 30
0.0
 11
274.80306266385787
 21
152.75
 31
0.0
  0
LINE
  5
256
  8
SUNPOU
 62
     0
 10
274.80306266385787
 20
166.0
 30
0.0
 11
274.80306266385787
 21
162.75
 31
0.0
  0
INSERT
  5
257
  8
SUNPOU
 62
     0
  2
_DOT
 10
274.80306266385787
 20
148.5
 30
0.0
 50
270.0
  0
INSERT
  5
258
  8
SUNPOU
 62
     0
  2
_DOT
 10
274.80306266385787
 20
167.0
 30
0.0
 50
90.0
  0
INSERT
  5
259
  8
DEFPOINTS
  2
*U74
 10
0.0
 20
0.0
 30
0.0
  0
POINT
  5
25A
  8
DEFPOINTS
 62
     0
 10
264.85657193144237
 20
148.5
 30
0.0
  0
POINT
  5
25B
  8
DEFPOINTS
 62
     0
 10
264.85657193144237
 20
167.0
 30
0.0
  0
POINT
  5
25C
  8
DEFPOINTS
 62
     0
 10
274.80306266385787
 20
167.0
 30
0.0
  0
ENDBLK
  5
25E
  8
0
  0
BLOCK
  8
0
  2
*D5
 70
     1
 10
0.0
 20
0.0
 30
0.0
  3
*D5
  1

  0
LINE
  5
22C
  8
SUNPOU
 62
     0
 10
265.85657193144237
 20
255.00000000000011
 30
0.0
 11
275.80306266385787
 21
255.00000000000011
 31
0.0
  0
LINE
  5
22D
  8
SUNPOU
 62
     0
 10
274.80306266385787
 20
231.0
 30
0.0
 11
274.80306266385787
 21
239.00000000000011
 31
0.0
  0
LINE
  5
22E
  8
SUNPOU
 62
     0
 10
274.80306266385787
 20
254.0
 30
0.0
 11
274.80306266385787
 21
246.0
 31
0.0
  0
INSERT
  5
22F
  8
SUNPOU
 62
     0
  2
_DOT
 10
274.80306266385787
 20
230.00000000000011
 30
0.0
 50
270.0
  0
INSERT
  5
230
  8
SUNPOU
 62
     0
  2
_DOT
 10
274.80306266385787
 20
255.00000000000011
 30
0.0
 50
90.0
  0
INSERT
  5
231
  8
DEFPOINTS
  2
*U68
 10
0.0
 20
0.0
 30
0.0
  0
POINT
  5
232
  8
DEFPOINTS
 62
     0
 10
264.85657193144237
 20
230.00000000000011
 30
0.0
  0
POINT
  5
233
  8
DEFPOINTS
 62
     0
 10
264.85657193144237
 20
255.00000000000011
 30
0.0
  0
POINT
  5
234
  8
DEFPOINTS
 62
     0
 10
274.80306266385787
 20
255.00000000000011
 30
0.0
  0
ENDBLK
  5
236
  8
0
  0
BLOCK
  8
0
  2
*D6
 70
     1
 10
0.0
 20
0.0
 30
0.0
  3
*D6
  1

  0
LINE
  5
239
  8
SUNPOU
 62
     0
 10
265.85657193144237
 20
230.00000000000011
 30
0.0
 11
275.80306266385787
 21
230.00000000000011
 31
0.0
  0
LINE
  5
23A
  8
SUNPOU
 62
     0
 10
274.80306266385787
 20
193.0
 30
0.0
 11
274.80306266385787
 21
207.50000000000011
 31
0.0
  0
LINE
  5
23B
  8
SUNPOU
 62
     0
 10
274.80306266385787
 20
229.0
 30
0.0
 11
274.80306266385787
 21
214.5
 31
0.0
  0
INSERT
  5
23C
  8
SUNPOU
 62
     0
  2
_DOT
 10
274.80306266385787
 20
192.0
 30
0.0
 50
270.0
  0
INSERT
  5
23D
  8
SUNPOU
 62
     0
  2
_DOT
 10
274.80306266385787
 20
230.00000000000011
 30
0.0
 50
90.0
  0
INSERT
  5
23E
  8
DEFPOINTS
  2
*U70
 10
0.0
 20
0.0
 30
0.0
  0
POINT
  5
23F
  8
DEFPOINTS
 62
     0
 10
264.85657193144237
 20
192.0
 30
0.0
  0
POINT
  5
240
  8
DEFPOINTS
 62
     0
 10
264.85657193144237
 20
230.00000000000011
 30
0.0
  0
POINT
  5
241
  8
DEFPOINTS
 62
     0
 10
274.80306266385787
 20
230.00000000000011
 30
0.0
  0
ENDBLK
  5
243
  8
0
  0
BLOCK
  8
0
  2
*D7
 70
     1
 10
0.0
 20
0.0
 30
0.0
  3
*D7
  1

  0
LINE
  5
246
  8
SUNPOU
 62
     0
 10
265.85657193144237
 20
192.0
 30
0.0
 11
275.80306266385787
 21
192.0
 31
0.0
  0
LINE
  5
247
  8
SUNPOU
 62
     0
 10
274.80306266385787
 20
168.0
 30
0.0
 11
274.80306266385787
 21
176.0
 31
0.0
  0
LINE
  5
248
  8
SUNPOU
 62
     0
 10
274.80306266385787
 20
191.0
 30
0.0
 11
274.80306266385787
 21
183.0
 31
0.0
  0
INSERT
  5
249
  8
SUNPOU
 62
     0
  2
_DOT
 10
274.80306266385787
 20
167.0
 30
0.0
 50
270.0
  0
INSERT
  5
24A
  8
SUNPOU
 62
     0
  2
_DOT
 10
274.80306266385787
 20
192.0
 30
0.0
 50
90.0
  0
INSERT
  5
24B
  8
DEFPOINTS
  2
*U72
 10
0.0
 20
0.0
 30
0.0
  0
POINT
  5
24C
  8
DEFPOINTS
 62
     0
 10
264.85657193144237
 20
167.0
 30
0.0
  0
POINT
  5
24D
  8
DEFPOINTS
 62
     0
 10
264.85657193144237
 20
192.0
 30
0.0
  0
POINT
  5
24E
  8
DEFPOINTS
 62
     0
 10
274.80306266385787
 20
192.0
 30
0.0
  0
ENDBLK
  5
250
  8
0
  0
BLOCK
  8
0
  2
*D8
 70
     1
 10
0.0
 20
0.0
 30
0.0
  3
*D8
  1

  0
LINE
  5
21F
  8
SUNPOU
 62
     0
 10
265.85657193144237
 20
273.50000000000011
 30
0.0
 11
275.80306266385787
 21
273.50000000000011
 31
0.0
  0
LINE
  5
220
  8
SUNPOU
 62
     0
 10
274.80306266385787
 20
256.0
 30
0.0
 11
274.80306266385787
 21
259.25000000000011
 31
0.0
  0
LINE
  5
221
  8
SUNPOU
 62
     0
 10
274.80306266385787
 20
272.5
 30
0.0
 11
274.80306266385787
 21
269.25000000000011
 31
0.0
  0
INSERT
  5
222
  8
SUNPOU
 62
     0
  2
_DOT
 10
274.80306266385787
 20
255.00000000000011
 30
0.0
 50
270.0
  0
INSERT
  5
223
  8
SUNPOU
 62
     0
  2
_DOT
 10
274.80306266385787
 20
273.50000000000011
 30
0.0
 50
90.0
  0
INSERT
  5
224
  8
DEFPOINTS
  2
*U66
 10
0.0
 20
0.0
 30
0.0
  0
POINT
  5
225
  8
DEFPOINTS
 62
     0
 10
264.85657193144237
 20
255.00000000000011
 30
0.0
  0
POINT
  5
226
  8
DEFPOINTS
 62
     0
 10
264.85657193144237
 20
273.50000000000011
 30
0.0
  0
POINT
  5
227
  8
DEFPOINTS
 62
     0
 10
274.80306266385787
 20
273.50000000000011
 30
0.0
  0
ENDBLK
  5
229
  8
0
  0
BLOCK
  8
0
  2
*D9
 70
     1
 10
0.0
 20
0.0
 30
0.0
  3
*D9
  1

  0
LINE
  5
2E6
  8
SUNPOU
 62
     0
 10
146.11847689902939
 20
148.5
 30
0.0
 11
164.6010733011922
 21
148.5
 31
0.0
  0
LINE
  5
2E7
  8
SUNPOU
 62
     0
 10
146.11847689902939
 20
273.5
 30
0.0
 11
164.60107330119229
 21
273.5
 31
0.0
  0
LINE
  5
2E8
  8
SUNPOU
 62
     0
 10
163.6010733011922
 20
149.5
 30
0.0
 11
163.60107330119229
 21
206.5
 31
0.0
  0
LINE
  5
2E9
  8
SUNPOU
 62
     0
 10
163.60107330119229
 20
272.5
 30
0.0
 11
163.60107330119229
 21
215.5
 31
0.0
  0
INSERT
  5
2EA
  8
SUNPOU
 62
     0
  2
_DOT
 10
163.6010733011922
 20
148.5
 30
0.0
 50
270.0
  0
INSERT
  5
2EB
  8
SUNPOU
 62
     0
  2
_DOT
 10
163.60107330119229
 20
273.5
 30
0.0
 50
90.0
  0
INSERT
  5
2EC
  8
DEFPOINTS
  2
*U96
 10
0.0
 20
0.0
 30
0.0
  0
POINT
  5
2ED
  8
DEFPOINTS
 62
     0
 10
145.1184768990295
 20
148.5
 30
0.0
  0
POINT
  5
2EE
  8
DEFPOINTS
 62
     0
 10
145.1184768990295
 20
273.5
 30
0.0
  0
POINT
  5
2EF
  8
DEFPOINTS
 62
     0
 10
163.60107330119229
 20
273.5
 30
0.0
  0
ENDBLK
  5
2F1
  8
0
  0
BLOCK
  8
0
  2
*D10
 70
     1
 10
0.0
 20
0.0
 30
0.0
  3
*D10
  1

  0
LINE
  5
30F
  8
SUNPOU
 62
     0
 10
146.11847689902939
 20
148.5
 30
0.0
 11
156.02835553854879
 21
148.5
 31
0.0
  0
LINE
  5
310
  8
SUNPOU
 62
     0
 10
146.11847689902939
 20
156.0
 30
0.0
 11
156.02835553854879
 21
156.0
 31
0.0
  0
LINE
  5
311
  8
SUNPOU
 62
     0
 10
155.02835553854879
 20
147.5
 30
0.0
 11
155.02835553854879
 21
146.5
 31
0.0
  0
LINE
  5
312
  8
SUNPOU
 62
     0
 10
155.02835553854879
 20
157.0
 30
0.0
 11
155.02835553854879
 21
158.0
 31
0.0
  0
LINE
  5
313
  8
SUNPOU
 62
     0
 10
155.02835553854879
 20
148.5
 30
0.0
 11
155.02835553854879
 21
156.0
 31
0.0
  0
INSERT
  5
314
  8
SUNPOU
 62
     0
  2
_DOT
 10
155.02835553854879
 20
148.5
 30
0.0
 50
90.0
  0
INSERT
  5
315
  8
SUNPOU
 62
     0
  2
_DOT
 10
155.02835553854879
 20
156.0
 30
0.0
 50
270.0
  0
INSERT
  5
316
  8
DEFPOINTS
  2
*U102
 10
0.0
 20
0.0
 30
0.0
  0
POINT
  5
317
  8
DEFPOINTS
 62
     0
 10
145.1184768990295
 20
148.5
 30
0.0
  0
POINT
  5
318
  8
DEFPOINTS
 62
     0
 10
145.1184768990295
 20
156.0
 30
0.0
  0
POINT
  5
319
  8
DEFPOINTS
 62
     0
 10
155.02835553854879
 20
156.0
 30
0.0
  0
ENDBLK
  5
31B
  8
0
  0
BLOCK
  8
0
  2
*D11
 70
     1
 10
0.0
 20
0.0
 30
0.0
  3
*D11
  1

  0
LINE
  5
296
  8
SUNPOU
 62
     0
 10
89.118476899029474
 20
167.0
 30
0.0
 11
69.12047016654536
 21
167.0
 31
0.0
  0
LINE
  5
297
  8
SUNPOU
 62
     0
 10
89.118476899029474
 20
255.0
 30
0.0
 11
69.120470166545374
 21
255.0
 31
0.0
  0
LINE
  5
298
  8
SUNPOU
 62
     0
 10
70.12047016654536
 20
168.0
 30
0.0
 11
70.12047016654536
 21
207.5
 31
0.0
  0
LINE
  5
299
  8
SUNPOU
 62
     0
 10
70.120470166545374
 20
254.0
 30
0.0
 11
70.12047016654536
 21
214.5
 31
0.0
  0
INSERT
  5
29A
  8
SUNPOU
 62
     0
  2
_DOT
 10
70.12047016654536
 20
167.0
 30
0.0
 50
270.0
  0
INSERT
  5
29B
  8
SUNPOU
 62
     0
  2
_DOT
 10
70.120470166545374
 20
255.0
 30
0.0
 50
90.0
  0
INSERT
  5
29C
  8
DEFPOINTS
  2
*U84
 10
0.0
 20
0.0
 30
0.0
  0
POINT
  5
29D
  8
DEFPOINTS
 62
     0
 10
90.118476899029474
 20
167.0
 30
0.0
  0
POINT
  5
29E
  8
DEFPOINTS
 62
     0
 10
90.118476899029474
 20
255.0
 30
0.0
  0
POINT
  5
29F
  8
DEFPOINTS
 62
     0
 10
70.120470166545374
 20
255.0
 30
0.0
  0
ENDBLK
  5
2A1
  8
0
  0
BLOCK
  8
0
  2
*D12
 70
     1
 10
0.0
 20
0.0
 30
0.0
  3
*D12
  1

  0
LINE
  5
2B1
  8
SUNPOU
 62
     0
 10
89.118476899029474
 20
246.0
 30
0.0
 11
79.121202343534321
 21
246.0
 31
0.0
  0
LINE
  5
2B2
  8
SUNPOU
 62
     0
 10
80.121202343534321
 20
227.0
 30
0.0
 11
80.121202343534321
 21
232.75
 31
0.0
  0
LINE
  5
2B3
  8
SUNPOU
 62
     0
 10
80.121202343534321
 20
245.0
 30
0.0
 11
80.121202343534321
 21
239.25
 31
0.0
  0
INSERT
  5
2B4
  8
SUNPOU
 62
     0
  2
_DOT
 10
80.121202343534321
 20
226.0
 30
0.0
 50
270.0
  0
INSERT
  5
2B5
  8
SUNPOU
 62
     0
  2
_DOT
 10
80.121202343534321
 20
246.0
 30
0.0
 50
90.0
  0
INSERT
  5
2B6
  8
DEFPOINTS
  2
*U88
 10
0.0
 20
0.0
 30
0.0
  0
POINT
  5
2B7
  8
DEFPOINTS
 62
     0
 10
90.118476899029474
 20
226.0
 30
0.0
  0
POINT
  5
2B8
  8
DEFPOINTS
 62
     0
 10
90.118476899029474
 20
246.0
 30
0.0
  0
POINT
  5
2B9
  8
DEFPOINTS
 62
     0
 10
80.121202343534321
 20
246.0
 30
0.0
  0
ENDBLK
  5
2BB
  8
0
  0
BLOCK
  8
0
  2
*D13
 70
     1
 10
0.0
 20
0.0
 30
0.0
  3
*D13
  1

  0
LINE
  5
302
  8
SUNPOU
 62
     0
 10
146.11847689902939
 20
266.0
 30
0.0
 11
156.02835553854879
 21
266.0
 31
0.0
  0
LINE
  5
303
  8
SUNPOU
 62
     0
 10
155.02835553854879
 20
157.0
 30
0.0
 11
155.02835553854879
 21
207.25
 31
0.0
  0
LINE
  5
304
  8
SUNPOU
 62
     0
 10
155.02835553854879
 20
265.0
 30
0.0
 11
155.02835553854879
 21
214.75
 31
0.0
  0
INSERT
  5
305
  8
SUNPOU
 62
     0
  2
_DOT
 10
155.02835553854879
 20
156.0
 30
0.0
 50
270.0
  0
INSERT
  5
306
  8
SUNPOU
 62
     0
  2
_DOT
 10
155.02835553854879
 20
266.0
 30
0.0
 50
90.0
  0
INSERT
  5
307
  8
DEFPOINTS
  2
*U100
 10
0.0
 20
0.0
 30
0.0
  0
POINT
  5
308
  8
DEFPOINTS
 62
     0
 10
145.1184768990295
 20
156.0
 30
0.0
  0
POINT
  5
309
  8
DEFPOINTS
 62
     0
 10
145.1184768990295
 20
266.0
 30
0.0
  0
POINT
  5
30A
  8
DEFPOINTS
 62
     0
 10
155.02835553854879
 20
266.0
 30
0.0
  0
ENDBLK
  5
30C
  8
0
  0
BLOCK
  8
0
  2
*D14
 70
     1
 10
0.0
 20
0.0
 30
0.0
  3
*D14
  1

  0
LINE
  5
2CB
  8
SUNPOU
 62
     0
 10
89.118476899029474
 20
196.0
 30
0.0
 11
79.121202343534264
 21
196.0
 31
0.0
  0
LINE
  5
2CC
  8
SUNPOU
 62
     0
 10
80.121202343534264
 20
177.0
 30
0.0
 11
80.121202343534264
 21
182.75
 31
0.0
  0
LINE
  5
2CD
  8
SUNPOU
 62
     0
 10
80.121202343534264
 20
195.0
 30
0.0
 11
80.121202343534264
 21
189.25
 31
0.0
  0
INSERT
  5
2CE
  8
SUNPOU
 62
     0
  2
_DOT
 10
80.121202343534264
 20
176.0
 30
0.0
 50
270.0
  0
INSERT
  5
2CF
  8
SUNPOU
 62
     0
  2
_DOT
 10
80.121202343534264
 20
196.0
 30
0.0
 50
90.0
  0
INSERT
  5
2D0
  8
DEFPOINTS
  2
*U92
 10
0.0
 20
0.0
 30
0.0
  0
POINT
  5
2D1
  8
DEFPOINTS
 62
     0
 10
90.118476899029474
 20
176.0
 30
0.0
  0
POINT
  5
2D2
  8
DEFPOINTS
 62
     0
 10
90.118476899029474
 20
196.0
 30
0.0
  0
POINT
  5
2D3
  8
DEFPOINTS
 62
     0
 10
80.121202343534264
 20
196.0
 30
0.0
  0
ENDBLK
  5
2D5
  8
0
  0
BLOCK
  8
0
  2
*D15
 70
     1
 10
0.0
 20
0.0
 30
0.0
  3
*D15
  1

  0
LINE
  5
86
  8
SUNPOU
 62
     0
 10
86.879487772547961
 20
158.67181494880401
 30
0.0
 11
87.879487772547975
 21
158.67181494880401
 31
0.0
  0
LINE
  5
87
  8
SUNPOU
 62
     0
 10
87.879487772547975
 20
158.67181494880401
 30
0.0
 11
95.155007361305152
 21
173.09814595264459
 31
0.0
  0
LINE
  5
88
  8
SUNPOU
 62
     0
 10
98.081946436753796
 20
178.9018540473555
 30
0.0
 11
98.532244756053586
 21
179.79473221577251
 31
0.0
  0
INSERT
  5
89
  8
DEFPOINTS
  2
*U44
 10
0.0
 20
0.0
 30
0.0
  0
LINE
  5
8A
  8
SUNPOU
 62
     0
 10
97.631648117454006
 20
178.0089758789384
 30
0.0
 11
95.605305680604943
 21
173.9910241210616
 31
0.0
  0
INSERT
  5
8B
  8
SUNPOU
 62
     0
  2
_DOT
 10
97.631648117454006
 20
178.0089758789384
 30
0.0
 50
243.23717458331279
  0
INSERT
  5
8C
  8
SUNPOU
 62
     0
  2
_DOT
 10
95.605305680604943
 20
173.9910241210616
 30
0.0
 50
63.237174583312822
  0
POINT
  5
8D
  8
DEFPOINTS
 62
     0
 10
95.605305680604943
 20
173.9910241210616
 30
0.0
  0
POINT
  5
8E
  8
DEFPOINTS
 62
     0
 10
97.631648117454006
 20
178.0089758789384
 30
0.0
  0
ENDBLK
  5
90
  8
0
  0
BLOCK
  8
0
  2
*D16
 70
     1
 10
0.0
 20
0.0
 30
0.0
  3
*D16
  1

  0
LINE
  5
2D8
  8
SUNPOU
 62
     0
 10
89.118476899029474
 20
167.0
 30
0.0
 11
79.121202343534264
 21
167.0
 31
0.0
  0
LINE
  5
2D9
  8
SUNPOU
 62
     0
 10
89.118476899029474
 20
176.0
 30
0.0
 11
79.121202343534264
 21
176.0
 31
0.0
  0
LINE
  5
2DA
  8
SUNPOU
 62
     0
 10
80.121202343534264
 20
168.0
 30
0.0
 11
80.121202343534264
 21
169.5
 31
0.0
  0
LINE
  5
2DB
  8
SUNPOU
 62
     0
 10
80.121202343534264
 20
175.0
 30
0.0
 11
80.121202343534264
 21
173.5
 31
0.0
  0
INSERT
  5
2DC
  8
SUNPOU
 62
     0
  2
_DOT
 10
80.121202343534264
 20
167.0
 30
0.0
 50
270.0
  0
INSERT
  5
2DD
  8
SUNPOU
 62
     0
  2
_DOT
 10
80.121202343534264
 20
176.0
 30
0.0
 50
90.0
  0
INSERT
  5
2DE
  8
DEFPOINTS
  2
*U94
 10
0.0
 20
0.0
 30
0.0
  0
POINT
  5
2DF
  8
DEFPOINTS
 62
     0
 10
90.118476899029474
 20
167.0
 30
0.0
  0
POINT
  5
2E0
  8
DEFPOINTS
 62
     0
 10
90.118476899029474
 20
176.0
 30
0.0
  0
POINT
  5
2E1
  8
DEFPOINTS
 62
     0
 10
80.121202343534264
 20
176.0
 30
0.0
  0
ENDBLK
  5
2E3
  8
0
  0
BLOCK
  8
0
  2
*D17
 70
     1
 10
0.0
 20
0.0
 30
0.0
  3
*D17
  1

  0
LINE
  5
2BE
  8
SUNPOU
 62
     0
 10
89.118476899029474
 20
226.0
 30
0.0
 11
79.121202343534264
 21
226.0
 31
0.0
  0
LINE
  5
2BF
  8
SUNPOU
 62
     0
 10
80.12120234353425
 20
197.0
 30
0.0
 11
80.12120234353425
 21
207.75
 31
0.0
  0
LINE
  5
2C0
  8
SUNPOU
 62
     0
 10
80.121202343534264
 20
225.0
 30
0.0
 11
80.12120234353425
 21
214.25
 31
0.0
  0
INSERT
  5
2C1
  8
SUNPOU
 62
     0
  2
_DOT
 10
80.12120234353425
 20
196.0
 30
0.0
 50
270.0
  0
INSERT
  5
2C2
  8
SUNPOU
 62
     0
  2
_DOT
 10
80.121202343534264
 20
226.0
 30
0.0
 50
90.0
  0
INSERT
  5
2C3
  8
DEFPOINTS
  2
*U90
 10
0.0
 20
0.0
 30
0.0
  0
POINT
  5
2C4
  8
DEFPOINTS
 62
     0
 10
90.118476899029474
 20
196.0
 30
0.0
  0
POINT
  5
2C5
  8
DEFPOINTS
 62
     0
 10
90.118476899029474
 20
226.0
 30
0.0
  0
POINT
  5
2C6
  8
DEFPOINTS
 62
     0
 10
80.121202343534264
 20
226.0
 30
0.0
  0
ENDBLK
  5
2C8
  8
0
  0
BLOCK
  8
0
  2
*D18
 70
     1
 10
0.0
 20
0.0
 30
0.0
  3
*D18
  1

  0
LINE
  5
2A4
  8
SUNPOU
 62
     0
 10
89.118476899029474
 20
255.0
 30
0.0
 11
79.121202343534321
 21
255.0
 31
0.0
  0
LINE
  5
2A5
  8
SUNPOU
 62
     0
 10
80.121202343534321
 20
247.0
 30
0.0
 11
80.121202343534321
 21
248.5
 31
0.0
  0
LINE
  5
2A6
  8
SUNPOU
 62
     0
 10
80.121202343534321
 20
254.0
 30
0.0
 11
80.121202343534321
 21
252.5
 31
0.0
  0
INSERT
  5
2A7
  8
SUNPOU
 62
     0
  2
_DOT
 10
80.121202343534321
 20
246.0
 30
0.0
 50
270.0
  0
INSERT
  5
2A8
  8
SUNPOU
 62
     0
  2
_DOT
 10
80.121202343534321
 20
255.0
 30
0.0
 50
90.0
  0
INSERT
  5
2A9
  8
DEFPOINTS
  2
*U86
 10
0.0
 20
0.0
 30
0.0
  0
POINT
  5
2AA
  8
DEFPOINTS
 62
     0
 10
90.118476899029474
 20
246.0
 30
0.0
  0
POINT
  5
2AB
  8
DEFPOINTS
 62
     0
 10
90.118476899029474
 20
255.0
 30
0.0
  0
POINT
  5
2AC
  8
DEFPOINTS
 62
     0
 10
80.121202343534321
 20
255.0
 30
0.0
  0
ENDBLK
  5
2AE
  8
0
  0
BLOCK
  8
0
  2
*D19
 70
     1
 10
0.0
 20
0.0
 30
0.0
  3
*D19
  1

  0
LINE
  5
60
  8
SUNPOU
 62
     0
 10
90.118476899029474
 20
256.0
 30
0.0
 11
90.118476899029474
 21
266.0
 31
0.0
  0
LINE
  5
61
  8
SUNPOU
 62
     0
 10
96.618476899029474
 20
256.0
 30
0.0
 11
96.618476899029474
 21
266.0
 31
0.0
  0
LINE
  5
62
  8
SUNPOU
 62
     0
 10
89.118476899029474
 20
265.0
 30
0.0
 11
88.118476899029474
 21
265.0
 31
0.0
  0
LINE
  5
63
  8
SUNPOU
 62
     0
 10
97.618476899029474
 20
265.0
 30
0.0
 11
98.618476899029474
 21
265.0
 31
0.0
  0
LINE
  5
64
  8
SUNPOU
 62
     0
 10
90.118476899029474
 20
265.0
 30
0.0
 11
96.618476899029474
 21
265.0
 31
0.0
  0
INSERT
  5
65
  8
SUNPOU
 62
     0
  2
_DOT
 10
90.118476899029474
 20
265.0
 30
0.0
  0
INSERT
  5
66
  8
SUNPOU
 62
     0
  2
_DOT
 10
96.618476899029474
 20
265.0
 30
0.0
 50
180.0
  0
INSERT
  5
67
  8
DEFPOINTS
  2
*U42
 10
0.0
 20
0.0
 30
0.0
  0
POINT
  5
68
  8
DEFPOINTS
 62
     0
 10
90.118476899029474
 20
255.0
 30
0.0
  0
POINT
  5
69
  8
DEFPOINTS
 62
     0
 10
96.618476899029474
 20
255.0
 30
0.0
  0
POINT
  5
6A
  8
DEFPOINTS
 62
     0
 10
96.618476899029474
 20
265.0
 30
0.0
  0
ENDBLK
  5
6C
  8
0
  0
BLOCK
  8
0
  2
*D20
 70
     1
 10
0.0
 20
0.0
 30
0.0
  3
*D20
  1

  0
LINE
  5
2F4
  8
SUNPOU
 62
     0
 10
146.11847689902939
 20
273.5
 30
0.0
 11
156.02835553854879
 21
273.5
 31
0.0
  0
LINE
  5
2F5
  8
SUNPOU
 62
     0
 10
155.02835553854879
 20
265.0
 30
0.0
 11
155.02835553854879
 21
264.0
 31
0.0
  0
LINE
  5
2F6
  8
SUNPOU
 62
     0
 10
155.02835553854879
 20
274.5
 30
0.0
 11
155.02835553854879
 21
275.5
 31
0.0
  0
LINE
  5
2F7
  8
SUNPOU
 62
     0
 10
155.02835553854879
 20
266.0
 30
0.0
 11
155.02835553854879
 21
273.5
 31
0.0
  0
INSERT
  5
2F8
  8
SUNPOU
 62
     0
  2
_DOT
 10
155.02835553854879
 20
266.0
 30
0.0
 50
90.0
  0
INSERT
  5
2F9
  8
SUNPOU
 62
     0
  2
_DOT
 10
155.02835553854879
 20
273.5
 30
0.0
 50
270.0
  0
INSERT
  5
2FA
  8
DEFPOINTS
  2
*U98
 10
0.0
 20
0.0
 30
0.0
  0
POINT
  5
2FB
  8
DEFPOINTS
 62
     0
 10
145.1184768990295
 20
266.0
 30
0.0
  0
POINT
  5
2FC
  8
DEFPOINTS
 62
     0
 10
145.1184768990295
 20
273.5
 30
0.0
  0
POINT
  5
2FD
  8
DEFPOINTS
 62
     0
 10
155.02835553854879
 20
273.5
 30
0.0
  0
ENDBLK
  5
2FF
  8
0
  0
BLOCK
  8
0
  2
*D21
 70
     1
 10
0.0
 20
0.0
 30
0.0
  3
*D21
  1

  0
LINE
  5
261
  8
SUNPOU
 62
     0
 10
120.1184768990295
 20
147.5
 30
0.0
 11
120.1184768990295
 21
127.558086320241
 31
0.0
  0
LINE
  5
262
  8
SUNPOU
 62
     0
 10
145.1184768990295
 20
147.5
 30
0.0
 11
145.1184768990295
 21
127.558086320241
 31
0.0
  0
LINE
  5
263
  8
SUNPOU
 62
     0
 10
121.1184768990295
 20
128.55808632024099
 30
0.0
 11
129.11847689902939
 21
128.55808632024099
 31
0.0
  0
LINE
  5
264
  8
SUNPOU
 62
     0
 10
144.1184768990295
 20
128.55808632024099
 30
0.0
 11
136.11847689902939
 21
128.55808632024099
 31
0.0
  0
INSERT
  5
265
  8
SUNPOU
 62
     0
  2
_DOT
 10
120.1184768990295
 20
128.55808632024099
 30
0.0
 50
180.0
  0
INSERT
  5
266
  8
SUNPOU
 62
     0
  2
_DOT
 10
145.1184768990295
 20
128.55808632024099
 30
0.0
  0
INSERT
  5
267
  8
DEFPOINTS
  2
*U76
 10
0.0
 20
0.0
 30
0.0
  0
POINT
  5
268
  8
DEFPOINTS
 62
     0
 10
120.1184768990295
 20
148.5
 30
0.0
  0
POINT
  5
269
  8
DEFPOINTS
 62
     0
 10
145.1184768990295
 20
148.5
 30
0.0
  0
POINT
  5
26A
  8
DEFPOINTS
 62
     0
 10
145.1184768990295
 20
128.55808632024099
 30
0.0
  0
ENDBLK
  5
26C
  8
0
  0
BLOCK
  8
0
  2
*D22
 70
     1
 10
0.0
 20
0.0
 30
0.0
  3
*D22
  1

  0
LINE
  5
289
  8
SUNPOU
 62
     0
 10
120.1184768990295
 20
147.5
 30
0.0
 11
120.1184768990295
 21
138.04476198520661
 31
0.0
  0
LINE
  5
28A
  8
SUNPOU
 62
     0
 10
126.6184768990294
 20
147.5
 30
0.0
 11
126.6184768990294
 21
138.04476198520661
 31
0.0
  0
LINE
  5
28B
  8
SUNPOU
 62
     0
 10
125.6184768990294
 20
139.04476198520661
 30
0.0
 11
121.1184768990295
 21
139.04476198520661
 31
0.0
  0
INSERT
  5
28C
  8
DEFPOINTS
  2
*U82
 10
0.0
 20
0.0
 30
0.0
  0
INSERT
  5
28D
  8
SUNPOU
 62
     0
  2
_DOT
 10
126.6184768990294
 20
139.04476198520661
 30
0.0
  0
INSERT
  5
28E
  8
SUNPOU
 62
     0
  2
_DOT
 10
120.1184768990295
 20
139.04476198520661
 30
0.0
 50
180.0
  0
POINT
  5
28F
  8
DEFPOINTS
 62
     0
 10
120.1184768990295
 20
148.5
 30
0.0
  0
POINT
  5
290
  8
DEFPOINTS
 62
     0
 10
126.6184768990294
 20
148.5
 30
0.0
  0
POINT
  5
291
  8
DEFPOINTS
 62
     0
 10
126.6184768990294
 20
139.04476198520661
 30
0.0
  0
ENDBLK
  5
293
  8
0
  0
BLOCK
  8
0
  2
*D23
 70
     1
 10
0.0
 20
0.0
 30
0.0
  3
*D23
  1

  0
LINE
  5
26F
  8
SUNPOU
 62
     0
 10
138.6184768990295
 20
147.5
 30
0.0
 11
138.6184768990295
 21
138.04476198520661
 31
0.0
  0
LINE
  5
270
  8
SUNPOU
 62
     0
 10
145.1184768990295
 20
147.5
 30
0.0
 11
145.1184768990295
 21
138.04476198520661
 31
0.0
  0
LINE
  5
271
  8
SUNPOU
 62
     0
 10
139.6184768990295
 20
139.04476198520661
 30
0.0
 11
144.1184768990295
 21
139.04476198520661
 31
0.0
  0
INSERT
  5
272
  8
DEFPOINTS
  2
*U78
 10
0.0
 20
0.0
 30
0.0
  0
INSERT
  5
273
  8
SUNPOU
 62
     0
  2
_DOT
 10
138.6184768990295
 20
139.04476198520661
 30
0.0
 50
180.0
  0
INSERT
  5
274
  8
SUNPOU
 62
     0
  2
_DOT
 10
145.1184768990295
 20
139.04476198520661
 30
0.0
  0
POINT
  5
275
  8
DEFPOINTS
 62
     0
 10
138.6184768990295
 20
148.5
 30
0.0
  0
POINT
  5
276
  8
DEFPOINTS
 62
     0
 10
145.1184768990295
 20
148.5
 30
0.0
  0
POINT
  5
277
  8
DEFPOINTS
 62
     0
 10
145.1184768990295
 20
139.04476198520661
 30
0.0
  0
ENDBLK
  5
279
  8
0
  0
BLOCK
  8
0
  2
*D24
 70
     1
 10
0.0
 20
0.0
 30
0.0
  3
*D24
  1

  0
LINE
  5
27C
  8
SUNPOU
 62
     0
 10
138.6184768990295
 20
147.5
 30
0.0
 11
138.6184768990295
 21
138.04476198520661
 31
0.0
  0
LINE
  5
27D
  8
SUNPOU
 62
     0
 10
127.6184768990294
 20
139.04476198520661
 30
0.0
 11
129.61847689902939
 21
139.04476198520661
 31
0.0
  0
LINE
  5
27E
  8
SUNPOU
 62
     0
 10
137.6184768990295
 20
139.04476198520661
 30
0.0
 11
135.6184768990295
 21
139.04476198520661
 31
0.0
  0
INSERT
  5
27F
  8
SUNPOU
 62
     0
  2
_DOT
 10
126.6184768990294
 20
139.04476198520661
 30
0.0
 50
180.0
  0
INSERT
  5
280
  8
SUNPOU
 62
     0
  2
_DOT
 10
138.6184768990295
 20
139.04476198520661
 30
0.0
  0
INSERT
  5
281
  8
DEFPOINTS
  2
*U80
 10
0.0
 20
0.0
 30
0.0
  0
POINT
  5
282
  8
DEFPOINTS
 62
     0
 10
126.6184768990294
 20
148.5
 30
0.0
  0
POINT
  5
283
  8
DEFPOINTS
 62
     0
 10
138.6184768990295
 20
148.5
 30
0.0
  0
POINT
  5
284
  8
DEFPOINTS
 62
     0
 10
138.6184768990295
 20
139.04476198520661
 30
0.0
  0
ENDBLK
  5
286
  8
0
  0
BLOCK
  8
0
  2
*D25
 70
     1
 10
0.0
 20
0.0
 30
0.0
  3
*D25
  1

  0
LINE
  5
201
  8
SUNPOU
 62
     0
 10
264.85657193144237
 20
123.13485377438811
 30
0.0
 11
264.85657193144237
 21
128.13485377438809
 31
0.0
  0
LINE
  5
202
  8
SUNPOU
 62
     0
 10
257.85657193144237
 20
123.13485377438811
 30
0.0
 11
257.85657193144237
 21
128.13485377438809
 31
0.0
  0
LINE
  5
203
  8
SUNPOU
 62
     0
 10
265.85657193144237
 20
127.13485377438811
 30
0.0
 11
266.85657193144237
 21
127.13485377438811
 31
0.0
  0
LINE
  5
204
  8
SUNPOU
 62
     0
 10
256.85657193144237
 20
127.13485377438811
 30
0.0
 11
255.8565719314424
 21
127.13485377438811
 31
0.0
  0
LINE
  5
205
  8
SUNPOU
 62
     0
 10
264.85657193144237
 20
127.13485377438811
 30
0.0
 11
263.35657193144237
 21
127.13485377438811
 31
0.0
  0
LINE
  5
206
  8
SUNPOU
 62
     0
 10
257.85657193144237
 20
127.13485377438811
 30
0.0
 11
259.35657193144237
 21
127.13485377438811
 31
0.0
  0
INSERT
  5
207
  8
SUNPOU
 62
     0
  2
_DOT
 10
264.85657193144237
 20
127.13485377438811
 30
0.0
 50
180.0
  0
INSERT
  5
208
  8
SUNPOU
 62
     0
  2
_DOT
 10
257.85657193144237
 20
127.13485377438811
 30
0.0
  0
INSERT
  5
209
  8
DEFPOINTS
  2
*U62
 10
0.0
 20
0.0
 30
0.0
  0
POINT
  5
20A
  8
DEFPOINTS
 62
     0
 10
264.85657193144237
 20
122.13485377438811
 30
0.0
  0
POINT
  5
20B
  8
DEFPOINTS
 62
     0
 10
257.85657193144237
 20
122.13485377438811
 30
0.0
  0
POINT
  5
20C
  8
DEFPOINTS
 62
     0
 10
257.85657193144237
 20
127.13485377438811
 30
0.0
  0
ENDBLK
  5
20E
  8
0
  0
BLOCK
  8
0
  2
*D26
 70
     1
 10
0.0
 20
0.0
 30
0.0
  3
*D26
  1

  0
LINE
  5
1D7
  8
SUNPOU
 62
     0
 10
220.85657193144249
 20
65.534853774388125
 30
0.0
 11
210.85670175781851
 21
65.534853774388125
 31
0.0
  0
LINE
  5
1D8
  8
SUNPOU
 62
     0
 10
220.85657193144249
 20
83.034853774388125
 30
0.0
 11
210.85670175781851
 21
83.034853774388125
 31
0.0
  0
LINE
  5
1D9
  8
SUNPOU
 62
     0
 10
211.85670175781851
 20
66.534853774388125
 30
0.0
 11
211.85670175781851
 21
71.284853774388125
 31
0.0
  0
LINE
  5
1DA
  8
SUNPOU
 62
     0
 10
211.85670175781851
 20
82.034853774388125
 30
0.0
 11
211.85670175781851
 21
77.284853774388125
 31
0.0
  0
INSERT
  5
1DB
  8
SUNPOU
 62
     0
  2
_DOT
 10
211.85670175781851
 20
65.534853774388125
 30
0.0
 50
270.0
  0
INSERT
  5
1DC
  8
SUNPOU
 62
     0
  2
_DOT
 10
211.85670175781851
 20
83.034853774388125
 30
0.0
 50
90.0
  0
INSERT
  5
1DD
  8
DEFPOINTS
  2
*U56
 10
0.0
 20
0.0
 30
0.0
  0
POINT
  5
1DE
  8
DEFPOINTS
 62
     0
 10
221.8565719314424
 20
65.534853774388125
 30
0.0
  0
POINT
  5
1DF
  8
DEFPOINTS
 62
     0
 10
221.8565719314424
 20
83.034853774388125
 30
0.0
  0
POINT
  5
1E0
  8
DEFPOINTS
 62
     0
 10
211.85670175781851
 20
83.034853774388125
 30
0.0
  0
ENDBLK
  5
1E2
  8
0
  0
BLOCK
  8
0
  2
*D27
 70
     1
 10
0.0
 20
0.0
 30
0.0
  3
*D27
  1

  0
LINE
  5
1F3
  8
SUNPOU
 62
     0
 10
220.85657193144249
 20
120.5348537743881
 30
0.0
 11
200.92135097682751
 21
120.5348537743881
 31
0.0
  0
LINE
  5
1F4
  8
SUNPOU
 62
     0
 10
220.85657193144249
 20
65.534853774388125
 30
0.0
 11
200.92135097682751
 21
65.534853774388125
 31
0.0
  0
LINE
  5
1F5
  8
SUNPOU
 62
     0
 10
201.9213509768276
 20
119.5348537743881
 30
0.0
 11
201.9213509768276
 21
96.534853774388125
 31
0.0
  0
LINE
  5
1F6
  8
SUNPOU
 62
     0
 10
201.9213509768276
 20
66.534853774388125
 30
0.0
 11
201.9213509768276
 21
89.534853774388125
 31
0.0
  0
INSERT
  5
1F7
  8
SUNPOU
 62
     0
  2
_DOT
 10
201.9213509768276
 20
120.5348537743881
 30
0.0
 50
90.0
  0
INSERT
  5
1F8
  8
SUNPOU
 62
     0
  2
_DOT
 10
201.9213509768276
 20
65.534853774388125
 30
0.0
 50
270.0
  0
INSERT
  5
1F9
  8
DEFPOINTS
  2
*U60
 10
0.0
 20
0.0
 30
0.0
  0
POINT
  5
1FA
  8
DEFPOINTS
 62
     0
 10
221.8565719314424
 20
120.5348537743881
 30
0.0
  0
POINT
  5
1FB
  8
DEFPOINTS
 62
     0
 10
221.8565719314424
 20
65.534853774388125
 30
0.0
  0
POINT
  5
1FC
  8
DEFPOINTS
 62
     0
 10
201.9213509768276
 20
65.534853774388125
 30
0.0
  0
ENDBLK
  5
1FE
  8
0
  0
BLOCK
  8
0
  2
*D28
 70
     1
 10
0.0
 20
0.0
 30
0.0
  3
*D28
  1

  0
LINE
  5
1E5
  8
SUNPOU
 62
     0
 10
220.85657193144249
 20
120.5348537743881
 30
0.0
 11
210.86573214455791
 21
120.5348537743881
 31
0.0
  0
LINE
  5
1E6
  8
SUNPOU
 62
     0
 10
220.85657193144249
 20
95.534853774388125
 30
0.0
 11
210.86573214455791
 21
95.534853774388125
 31
0.0
  0
LINE
  5
1E7
  8
SUNPOU
 62
     0
 10
211.865732144558
 20
119.5348537743881
 30
0.0
 11
211.865732144558
 21
111.5348537743881
 31
0.0
  0
LINE
  5
1E8
  8
SUNPOU
 62
     0
 10
211.865732144558
 20
96.534853774388125
 30
0.0
 11
211.865732144558
 21
104.5348537743881
 31
0.0
  0
INSERT
  5
1E9
  8
SUNPOU
 62
     0
  2
_DOT
 10
211.865732144558
 20
120.5348537743881
 30
0.0
 50
90.0
  0
INSERT
  5
1EA
  8
SUNPOU
 62
     0
  2
_DOT
 10
211.865732144558
 20
95.534853774388125
 30
0.0
 50
270.0
  0
INSERT
  5
1EB
  8
DEFPOINTS
  2
*U58
 10
0.0
 20
0.0
 30
0.0
  0
POINT
  5
1EC
  8
DEFPOINTS
 62
     0
 10
221.8565719314424
 20
120.5348537743881
 30
0.0
  0
POINT
  5
1ED
  8
DEFPOINTS
 62
     0
 10
221.8565719314424
 20
95.534853774388125
 30
0.0
  0
POINT
  5
1EE
  8
DEFPOINTS
 62
     0
 10
211.865732144558
 20
95.534853774388125
 30
0.0
  0
ENDBLK
  5
1F0
  8
0
  0
BLOCK
  8
0
  2
*D29
 70
     1
 10
0.0
 20
0.0
 30
0.0
  3
*D29
  1

  0
LINE
  5
18B
  8
SUNPOU
 62
     0
 10
273.05657193144242
 20
92.534853774388154
 30
0.0
 11
283.05657193144242
 21
92.534853774388154
 31
0.0
  0
LINE
  5
18C
  8
SUNPOU
 62
     0
 10
273.05657193144242
 20
89.534853774388154
 30
0.0
 11
283.05657193144242
 21
89.534853774388154
 31
0.0
  0
LINE
  5
18D
  8
SUNPOU
 62
     0
 10
282.05657193144242
 20
93.534853774388154
 30
0.0
 11
282.05657193144242
 21
94.534853774388154
 31
0.0
  0
LINE
  5
18E
  8
SUNPOU
 62
     0
 10
282.05657193144242
 20
88.534853774388154
 30
0.0
 11
282.05657193144242
 21
87.534853774388154
 31
0.0
  0
LINE
  5
18F
  8
SUNPOU
 62
     0
 10
282.05657193144242
 20
92.534853774388154
 30
0.0
 11
282.05657193144242
 21
89.534853774388154
 31
0.0
  0
INSERT
  5
190
  8
SUNPOU
 62
     0
  2
_DOT
 10
282.05657193144242
 20
92.534853774388154
 30
0.0
 50
270.0
  0
INSERT
  5
191
  8
SUNPOU
 62
     0
  2
_DOT
 10
282.05657193144242
 20
89.534853774388154
 30
0.0
 50
90.0
  0
INSERT
  5
192
  8
DEFPOINTS
  2
*U46
 10
0.0
 20
0.0
 30
0.0
  0
POINT
  5
193
  8
DEFPOINTS
 62
     0
 10
272.05657193144242
 20
92.534853774388154
 30
0.0
  0
POINT
  5
194
  8
DEFPOINTS
 62
     0
 10
272.05657193144242
 20
89.534853774388154
 30
0.0
  0
POINT
  5
195
  8
DEFPOINTS
 62
     0
 10
282.05657193144242
 20
89.534853774388154
 30
0.0
  0
ENDBLK
  5
197
  8
0
  0
BLOCK
  8
0
  2
*D30
 70
     1
 10
0.0
 20
0.0
 30
0.0
  3
*D30
  1

  0
LINE
  5
19A
  8
SUNPOU
 62
     0
 10
273.05657193144242
 20
120.5348537743881
 30
0.0
 11
283.05657193144242
 21
120.5348537743881
 31
0.0
  0
LINE
  5
19B
  8
SUNPOU
 62
     0
 10
273.05657193144242
 20
113.5348537743881
 30
0.0
 11
283.05657193144242
 21
113.5348537743881
 31
0.0
  0
LINE
  5
19C
  8
SUNPOU
 62
     0
 10
282.05657193144242
 20
121.5348537743881
 30
0.0
 11
282.05657193144242
 21
122.5348537743881
 31
0.0
  0
LINE
  5
19D
  8
SUNPOU
 62
     0
 10
282.05657193144242
 20
112.5348537743881
 30
0.0
 11
282.05657193144242
 21
111.5348537743881
 31
0.0
  0
LINE
  5
19E
  8
SUNPOU
 62
     0
 10
282.05657193144242
 20
120.5348537743881
 30
0.0
 11
282.05657193144242
 21
119.0348537743881
 31
0.0
  0
LINE
  5
19F
  8
SUNPOU
 62
     0
 10
282.05657193144242
 20
113.5348537743881
 30
0.0
 11
282.05657193144242
 21
115.0348537743881
 31
0.0
  0
INSERT
  5
1A0
  8
SUNPOU
 62
     0
  2
_DOT
 10
282.05657193144242
 20
120.5348537743881
 30
0.0
 50
270.0
  0
INSERT
  5
1A1
  8
SUNPOU
 62
     0
  2
_DOT
 10
282.05657193144242
 20
113.5348537743881
 30
0.0
 50
90.0
  0
INSERT
  5
1A2
  8
DEFPOINTS
  2
*U48
 10
0.0
 20
0.0
 30
0.0
  0
POINT
  5
1A3
  8
DEFPOINTS
 62
     0
 10
272.05657193144242
 20
120.5348537743881
 30
0.0
  0
POINT
  5
1A4
  8
DEFPOINTS
 62
     0
 10
272.05657193144242
 20
113.5348537743881
 30
0.0
  0
POINT
  5
1A5
  8
DEFPOINTS
 62
     0
 10
282.05657193144242
 20
113.5348537743881
 30
0.0
  0
ENDBLK
  5
1A7
  8
0
  0
BLOCK
  8
0
  2
*D31
 70
     1
 10
0.0
 20
0.0
 30
0.0
  3
*D31
  1

  0
LINE
  5
211
  8
SUNPOU
 62
     0
 10
221.8565719314424
 20
123.13485377438811
 30
0.0
 11
221.8565719314424
 21
138.13485377438809
 31
0.0
  0
LINE
  5
212
  8
SUNPOU
 62
     0
 10
264.85657193144237
 20
123.13485377438811
 30
0.0
 11
264.85657193144237
 21
138.13485377438809
 31
0.0
  0
LINE
  5
213
  8
SUNPOU
 62
     0
 10
222.8565719314424
 20
137.13485377438809
 30
0.0
 11
239.8565719314424
 21
137.13485377438809
 31
0.0
  0
LINE
  5
214
  8
SUNPOU
 62
     0
 10
263.85657193144237
 20
137.13485377438809
 30
0.0
 11
246.8565719314424
 21
137.13485377438809
 31
0.0
  0
INSERT
  5
215
  8
SUNPOU
 62
     0
  2
_DOT
 10
221.8565719314424
 20
137.13485377438809
 30
0.0
 50
180.0
  0
INSERT
  5
216
  8
SUNPOU
 62
     0
  2
_DOT
 10
264.85657193144237
 20
137.13485377438809
 30
0.0
  0
INSERT
  5
217
  8
DEFPOINTS
  2
*U64
 10
0.0
 20
0.0
 30
0.0
  0
POINT
  5
218
  8
DEFPOINTS
 62
     0
 10
221.8565719314424
 20
122.13485377438811
 30
0.0
  0
POINT
  5
219
  8
DEFPOINTS
 62
     0
 10
264.85657193144237
 20
122.13485377438811
 30
0.0
  0
POINT
  5
21A
  8
DEFPOINTS
 62
     0
 10
264.85657193144237
 20
137.13485377438809
 30
0.0
  0
ENDBLK
  5
21C
  8
0
  0
BLOCK
  8
0
  2
*D32
 70
     1
 10
0.0
 20
0.0
 30
0.0
  3
*D32
  1

  0
LINE
  5
1AA
  8
SUNPOU
 62
     0
 10
255.4565719314424
 20
54.534853774388132
 30
0.0
 11
255.4565719314424
 21
49.845880658459059
 31
0.0
  0
LINE
  5
1AB
  8
SUNPOU
 62
     0
 10
252.25657193144249
 20
64.534853774388125
 30
0.0
 11
252.25657193144249
 21
49.845880658459059
 31
0.0
  0
LINE
  5
1AC
  8
SUNPOU
 62
     0
 10
256.4565719314424
 20
50.845880658459059
 30
0.0
 11
257.45657193144251
 21
50.845880658459059
 31
0.0
  0
LINE
  5
1AD
  8
SUNPOU
 62
     0
 10
251.25657193144241
 20
50.845880658459059
 30
0.0
 11
250.25657193144249
 21
50.845880658459059
 31
0.0
  0
INSERT
  5
1AE
  8
DEFPOINTS
  2
*U50
 10
0.0
 20
0.0
 30
0.0
  0
LINE
  5
1AF
  8
SUNPOU
 62
     0
 10
255.4565719314424
 20
50.845880658459059
 30
0.0
 11
252.25657193144249
 21
50.845880658459059
 31
0.0
  0
INSERT
  5
1B0
  8
SUNPOU
 62
     0
  2
_DOT
 10
255.4565719314424
 20
50.845880658459059
 30
0.0
 50
180.0
  0
INSERT
  5
1B1
  8
SUNPOU
 62
     0
  2
_DOT
 10
252.25657193144249
 20
50.845880658459059
 30
0.0
  0
POINT
  5
1B2
  8
DEFPOINTS
 62
     0
 10
255.4565719314424
 20
55.534853774388118
 30
0.0
  0
POINT
  5
1B3
  8
DEFPOINTS
 62
     0
 10
252.25657193144249
 20
65.534853774388125
 30
0.0
  0
POINT
  5
1B4
  8
DEFPOINTS
 62
     0
 10
252.25657193144249
 20
50.845880658459059
 30
0.0
  0
ENDBLK
  5
1B6
  8
0
  0
BLOCK
  8
0
  2
*D33
 70
     1
 10
0.0
 20
0.0
 30
0.0
  3
*D33
  1

  0
LINE
  5
1B9
  8
SUNPOU
 62
     0
 10
255.4565719314424
 20
54.534853774388132
 30
0.0
 11
255.4565719314424
 21
41.362672170204803
 31
0.0
  0
LINE
  5
1BA
  8
SUNPOU
 62
     0
 10
270.45657193144251
 20
54.534853774388132
 30
0.0
 11
270.45657193144251
 21
41.362672170204803
 31
0.0
  0
LINE
  5
1BB
  8
SUNPOU
 62
     0
 10
256.4565719314424
 20
42.362672170204803
 30
0.0
 11
259.95657193144251
 21
42.362672170204803
 31
0.0
  0
LINE
  5
1BC
  8
SUNPOU
 62
     0
 10
269.45657193144251
 20
42.362672170204803
 30
0.0
 11
265.95657193144251
 21
42.362672170204803
 31
0.0
  0
INSERT
  5
1BD
  8
SUNPOU
 62
     0
  2
_DOT
 10
255.4565719314424
 20
42.362672170204803
 30
0.0
 50
180.0
  0
INSERT
  5
1BE
  8
SUNPOU
 62
     0
  2
_DOT
 10
270.45657193144251
 20
42.362672170204803
 30
0.0
  0
INSERT
  5
1BF
  8
DEFPOINTS
  2
*U52
 10
0.0
 20
0.0
 30
0.0
  0
POINT
  5
1C0
  8
DEFPOINTS
 62
     0
 10
255.4565719314424
 20
55.534853774388118
 30
0.0
  0
POINT
  5
1C1
  8
DEFPOINTS
 62
     0
 10
270.45657193144251
 20
55.534853774388118
 30
0.0
  0
POINT
  5
1C2
  8
DEFPOINTS
 62
     0
 10
270.45657193144251
 20
42.362672170204803
 30
0.0
  0
ENDBLK
  5
1C4
  8
0
  0
BLOCK
  8
0
  2
*D34
 70
     1
 10
0.0
 20
0.0
 30
0.0
  3
*D34
  1

  0
LINE
  5
1C7
  8
SUNPOU
 62
     0
 10
264.85657193144237
 20
54.534853774388132
 30
0.0
 11
264.85657193144237
 21
49.845880658459059
 31
0.0
  0
LINE
  5
1C8
  8
SUNPOU
 62
     0
 10
255.4565719314424
 20
54.534853774388132
 30
0.0
 11
255.4565719314424
 21
49.845880658459059
 31
0.0
  0
LINE
  5
1C9
  8
SUNPOU
 62
     0
 10
265.85657193144237
 20
50.845880658459059
 30
0.0
 11
266.85657193144237
 21
50.845880658459059
 31
0.0
  0
LINE
  5
1CA
  8
SUNPOU
 62
     0
 10
254.4565719314424
 20
50.845880658459059
 30
0.0
 11
253.4565719314424
 21
50.845880658459059
 31
0.0
  0
LINE
  5
1CB
  8
SUNPOU
 62
     0
 10
264.85657193144237
 20
50.845880658459059
 30
0.0
 11
264.15657193144239
 21
50.845880658459059
 31
0.0
  0
LINE
  5
1CC
  8
SUNPOU
 62
     0
 10
255.4565719314424
 20
50.845880658459059
 30
0.0
 11
256.15657193144239
 21
50.845880658459059
 31
0.0
  0
INSERT
  5
1CD
  8
SUNPOU
 62
     0
  2
_DOT
 10
264.85657193144237
 20
50.845880658459059
 30
0.0
 50
180.0
  0
INSERT
  5
1CE
  8
SUNPOU
 62
     0
  2
_DOT
 10
255.4565719314424
 20
50.845880658459059
 30
0.0
  0
INSERT
  5
1CF
  8
DEFPOINTS
  2
*U54
 10
0.0
 20
0.0
 30
0.0
  0
POINT
  5
1D0
  8
DEFPOINTS
 62
     0
 10
264.85657193144237
 20
55.534853774388118
 30
0.0
  0
POINT
  5
1D1
  8
DEFPOINTS
 62
     0
 10
255.4565719314424
 20
55.534853774388118
 30
0.0
  0
POINT
  5
1D2
  8
DEFPOINTS
 62
     0
 10
255.4565719314424
 20
50.845880658459059
 30
0.0
  0
ENDBLK
  5
1D4
  8
0
  0
BLOCK
  8
0
  2
*D35
 70
     1
 10
0.0
 20
0.0
 30
0.0
  3
*D35
  1

  0
LINE
  5
35
  8
SUNPOU
 62
     0
 10
266.4565719314424
 20
124.13485377438811
 30
0.0
 11
266.4565719314424
 21
131.63485377438809
 31
0.0
  0
LINE
  5
36
  8
SUNPOU
 62
     0
 10
270.45657193144251
 20
124.13485377438811
 30
0.0
 11
270.45657193144251
 21
131.63485377438809
 31
0.0
  0
LINE
  5
37
  8
SUNPOU
 62
     0
 10
267.45657193144251
 20
130.63485377438809
 30
0.0
 11
269.45657193144251
 21
130.63485377438809
 31
0.0
  0
LINE
  5
38
  8
SUNPOU
 62
     0
 10
270.45657193144251
 20
130.63485377438809
 30
0.0
 11
271.45657193144251
 21
130.63485377438809
 31
0.0
  0
INSERT
  5
39
  8
SUNPOU
 62
     0
  2
_DOT
 10
266.4565719314424
 20
130.63485377438809
 30
0.0
 50
180.0
  0
INSERT
  5
3F
  8
SUNPOU
 62
     0
  2
_DOT
 10
270.45657193144251
 20
130.63485377438809
 30
0.0
  0
INSERT
  5
40
  8
DEFPOINTS
  2
*U40
 10
0.0
 20
0.0
 30
0.0
  0
POINT
  5
41
  8
DEFPOINTS
 62
     0
 10
266.4565719314424
 20
123.13485377438811
 30
0.0
  0
POINT
  5
45
  8
DEFPOINTS
 62
     0
 10
270.45657193144251
 20
123.13485377438811
 30
0.0
  0
POINT
  5
46
  8
DEFPOINTS
 62
     0
 10
270.45657193144251
 20
130.63485377438809
 30
0.0
  0
ENDBLK
  5
48
  8
0
  0
BLOCK
  8
0
  2
*D36
 70
     1
 10
0.0
 20
0.0
 30
0.0
  3
*D36
  1

  0
LINE
  5
931
  8
SUNPOU
 62
     0
 10
114.82326344400551
 20
148.6297251888399
 30
0.0
 11
115.82326344400551
 21
148.6297251888399
 31
0.0
  0
LINE
  5
932
  8
SUNPOU
 62
     0
 10
115.82326344400551
 20
148.6297251888399
 30
0.0
 11
124.1408531347554
 21
154.3084384484437
 31
0.0
  0
LINE
  5
933
  8
SUNPOU
 62
     0
 10
129.09610066330379
 20
157.6915615515563
 30
0.0
 11
129.9219752513952
 21
158.2554154020751
 31
0.0
  0
TEXT
  8
SUNPOU
  40
3
  5
E19
  62
4
  72
0
  71
0
 10
95.0447
 20
143.320
 30
0.000000
  1
4-M4用タップ
  0
LINE
  5
935
  8
SUNPOU
 62
     0
 10
128.27022607521241
 20
157.12770770103751
 30
0.0
 11
124.9667277228468
 21
154.87229229896249
 31
0.0
  0
INSERT
  5
936
  8
SUNPOU
 62
     0
  2
_DOT
 10
128.27022607521241
 20
157.12770770103751
 30
0.0
 50
214.3227384445249
  0
INSERT
  5
937
  8
SUNPOU
 62
     0
  2
_DOT
 10
124.9667277228468
 20
154.87229229896249
 30
0.0
 50
34.32273844452488
  0
POINT
  5
938
  8
DEFPOINTS
 62
     0
 10
124.9667277228468
 20
154.87229229896249
 30
0.0
  0
POINT
  5
939
  8
DEFPOINTS
 62
     0
 10
128.27022607521241
 20
157.12770770103751
 30
0.0
  0
ENDBLK
  5
68D
  8
0
  0
BLOCK
  8
0
  2
*D37
 70
     1
 10
0.0
 20
0.0
 30
0.0
  3
*D37
  1

  0
LINE
  5
E10
  8
SUNPOU
 62
     0
 10
253.8565719314424
 20
211.0
 30
0.0
 11
252.8565719314424
 21
211.0
 31
0.0
  0
LINE
  5
E11
  8
SUNPOU
 62
     0
 10
261.85657193144237
 20
211.0
 30
0.0
 11
262.85657193144237
 21
211.0
 31
0.0
  0
LINE
  5
E12
  8
SUNPOU
 62
     0
 10
254.8565719314424
 20
211.0
 30
0.0
 11
260.85657193144237
 21
211.0
 31
0.0
  0
INSERT
  5
E13
  8
SUNPOU
 62
     0
  2
_DOT
 10
254.8565719314424
 20
211.0
 30
0.0
  0
INSERT
  5
E14
  8
SUNPOU
 62
     0
  2
_DOT
 10
260.85657193144237
 20
211.0
 30
0.0
 50
180.0
  0
TEXT
  8
SUNPOU
  40
3
  5
E1A
  62
4
  72
0
  71
0
 10
251.857
 20
208.190
 30
0.000000
  1
6?
  0
POINT
  5
E16
  8
DEFPOINTS
 62
     0
 10
254.8565719314424
 20
211.0
 30
0.0
  0
POINT
  5
E17
  8
DEFPOINTS
 62
     0
 10
260.85657193144237
 20
211.0
 30
0.0
  0
POINT
  5
E18
  8
DEFPOINTS
 62
     0
 10
260.85657193144237
 20
211.0
 30
0.0
  0
ENDBLK
  5
878
  8
0
  0
BLOCK
  8
0
  2
*D39
 70
     1
 10
0.0
 20
0.0
 30
0.0
  3
*D39
  1

  0
LINE
  5
90E
  8
SUNPOU
 62
     0
 10
266.4565719314424
 20
124.13485377438811
 30
0.0
 11
266.4565719314424
 21
131.63485377438809
 31
0.0
  0
LINE
  5
90F
  8
SUNPOU
 62
     0
 10
270.45657193144251
 20
124.13485377438811
 30
0.0
 11
270.45657193144251
 21
131.63485377438809
 31
0.0
  0
LINE
  5
910
  8
SUNPOU
 62
     0
 10
267.45657193144251
 20
130.63485377438809
 30
0.0
 11
269.45657193144251
 21
130.63485377438809
 31
0.0
  0
LINE
  5
911
  8
SUNPOU
 62
     0
 10
270.45657193144251
 20
130.63485377438809
 30
0.0
 11
271.45657193144251
 21
130.63485377438809
 31
0.0
  0
INSERT
  5
912
  8
SUNPOU
 62
     0
  2
_DOT
 10
266.4565719314424
 20
130.63485377438809
 30
0.0
 50
180.0
  0
INSERT
  5
913
  8
SUNPOU
 62
     0
  2
_DOT
 10
270.45657193144251
 20
130.63485377438809
 30
0.0
  0
TEXT
  8
SUNPOU
  40
3
  5
E1B
  62
4
  72
0
  71
0
 10
267.457
 20
125.325
 30
0.000000
  1
4
  0
POINT
  5
915
  8
DEFPOINTS
 62
     0
 10
266.4565719314424
 20
123.13485377438811
 30
0.0
  0
POINT
  5
916
  8
DEFPOINTS
 62
     0
 10
270.45657193144251
 20
123.13485377438811
 30
0.0
  0
POINT
  5
917
  8
DEFPOINTS
 62
     0
 10
270.45657193144251
 20
130.63485377438809
 30
0.0
  0
ENDBLK
  5
90D
  8
0
  0
BLOCK
  8
0
  2
*U40
 70
     1
 10
0.0
 20
0.0
 30
0.0
  3
*U40
  1

  0
TEXT
  5
91C
  8
SUNPOU
 62
     4
 10
272.45657193144251
 20
129.13485377438809
 30
0.0
 40
3.0
  1
4
  0
ENDBLK
  5
91E
  8
0
  0
BLOCK
  8
0
  2
*D41
 70
     1
 10
0.0
 20
0.0
 30
0.0
  3
*D41
  1

  0
LINE
  5
922
  8
SUNPOU
 62
     0
 10
90.118476899029474
 20
256.0
 30
0.0
 11
90.118476899029474
 21
266.0
 31
0.0
  0
LINE
  5
923
  8
SUNPOU
 62
     0
 10
96.618476899029474
 20
256.0
 30
0.0
 11
96.618476899029474
 21
266.0
 31
0.0
  0
LINE
  5
924
  8
SUNPOU
 62
     0
 10
89.118476899029474
 20
265.0
 30
0.0
 11
88.118476899029474
 21
265.0
 31
0.0
  0
LINE
  5
925
  8
SUNPOU
 62
     0
 10
97.618476899029474
 20
265.0
 30
0.0
 11
98.618476899029474
 21
265.0
 31
0.0
  0
LINE
  5
926
  8
SUNPOU
 62
     0
 10
90.118476899029474
 20
265.0
 30
0.0
 11
96.618476899029474
 21
265.0
 31
0.0
  0
INSERT
  5
927
  8
SUNPOU
 62
     0
  2
_DOT
 10
90.118476899029474
 20
265.0
 30
0.0
  0
INSERT
  5
928
  8
SUNPOU
 62
     0
  2
_DOT
 10
96.618476899029474
 20
265.0
 30
0.0
 50
180.0
  0
TEXT
  8
SUNPOU
  40
3
  5
E1C
  62
4
  72
0
  71
0
 10
87.3685
 20
262.190
 30
0.000000
  1
6.5
  0
POINT
  5
92A
  8
DEFPOINTS
 62
     0
 10
90.118476899029474
 20
255.0
 30
0.0
  0
POINT
  5
92B
  8
DEFPOINTS
 62
     0
 10
96.618476899029474
 20
255.0
 30
0.0
  0
POINT
  5
92C
  8
DEFPOINTS
 62
     0
 10
96.618476899029474
 20
265.0
 30
0.0
  0
ENDBLK
  5
921
  8
0
  0
BLOCK
  8
0
  2
*U42
 70
     1
 10
0.0
 20
0.0
 30
0.0
  3
*U42
  1

  0
TEXT
  5
92E
  8
SUNPOU
 62
     4
 10
90.368476899029474
 20
266.0
 30
0.0
 40
3.0
  1
6.5
  0
ENDBLK
  5
930
  8
0
  0
BLOCK
  8
0
  2
*D43
 70
     1
 10
0.0
 20
0.0
 30
0.0
  3
*D43
  1

  0
LINE
  5
93D
  8
SUNPOU
 62
     0
 10
86.879487772548046
 20
158.67181494880401
 30
0.0
 11
87.879487772548018
 21
158.67181494880401
 31
0.0
  0
LINE
  5
93E
  8
SUNPOU
 62
     0
 10
87.879487772548018
 20
158.67181494880401
 30
0.0
 11
95.155007361305138
 21
173.09814595264459
 31
0.0
  0
LINE
  5
93F
  8
SUNPOU
 62
     0
 10
98.081946436753796
 20
178.9018540473555
 30
0.0
 11
98.532244756053586
 21
179.79473221577251
 31
0.0
  0
TEXT
  8
SUNPOU
  40
3
  5
E1D
  62
4
  72
0
  71
0
 10
72.3795
 20
153.362
 30
0.000000
  1
4-4.5%%C
  0
LINE
  5
941
  8
SUNPOU
 62
     0
 10
97.631648117454006
 20
178.0089758789384
 30
0.0
 11
95.605305680604914
 21
173.9910241210616
 31
0.0
  0
INSERT
  5
942
  8
SUNPOU
 62
     0
  2
_DOT
 10
97.631648117454006
 20
178.0089758789384
 30
0.0
 50
243.23717458331299
  0
INSERT
  5
943
  8
SUNPOU
 62
     0
  2
_DOT
 10
95.605305680604914
 20
173.9910241210616
 30
0.0
 50
63.237174583312971
  0
POINT
  5
944
  8
DEFPOINTS
 62
     0
 10
95.605305680604914
 20
173.9910241210616
 30
0.0
  0
POINT
  5
945
  8
DEFPOINTS
 62
     0
 10
97.631648117454006
 20
178.0089758789384
 30
0.0
  0
ENDBLK
  5
93C
  8
0
  0
BLOCK
  8
0
  2
*U44
 70
     1
 10
0.0
 20
0.0
 30
0.0
  3
*U44
  1

  0
TEXT
  5
947
  8
SUNPOU
 62
     4
 10
70.879487772547961
 20
157.17181494880401
 30
0.0
 40
3.0
  1
4-4.5\U+2205
  0
ENDBLK
  5
949
  8
0
  0
BLOCK
  8
0
  2
*D45
 70
     1
 10
0.0
 20
0.0
 30
0.0
  3
*D45
  1

  0
LINE
  5
94D
  8
SUNPOU
 62
     0
 10
273.05657193144242
 20
92.534853774388154
 30
0.0
 11
283.05657193144242
 21
92.534853774388154
 31
0.0
  0
LINE
  5
94E
  8
SUNPOU
 62
     0
 10
273.05657193144242
 20
89.534853774388154
 30
0.0
 11
283.05657193144242
 21
89.534853774388154
 31
0.0
  0
LINE
  5
94F
  8
SUNPOU
 62
     0
 10
282.05657193144242
 20
93.534853774388154
 30
0.0
 11
282.05657193144242
 21
94.534853774388154
 31
0.0
  0
LINE
  5
950
  8
SUNPOU
 62
     0
 10
282.05657193144242
 20
88.534853774388154
 30
0.0
 11
282.05657193144242
 21
87.534853774388154
 31
0.0
  0
LINE
  5
951
  8
SUNPOU
 62
     0
 10
282.05657193144242
 20
92.534853774388154
 30
0.0
 11
282.05657193144242
 21
89.534853774388154
 31
0.0
  0
INSERT
  5
952
  8
SUNPOU
 62
     0
  2
_DOT
 10
282.05657193144242
 20
92.534853774388154
 30
0.0
 50
270.0
  0
INSERT
  5
953
  8
SUNPOU
 62
     0
  2
_DOT
 10
282.05657193144242
 20
89.534853774388154
 30
0.0
 50
90.0
  0
TEXT
  8
SUNPOU
  40
3
  5
E1E
  62
4
  72
0
  71
0
 10
278.557
 20
85.7249
 30
0.000000
  1
3
  0
POINT
  5
955
  8
DEFPOINTS
 62
     0
 10
272.05657193144242
 20
92.534853774388154
 30
0.0
  0
POINT
  5
956
  8
DEFPOINTS
 62
     0
 10
272.05657193144242
 20
89.534853774388154
 30
0.0
  0
POINT
  5
957
  8
DEFPOINTS
 62
     0
 10
282.05657193144242
 20
89.534853774388154
 30
0.0
  0
ENDBLK
  5
94C
  8
0
  0
BLOCK
  8
0
  2
*U46
 70
     1
 10
0.0
 20
0.0
 30
0.0
  3
*U46
  1

  0
TEXT
  5
959
  8
SUNPOU
 62
     4
 10
286.05657193144242
 20
90.034853774388196
 30
0.0
 40
3.0
  1
3
 50
90.0
  0
ENDBLK
  5
95B
  8
0
  0
BLOCK
  8
0
  2
*D47
 70
     1
 10
0.0
 20
0.0
 30
0.0
  3
*D47
  1

  0
LINE
  5
95F
  8
SUNPOU
 62
     0
 10
273.05657193144242
 20
120.5348537743881
 30
0.0
 11
283.05657193144242
 21
120.5348537743881
 31
0.0
  0
LINE
  5
960
  8
SUNPOU
 62
     0
 10
273.05657193144242
 20
113.5348537743881
 30
0.0
 11
283.05657193144242
 21
113.5348537743881
 31
0.0
  0
LINE
  5
961
  8
SUNPOU
 62
     0
 10
282.05657193144242
 20
121.5348537743881
 30
0.0
 11
282.05657193144242
 21
122.5348537743881
 31
0.0
  0
LINE
  5
962
  8
SUNPOU
 62
     0
 10
282.05657193144242
 20
112.5348537743881
 30
0.0
 11
282.05657193144242
 21
111.5348537743881
 31
0.0
  0
LINE
  5
963
  8
SUNPOU
 62
     0
 10
282.05657193144242
 20
120.5348537743881
 30
0.0
 11
282.05657193144242
 21
119.0348537743881
 31
0.0
  0
LINE
  5
964
  8
SUNPOU
 62
     0
 10
282.05657193144242
 20
113.5348537743881
 30
0.0
 11
282.05657193144242
 21
115.0348537743881
 31
0.0
  0
INSERT
  5
965
  8
SUNPOU
 62
     0
  2
_DOT
 10
282.05657193144242
 20
120.5348537743881
 30
0.0
 50
270.0
  0
INSERT
  5
966
  8
SUNPOU
 62
     0
  2
_DOT
 10
282.05657193144242
 20
113.5348537743881
 30
0.0
 50
90.0
  0
TEXT
  8
SUNPOU
  40
3
  5
E1F
  62
4
  72
0
  71
0
 10
276.057
 20
111.725
 30
0.000000
  1
7
  0
POINT
  5
968
  8
DEFPOINTS
 62
     0
 10
272.05657193144242
 20
120.5348537743881
 30
0.0
  0
POINT
  5
969
  8
DEFPOINTS
 62
     0
 10
272.05657193144242
 20
113.5348537743881
 30
0.0
  0
POINT
  5
96A
  8
DEFPOINTS
 62
     0
 10
282.05657193144242
 20
113.5348537743881
 30
0.0
  0
ENDBLK
  5
95E
  8
0
  0
BLOCK
  8
0
  2
*U48
 70
     1
 10
0.0
 20
0.0
 30
0.0
  3
*U48
  1

  0
TEXT
  5
96C
  8
SUNPOU
 62
     4
 10
283.55657193144242
 20
116.0348537743882
 30
0.0
 40
3.0
  1
7
 50
90.0
  0
ENDBLK
  5
96E
  8
0
  0
BLOCK
  8
0
  2
*D49
 70
     1
 10
0.0
 20
0.0
 30
0.0
  3
*D49
  1

  0
LINE
  5
972
  8
SUNPOU
 62
     0
 10
255.4565719314424
 20
54.534853774388132
 30
0.0
 11
255.4565719314424
 21
49.845880658459059
 31
0.0
  0
LINE
  5
973
  8
SUNPOU
 62
     0
 10
252.25657193144249
 20
64.534853774388125
 30
0.0
 11
252.25657193144249
 21
49.845880658459059
 31
0.0
  0
LINE
  5
974
  8
SUNPOU
 62
     0
 10
256.4565719314424
 20
50.845880658459059
 30
0.0
 11
257.45657193144251
 21
50.845880658459059
 31
0.0
  0
LINE
  5
975
  8
SUNPOU
 62
     0
 10
251.25657193144241
 20
50.845880658459059
 30
0.0
 11
250.25657193144249
 21
50.845880658459059
 31
0.0
  0
TEXT
  8
SUNPOU
  40
3
  5
E20
  62
4
  72
0
  71
0
 10
240.404
 20
45.5359
 30
0.000000
  1
3.2
  0
LINE
  5
977
  8
SUNPOU
 62
     0
 10
255.4565719314424
 20
50.845880658459059
 30
0.0
 11
252.25657193144249
 21
50.845880658459059
 31
0.0
  0
INSERT
  5
978
  8
SUNPOU
 62
     0
  2
_DOT
 10
255.4565719314424
 20
50.845880658459059
 30
0.0
 50
180.0
  0
INSERT
  5
979
  8
SUNPOU
 62
     0
  2
_DOT
 10
252.25657193144249
 20
50.845880658459059
 30
0.0
  0
POINT
  5
97A
  8
DEFPOINTS
 62
     0
 10
255.4565719314424
 20
55.534853774388118
 30
0.0
  0
POINT
  5
97B
  8
DEFPOINTS
 62
     0
 10
252.25657193144249
 20
65.534853774388125
 30
0.0
  0
POINT
  5
97C
  8
DEFPOINTS
 62
     0
 10
252.25657193144249
 20
50.845880658459059
 30
0.0
  0
ENDBLK
  5
971
  8
0
  0
BLOCK
  8
0
  2
*U50
 70
     1
 10
0.0
 20
0.0
 30
0.0
  3
*U50
  1

  0
TEXT
  5
97E
  8
SUNPOU
 62
     4
 10
243.4044488264754
 20
49.345880658459073
 30
0.0
 40
3.0
  1
3.2
  0
ENDBLK
  5
980
  8
0
  0
BLOCK
  8
0
  2
*D51
 70
     1
 10
0.0
 20
0.0
 30
0.0
  3
*D51
  1

  0
LINE
  5
984
  8
SUNPOU
 62
     0
 10
255.4565719314424
 20
54.534853774388132
 30
0.0
 11
255.4565719314424
 21
41.362672170204803
 31
0.0
  0
LINE
  5
985
  8
SUNPOU
 62
     0
 10
270.45657193144251
 20
54.534853774388132
 30
0.0
 11
270.45657193144251
 21
41.362672170204803
 31
0.0
  0
LINE
  5
986
  8
SUNPOU
 62
     0
 10
256.4565719314424
 20
42.362672170204803
 30
0.0
 11
259.95657193144251
 21
42.362672170204803
 31
0.0
  0
LINE
  5
987
  8
SUNPOU
 62
     0
 10
269.45657193144251
 20
42.362672170204803
 30
0.0
 11
265.95657193144251
 21
42.362672170204803
 31
0.0
  0
INSERT
  5
988
  8
SUNPOU
 62
     0
  2
_DOT
 10
255.4565719314424
 20
42.362672170204803
 30
0.0
 50
180.0
  0
INSERT
  5
989
  8
SUNPOU
 62
     0
  2
_DOT
 10
270.45657193144251
 20
42.362672170204803
 30
0.0
  0
TEXT
  8
SUNPOU
  40
3
  5
E21
  62
4
  72
0
  71
0
 10
256.957
 20
37.0527
 30
0.000000
  1
15
  0
POINT
  5
98B
  8
DEFPOINTS
 62
     0
 10
255.4565719314424
 20
55.534853774388118
 30
0.0
  0
POINT
  5
98C
  8
DEFPOINTS
 62
     0
 10
270.45657193144251
 20
55.534853774388118
 30
0.0
  0
POINT
  5
98D
  8
DEFPOINTS
 62
     0
 10
270.45657193144251
 20
42.362672170204803
 30
0.0
  0
ENDBLK
  5
983
  8
0
  0
BLOCK
  8
0
  2
*U52
 70
     1
 10
0.0
 20
0.0
 30
0.0
  3
*U52
  1

  0
TEXT
  5
98F
  8
SUNPOU
 62
     4
 10
260.9565719314424
 20
40.862672170204803
 30
0.0
 40
3.0
  1
15
  0
ENDBLK
  5
991
  8
0
  0
BLOCK
  8
0
  2
*D53
 70
     1
 10
0.0
 20
0.0
 30
0.0
  3
*D53
  1

  0
LINE
  5
995
  8
SUNPOU
 62
     0
 10
264.85657193144237
 20
54.534853774388132
 30
0.0
 11
264.85657193144237
 21
49.845880658459059
 31
0.0
  0
LINE
  5
996
  8
SUNPOU
 62
     0
 10
255.4565719314424
 20
54.534853774388132
 30
0.0
 11
255.4565719314424
 21
49.845880658459059
 31
0.0
  0
LINE
  5
997
  8
SUNPOU
 62
     0
 10
265.85657193144237
 20
50.845880658459059
 30
0.0
 11
266.85657193144237
 21
50.845880658459059
 31
0.0
  0
LINE
  5
998
  8
SUNPOU
 62
     0
 10
254.4565719314424
 20
50.845880658459059
 30
0.0
 11
253.4565719314424
 21
50.845880658459059
 31
0.0
  0
LINE
  5
999
  8
SUNPOU
 62
     0
 10
264.85657193144237
 20
50.845880658459059
 30
0.0
 11
264.15657193144239
 21
50.845880658459059
 31
0.0
  0
LINE
  5
99A
  8
SUNPOU
 62
     0
 10
255.4565719314424
 20
50.845880658459059
 30
0.0
 11
256.15657193144239
 21
50.845880658459059
 31
0.0
  0
INSERT
  5
99B
  8
SUNPOU
 62
     0
  2
_DOT
 10
264.85657193144237
 20
50.845880658459059
 30
0.0
 50
180.0
  0
INSERT
  5
99C
  8
SUNPOU
 62
     0
  2
_DOT
 10
255.4565719314424
 20
50.845880658459059
 30
0.0
  0
TEXT
  8
SUNPOU
  40
3
  5
E22
  62
4
  72
0
  71
0
 10
254.157
 20
45.5359
 30
0.000000
  1
9.4
  0
POINT
  5
99E
  8
DEFPOINTS
 62
     0
 10
264.85657193144237
 20
55.534853774388118
 30
0.0
  0
POINT
  5
99F
  8
DEFPOINTS
 62
     0
 10
255.4565719314424
 20
55.534853774388118
 30
0.0
  0
POINT
  5
9A0
  8
DEFPOINTS
 62
     0
 10
255.4565719314424
 20
50.845880658459059
 30
0.0
  0
ENDBLK
  5
994
  8
0
  0
BLOCK
  8
0
  2
*U54
 70
     1
 10
0.0
 20
0.0
 30
0.0
  3
*U54
  1

  0
TEXT
  5
9A2
  8
SUNPOU
 62
     4
 10
257.1565719314425
 20
49.345880658459073
 30
0.0
 40
3.0
  1
9.4
  0
ENDBLK
  5
9A4
  8
0
  0
BLOCK
  8
0
  2
*D55
 70
     1
 10
0.0
 20
0.0
 30
0.0
  3
*D55
  1

  0
LINE
  5
9A8
  8
SUNPOU
 62
     0
 10
220.85657193144249
 20
65.534853774388125
 30
0.0
 11
210.85670175781851
 21
65.534853774388125
 31
0.0
  0
LINE
  5
9A9
  8
SUNPOU
 62
     0
 10
220.85657193144249
 20
83.034853774388125
 30
0.0
 11
210.85670175781851
 21
83.034853774388125
 31
0.0
  0
LINE
  5
9AA
  8
SUNPOU
 62
     0
 10
211.85670175781851
 20
66.534853774388125
 30
0.0
 11
211.85670175781851
 21
71.284853774388125
 31
0.0
  0
LINE
  5
9AB
  8
SUNPOU
 62
     0
 10
211.85670175781851
 20
82.034853774388125
 30
0.0
 11
211.85670175781851
 21
77.284853774388125
 31
0.0
  0
INSERT
  5
9AC
  8
SUNPOU
 62
     0
  2
_DOT
 10
211.85670175781851
 20
65.534853774388125
 30
0.0
 50
270.0
  0
INSERT
  5
9AD
  8
SUNPOU
 62
     0
  2
_DOT
 10
211.85670175781851
 20
83.034853774388125
 30
0.0
 50
90.0
  0
TEXT
  8
SUNPOU
  40
3
  5
E23
  62
4
  72
0
  71
0
 10
205.857
 20
68.9749
 30
0.000000
  1
17
  0
POINT
  5
9AF
  8
DEFPOINTS
 62
     0
 10
221.8565719314424
 20
65.534853774388125
 30
0.0
  0
POINT
  5
9B0
  8
DEFPOINTS
 62
     0
 10
221.8565719314424
 20
83.034853774388125
 30
0.0
  0
POINT
  5
9B1
  8
DEFPOINTS
 62
     0
 10
211.85670175781851
 20
83.034853774388125
 30
0.0
  0
ENDBLK
  5
9A7
  8
0
  0
BLOCK
  8
0
  2
*U56
 70
     1
 10
0.0
 20
0.0
 30
0.0
  3
*U56
  1

  0
TEXT
  5
9B3
  8
SUNPOU
 62
     4
 10
213.3567017578184
 20
72.284853774388154
 30
0.0
 40
3.0
  1
17
 50
90.0
  0
ENDBLK
  5
9B5
  8
0
  0
BLOCK
  8
0
  2
*D57
 70
     1
 10
0.0
 20
0.0
 30
0.0
  3
*D57
  1

  0
LINE
  5
9B9
  8
SUNPOU
 62
     0
 10
220.85657193144249
 20
120.5348537743881
 30
0.0
 11
210.86573214455791
 21
120.5348537743881
 31
0.0
  0
LINE
  5
9BA
  8
SUNPOU
 62
     0
 10
220.85657193144249
 20
95.534853774388125
 30
0.0
 11
210.86573214455791
 21
95.534853774388125
 31
0.0
  0
LINE
  5
9BB
  8
SUNPOU
 62
     0
 10
211.865732144558
 20
119.5348537743881
 30
0.0
 11
211.865732144558
 21
111.5348537743881
 31
0.0
  0
LINE
  5
9BC
  8
SUNPOU
 62
     0
 10
211.865732144558
 20
96.534853774388125
 30
0.0
 11
211.865732144558
 21
104.5348537743881
 31
0.0
  0
INSERT
  5
9BD
  8
SUNPOU
 62
     0
  2
_DOT
 10
211.865732144558
 20
120.5348537743881
 30
0.0
 50
90.0
  0
INSERT
  5
9BE
  8
SUNPOU
 62
     0
  2
_DOT
 10
211.865732144558
 20
95.534853774388125
 30
0.0
 50
270.0
  0
TEXT
  8
SUNPOU
  40
3
  5
E24
  62
4
  72
0
  71
0
 10
205.866
 20
102.725
 30
0.000000
  1
25
  0
POINT
  5
9C0
  8
DEFPOINTS
 62
     0
 10
221.8565719314424
 20
120.5348537743881
 30
0.0
  0
POINT
  5
9C1
  8
DEFPOINTS
 62
     0
 10
221.8565719314424
 20
95.534853774388125
 30
0.0
  0
POINT
  5
9C2
  8
DEFPOINTS
 62
     0
 10
211.865732144558
 20
95.534853774388125
 30
0.0
  0
ENDBLK
  5
9B8
  8
0
  0
BLOCK
  8
0
  2
*U58
 70
     1
 10
0.0
 20
0.0
 30
0.0
  3
*U58
  1

  0
TEXT
  5
9C4
  8
SUNPOU
 62
     4
 10
213.36573214455791
 20
105.5348537743881
 30
0.0
 40
3.0
  1
25
 50
90.0
  0
ENDBLK
  5
9C6
  8
0
  0
BLOCK
  8
0
  2
*D59
 70
     1
 10
0.0
 20
0.0
 30
0.0
  3
*D59
  1

  0
LINE
  5
9CA
  8
SUNPOU
 62
     0
 10
220.85657193144249
 20
120.5348537743881
 30
0.0
 11
200.92135097682751
 21
120.5348537743881
 31
0.0
  0
LINE
  5
9CB
  8
SUNPOU
 62
     0
 10
220.85657193144249
 20
65.534853774388125
 30
0.0
 11
200.92135097682751
 21
65.534853774388125
 31
0.0
  0
LINE
  5
9CC
  8
SUNPOU
 62
     0
 10
201.9213509768276
 20
119.5348537743881
 30
0.0
 11
201.9213509768276
 21
96.534853774388125
 31
0.0
  0
LINE
  5
9CD
  8
SUNPOU
 62
     0
 10
201.9213509768276
 20
66.534853774388125
 30
0.0
 11
201.9213509768276
 21
89.534853774388125
 31
0.0
  0
INSERT
  5
9CE
  8
SUNPOU
 62
     0
  2
_DOT
 10
201.9213509768276
 20
120.5348537743881
 30
0.0
 50
90.0
  0
INSERT
  5
9CF
  8
SUNPOU
 62
     0
  2
_DOT
 10
201.9213509768276
 20
65.534853774388125
 30
0.0
 50
270.0
  0
TEXT
  8
SUNPOU
  40
3
  5
E25
  62
4
  72
0
  71
0
 10
195.921
 20
87.7249
 30
0.000000
  1
55
  0
POINT
  5
9D1
  8
DEFPOINTS
 62
     0
 10
221.8565719314424
 20
120.5348537743881
 30
0.0
  0
POINT
  5
9D2
  8
DEFPOINTS
 62
     0
 10
221.8565719314424
 20
65.534853774388125
 30
0.0
  0
POINT
  5
9D3
  8
DEFPOINTS
 62
     0
 10
201.9213509768276
 20
65.534853774388125
 30
0.0
  0
ENDBLK
  5
9C9
  8
0
  0
BLOCK
  8
0
  2
*U60
 70
     1
 10
0.0
 20
0.0
 30
0.0
  3
*U60
  1

  0
TEXT
  5
9D5
  8
SUNPOU
 62
     4
 10
203.42135097682751
 20
90.534853774388154
 30
0.0
 40
3.0
  1
55
 50
90.0
  0
ENDBLK
  5
9D7
  8
0
  0
BLOCK
  8
0
  2
*D61
 70
     1
 10
0.0
 20
0.0
 30
0.0
  3
*D61
  1

  0
LINE
  5
9DB
  8
SUNPOU
 62
     0
 10
264.85657193144237
 20
123.13485377438811
 30
0.0
 11
264.85657193144237
 21
128.13485377438809
 31
0.0
  0
LINE
  5
9DC
  8
SUNPOU
 62
     0
 10
257.85657193144237
 20
123.13485377438811
 30
0.0
 11
257.85657193144237
 21
128.13485377438809
 31
0.0
  0
LINE
  5
9DD
  8
SUNPOU
 62
     0
 10
265.85657193144237
 20
127.13485377438811
 30
0.0
 11
266.85657193144237
 21
127.13485377438811
 31
0.0
  0
LINE
  5
9DE
  8
SUNPOU
 62
     0
 10
256.85657193144237
 20
127.13485377438811
 30
0.0
 11
255.8565719314424
 21
127.13485377438811
 31
0.0
  0
LINE
  5
9DF
  8
SUNPOU
 62
     0
 10
264.85657193144237
 20
127.13485377438811
 30
0.0
 11
263.35657193144237
 21
127.13485377438811
 31
0.0
  0
LINE
  5
9E0
  8
SUNPOU
 62
     0
 10
257.85657193144237
 20
127.13485377438811
 30
0.0
 11
259.35657193144237
 21
127.13485377438811
 31
0.0
  0
INSERT
  5
9E1
  8
SUNPOU
 62
     0
  2
_DOT
 10
264.85657193144237
 20
127.13485377438811
 30
0.0
 50
180.0
  0
INSERT
  5
9E2
  8
SUNPOU
 62
     0
  2
_DOT
 10
257.85657193144237
 20
127.13485377438811
 30
0.0
  0
TEXT
  8
SUNPOU
  40
3
  5
E26
  62
4
  72
0
  71
0
 10
255.357
 20
121.825
 30
0.000000
  1
7
  0
POINT
  5
9E4
  8
DEFPOINTS
 62
     0
 10
264.85657193144237
 20
122.13485377438811
 30
0.0
  0
POINT
  5
9E5
  8
DEFPOINTS
 62
     0
 10
257.85657193144237
 20
122.13485377438811
 30
0.0
  0
POINT
  5
9E6
  8
DEFPOINTS
 62
     0
 10
257.85657193144237
 20
127.13485377438811
 30
0.0
  0
ENDBLK
  5
9DA
  8
0
  0
BLOCK
  8
0
  2
*U62
 70
     1
 10
0.0
 20
0.0
 30
0.0
  3
*U62
  1

  0
TEXT
  5
9E8
  8
SUNPOU
 62
     4
 10
260.35657193144237
 20
125.63485377438811
 30
0.0
 40
3.0
  1
7
  0
ENDBLK
  5
9EA
  8
0
  0
BLOCK
  8
0
  2
*D63
 70
     1
 10
0.0
 20
0.0
 30
0.0
  3
*D63
  1

  0
LINE
  5
9EE
  8
SUNPOU
 62
     0
 10
221.8565719314424
 20
123.13485377438811
 30
0.0
 11
221.8565719314424
 21
138.13485377438809
 31
0.0
  0
LINE
  5
9EF
  8
SUNPOU
 62
     0
 10
264.85657193144237
 20
123.13485377438811
 30
0.0
 11
264.85657193144237
 21
138.13485377438809
 31
0.0
  0
LINE
  5
9F0
  8
SUNPOU
 62
     0
 10
222.8565719314424
 20
137.13485377438809
 30
0.0
 11
239.8565719314424
 21
137.13485377438809
 31
0.0
  0
LINE
  5
9F1
  8
SUNPOU
 62
     0
 10
263.85657193144237
 20
137.13485377438809
 30
0.0
 11
246.8565719314424
 21
137.13485377438809
 31
0.0
  0
INSERT
  5
9F2
  8
SUNPOU
 62
     0
  2
_DOT
 10
221.8565719314424
 20
137.13485377438809
 30
0.0
 50
180.0
  0
INSERT
  5
9F3
  8
SUNPOU
 62
     0
  2
_DOT
 10
264.85657193144237
 20
137.13485377438809
 30
0.0
  0
TEXT
  8
SUNPOU
  40
3
  5
E27
  62
4
  72
0
  71
0
 10
237.357
 20
131.825
 30
0.000000
  1
43
  0
POINT
  5
9F5
  8
DEFPOINTS
 62
     0
 10
221.8565719314424
 20
122.13485377438811
 30
0.0
  0
POINT
  5
9F6
  8
DEFPOINTS
 62
     0
 10
264.85657193144237
 20
122.13485377438811
 30
0.0
  0
POINT
  5
9F7
  8
DEFPOINTS
 62
     0
 10
264.85657193144237
 20
137.13485377438809
 30
0.0
  0
ENDBLK
  5
9ED
  8
0
  0
BLOCK
  8
0
  2
*U64
 70
     1
 10
0.0
 20
0.0
 30
0.0
  3
*U64
  1

  0
TEXT
  5
9F9
  8
SUNPOU
 62
     4
 10
240.8565719314424
 20
135.63485377438809
 30
0.0
 40
3.0
  1
43
  0
ENDBLK
  5
9FB
  8
0
  0
BLOCK
  8
0
  2
*D65
 70
     1
 10
0.0
 20
0.0
 30
0.0
  3
*D65
  1

  0
LINE
  5
9FF
  8
SUNPOU
 62
     0
 10
265.85657193144237
 20
273.50000000000011
 30
0.0
 11
275.80306266385787
 21
273.50000000000011
 31
0.0
  0
LINE
  5
A00
  8
SUNPOU
 62
     0
 10
274.80306266385787
 20
256.0
 30
0.0
 11
274.80306266385787
 21
259.25000000000011
 31
0.0
  0
LINE
  5
A01
  8
SUNPOU
 62
     0
 10
274.80306266385787
 20
272.5
 30
0.0
 11
274.80306266385787
 21
269.25000000000011
 31
0.0
  0
INSERT
  5
A02
  8
SUNPOU
 62
     0
  2
_DOT
 10
274.80306266385787
 20
255.00000000000011
 30
0.0
 50
270.0
  0
INSERT
  5
A03
  8
SUNPOU
 62
     0
  2
_DOT
 10
274.80306266385787
 20
273.50000000000011
 30
0.0
 50
90.0
  0
TEXT
  8
SUNPOU
  40
3
  5
E28
  62
4
  72
0
  71
0
 10
268.803
 20
258.940
 30
0.000000
  1
18.5
  0
POINT
  5
A05
  8
DEFPOINTS
 62
     0
 10
264.85657193144237
 20
255.00000000000011
 30
0.0
  0
POINT
  5
A06
  8
DEFPOINTS
 62
     0
 10
264.85657193144237
 20
273.50000000000011
 30
0.0
  0
POINT
  5
A07
  8
DEFPOINTS
 62
     0
 10
274.80306266385787
 20
273.50000000000011
 30
0.0
  0
ENDBLK
  5
9FE
  8
0
  0
BLOCK
  8
0
  2
*U66
 70
     1
 10
0.0
 20
0.0
 30
0.0
  3
*U66
  1

  0
TEXT
  5
A09
  8
SUNPOU
 62
     4
 10
276.30306266385782
 20
260.25000000000011
 30
0.0
 40
3.0
  1
18.5
 50
90.0
  0
ENDBLK
  5
A0B
  8
0
  0
BLOCK
  8
0
  2
*D67
 70
     1
 10
0.0
 20
0.0
 30
0.0
  3
*D67
  1

  0
LINE
  5
A0F
  8
SUNPOU
 62
     0
 10
265.85657193144237
 20
255.00000000000011
 30
0.0
 11
275.80306266385787
 21
255.00000000000011
 31
0.0
  0
LINE
  5
A10
  8
SUNPOU
 62
     0
 10
274.80306266385787
 20
231.0
 30
0.0
 11
274.80306266385787
 21
239.00000000000011
 31
0.0
  0
LINE
  5
A11
  8
SUNPOU
 62
     0
 10
274.80306266385787
 20
254.0
 30
0.0
 11
274.80306266385787
 21
246.0
 31
0.0
  0
INSERT
  5
A12
  8
SUNPOU
 62
     0
  2
_DOT
 10
274.80306266385787
 20
230.00000000000011
 30
0.0
 50
270.0
  0
INSERT
  5
A13
  8
SUNPOU
 62
     0
  2
_DOT
 10
274.80306266385787
 20
255.00000000000011
 30
0.0
 50
90.0
  0
TEXT
  8
SUNPOU
  40
3
  5
E29
  62
4
  72
0
  71
0
 10
268.803
 20
237.190
 30
0.000000
  1
25
  0
POINT
  5
A15
  8
DEFPOINTS
 62
     0
 10
264.85657193144237
 20
230.00000000000011
 30
0.0
  0
POINT
  5
A16
  8
DEFPOINTS
 62
     0
 10
264.85657193144237
 20
255.00000000000011
 30
0.0
  0
POINT
  5
A17
  8
DEFPOINTS
 62
     0
 10
274.80306266385787
 20
255.00000000000011
 30
0.0
  0
ENDBLK
  5
A0E
  8
0
  0
BLOCK
  8
0
  2
*U68
 70
     1
 10
0.0
 20
0.0
 30
0.0
  3
*U68
  1

  0
TEXT
  5
A19
  8
SUNPOU
 62
     4
 10
276.30306266385782
 20
240.00000000000011
 30
0.0
 40
3.0
  1
25
 50
90.0
  0
ENDBLK
  5
A1B
  8
0
  0
BLOCK
  8
0
  2
*D69
 70
     1
 10
0.0
 20
0.0
 30
0.0
  3
*D69
  1

  0
LINE
  5
A1F
  8
SUNPOU
 62
     0
 10
265.85657193144237
 20
230.00000000000011
 30
0.0
 11
275.80306266385787
 21
230.00000000000011
 31
0.0
  0
LINE
  5
A20
  8
SUNPOU
 62
     0
 10
274.80306266385787
 20
193.0
 30
0.0
 11
274.80306266385787
 21
207.50000000000011
 31
0.0
  0
LINE
  5
A21
  8
SUNPOU
 62
     0
 10
274.80306266385787
 20
229.0
 30
0.0
 11
274.80306266385787
 21
214.5
 31
0.0
  0
INSERT
  5
A22
  8
SUNPOU
 62
     0
  2
_DOT
 10
274.80306266385787
 20
192.0
 30
0.0
 50
270.0
  0
INSERT
  5
A23
  8
SUNPOU
 62
     0
  2
_DOT
 10
274.80306266385787
 20
230.00000000000011
 30
0.0
 50
90.0
  0
TEXT
  8
SUNPOU
  40
3
  5
E2A
  62
4
  72
0
  71
0
 10
268.803
 20
205.690
 30
0.000000
  1
38
  0
POINT
  5
A25
  8
DEFPOINTS
 62
     0
 10
264.85657193144237
 20
192.0
 30
0.0
  0
POINT
  5
A26
  8
DEFPOINTS
 62
     0
 10
264.85657193144237
 20
230.00000000000011
 30
0.0
  0
POINT
  5
A27
  8
DEFPOINTS
 62
     0
 10
274.80306266385787
 20
230.00000000000011
 30
0.0
  0
ENDBLK
  5
A1E
  8
0
  0
BLOCK
  8
0
  2
*U70
 70
     1
 10
0.0
 20
0.0
 30
0.0
  3
*U70
  1

  0
TEXT
  5
A29
  8
SUNPOU
 62
     4
 10
276.30306266385782
 20
208.50000000000011
 30
0.0
 40
3.0
  1
38
 50
90.0
  0
ENDBLK
  5
A2B
  8
0
  0
BLOCK
  8
0
  2
*D71
 70
     1
 10
0.0
 20
0.0
 30
0.0
  3
*D71
  1

  0
LINE
  5
A2F
  8
SUNPOU
 62
     0
 10
265.85657193144237
 20
192.0
 30
0.0
 11
275.80306266385787
 21
192.0
 31
0.0
  0
LINE
  5
A30
  8
SUNPOU
 62
     0
 10
274.80306266385787
 20
168.0
 30
0.0
 11
274.80306266385787
 21
176.0
 31
0.0
  0
LINE
  5
A31
  8
SUNPOU
 62
     0
 10
274.80306266385787
 20
191.0
 30
0.0
 11
274.80306266385787
 21
183.0
 31
0.0
  0
INSERT
  5
A32
  8
SUNPOU
 62
     0
  2
_DOT
 10
274.80306266385787
 20
167.0
 30
0.0
 50
270.0
  0
INSERT
  5
A33
  8
SUNPOU
 62
     0
  2
_DOT
 10
274.80306266385787
 20
192.0
 30
0.0
 50
90.0
  0
TEXT
  8
SUNPOU
  40
3
  5
E2B
  62
4
  72
0
  71
0
 10
268.803
 20
174.190
 30
0.000000
  1
25
  0
POINT
  5
A35
  8
DEFPOINTS
 62
     0
 10
264.85657193144237
 20
167.0
 30
0.0
  0
POINT
  5
A36
  8
DEFPOINTS
 62
     0
 10
264.85657193144237
 20
192.0
 30
0.0
  0
POINT
  5
A37
  8
DEFPOINTS
 62
     0
 10
274.80306266385787
 20
192.0
 30
0.0
  0
ENDBLK
  5
A2E
  8
0
  0
BLOCK
  8
0
  2
*U72
 70
     1
 10
0.0
 20
0.0
 30
0.0
  3
*U72
  1

  0
TEXT
  5
A39
  8
SUNPOU
 62
     4
 10
276.30306266385782
 20
177.00000000000011
 30
0.0
 40
3.0
  1
25
 50
90.0
  0
ENDBLK
  5
A3B
  8
0
  0
BLOCK
  8
0
  2
*D73
 70
     1
 10
0.0
 20
0.0
 30
0.0
  3
*D73
  1

  0
LINE
  5
A3F
  8
SUNPOU
 62
     0
 10
265.85657193144237
 20
148.5
 30
0.0
 11
275.80306266385787
 21
148.5
 31
0.0
  0
LINE
  5
A40
  8
SUNPOU
 62
     0
 10
265.85657193144237
 20
167.0
 30
0.0
 11
275.80306266385787
 21
167.0
 31
0.0
  0
LINE
  5
A41
  8
SUNPOU
 62
     0
 10
274.80306266385787
 20
149.5
 30
0.0
 11
274.80306266385787
 21
152.75
 31
0.0
  0
LINE
  5
A42
  8
SUNPOU
 62
     0
 10
274.80306266385787
 20
166.0
 30
0.0
 11
274.80306266385787
 21
162.75
 31
0.0
  0
INSERT
  5
A43
  8
SUNPOU
 62
     0
  2
_DOT
 10
274.80306266385787
 20
148.5
 30
0.0
 50
270.0
  0
INSERT
  5
A44
  8
SUNPOU
 62
     0
  2
_DOT
 10
274.80306266385787
 20
167.0
 30
0.0
 50
90.0
  0
TEXT
  8
SUNPOU
  40
3
  5
E2C
  62
4
  72
0
  71
0
 10
268.803
 20
152.440
 30
0.000000
  1
18.5
  0
POINT
  5
A46
  8
DEFPOINTS
 62
     0
 10
264.85657193144237
 20
148.5
 30
0.0
  0
POINT
  5
A47
  8
DEFPOINTS
 62
     0
 10
264.85657193144237
 20
167.0
 30
0.0
  0
POINT
  5
A48
  8
DEFPOINTS
 62
     0
 10
274.80306266385787
 20
167.0
 30
0.0
  0
ENDBLK
  5
A3E
  8
0
  0
BLOCK
  8
0
  2
*U74
 70
     1
 10
0.0
 20
0.0
 30
0.0
  3
*U74
  1

  0
TEXT
  5
A4A
  8
SUNPOU
 62
     4
 10
276.30306266385782
 20
153.75000000000011
 30
0.0
 40
3.0
  1
18.5
 50
90.0
  0
ENDBLK
  5
A4C
  8
0
  0
BLOCK
  8
0
  2
*D75
 70
     1
 10
0.0
 20
0.0
 30
0.0
  3
*D75
  1

  0
LINE
  5
A50
  8
SUNPOU
 62
     0
 10
120.1184768990295
 20
147.5
 30
0.0
 11
120.1184768990295
 21
127.558086320241
 31
0.0
  0
LINE
  5
A51
  8
SUNPOU
 62
     0
 10
145.1184768990295
 20
147.5
 30
0.0
 11
145.1184768990295
 21
127.558086320241
 31
0.0
  0
LINE
  5
A52
  8
SUNPOU
 62
     0
 10
121.1184768990295
 20
128.55808632024099
 30
0.0
 11
129.11847689902939
 21
128.55808632024099
 31
0.0
  0
LINE
  5
A53
  8
SUNPOU
 62
     0
 10
144.1184768990295
 20
128.55808632024099
 30
0.0
 11
136.11847689902939
 21
128.55808632024099
 31
0.0
  0
INSERT
  5
A54
  8
SUNPOU
 62
     0
  2
_DOT
 10
120.1184768990295
 20
128.55808632024099
 30
0.0
 50
180.0
  0
INSERT
  5
A55
  8
SUNPOU
 62
     0
  2
_DOT
 10
145.1184768990295
 20
128.55808632024099
 30
0.0
  0
TEXT
  8
SUNPOU
  40
3
  5
E2D
  62
4
  72
0
  71
0
 10
126.618
 20
123.248
 30
0.000000
  1
25
  0
POINT
  5
A57
  8
DEFPOINTS
 62
     0
 10
120.1184768990295
 20
148.5
 30
0.0
  0
POINT
  5
A58
  8
DEFPOINTS
 62
     0
 10
145.1184768990295
 20
148.5
 30
0.0
  0
POINT
  5
A59
  8
DEFPOINTS
 62
     0
 10
145.1184768990295
 20
128.55808632024099
 30
0.0
  0
ENDBLK
  5
A4F
  8
0
  0
BLOCK
  8
0
  2
*U76
 70
     1
 10
0.0
 20
0.0
 30
0.0
  3
*U76
  1

  0
TEXT
  5
A5B
  8
SUNPOU
 62
     4
 10
130.11847689902939
 20
127.058086320241
 30
0.0
 40
3.0
  1
25
  0
ENDBLK
  5
A5D
  8
0
  0
BLOCK
  8
0
  2
*D77
 70
     1
 10
0.0
 20
0.0
 30
0.0
  3
*D77
  1

  0
LINE
  5
A61
  8
SUNPOU
 62
     0
 10
138.6184768990295
 20
147.5
 30
0.0
 11
138.6184768990295
 21
138.04476198520661
 31
0.0
  0
LINE
  5
A62
  8
SUNPOU
 62
     0
 10
145.1184768990295
 20
147.5
 30
0.0
 11
145.1184768990295
 21
138.04476198520661
 31
0.0
  0
LINE
  5
A63
  8
SUNPOU
 62
     0
 10
139.6184768990295
 20
139.04476198520661
 30
0.0
 11
144.1184768990295
 21
139.04476198520661
 31
0.0
  0
TEXT
  8
SUNPOU
  40
3
  5
E2E
  62
4
  72
0
  71
0
 10
135.868
 20
126.735
 30
0.000000
  1
6.5
  0
INSERT
  5
A65
  8
SUNPOU
 62
     0
  2
_DOT
 10
138.6184768990295
 20
139.04476198520661
 30
0.0
 50
180.0
  0
INSERT
  5
A66
  8
SUNPOU
 62
     0
  2
_DOT
 10
145.1184768990295
 20
139.04476198520661
 30
0.0
  0
POINT
  5
A67
  8
DEFPOINTS
 62
     0
 10
138.6184768990295
 20
148.5
 30
0.0
  0
POINT
  5
A68
  8
DEFPOINTS
 62
     0
 10
145.1184768990295
 20
148.5
 30
0.0
  0
POINT
  5
A69
  8
DEFPOINTS
 62
     0
 10
145.1184768990295
 20
139.04476198520661
 30
0.0
  0
ENDBLK
  5
A60
  8
0
  0
BLOCK
  8
0
  2
*U78
 70
     1
 10
0.0
 20
0.0
 30
0.0
  3
*U78
  1

  0
TEXT
  5
A6B
  8
SUNPOU
 62
     4
 10
138.8684768990295
 20
130.54476198520649
 30
0.0
 40
3.0
  1
6.5
  0
ENDBLK
  5
A6D
  8
0
  0
BLOCK
  8
0
  2
*D79
 70
     1
 10
0.0
 20
0.0
 30
0.0
  3
*D79
  1

  0
LINE
  5
A71
  8
SUNPOU
 62
     0
 10
138.6184768990295
 20
147.5
 30
0.0
 11
138.6184768990295
 21
138.04476198520661
 31
0.0
  0
LINE
  5
A72
  8
SUNPOU
 62
     0
 10
127.6184768990294
 20
139.04476198520661
 30
0.0
 11
129.61847689902939
 21
139.04476198520661
 31
0.0
  0
LINE
  5
A73
  8
SUNPOU
 62
     0
 10
137.6184768990295
 20
139.04476198520661
 30
0.0
 11
135.6184768990295
 21
139.04476198520661
 31
0.0
  0
INSERT
  5
A74
  8
SUNPOU
 62
     0
  2
_DOT
 10
126.6184768990294
 20
139.04476198520661
 30
0.0
 50
180.0
  0
INSERT
  5
A75
  8
SUNPOU
 62
     0
  2
_DOT
 10
138.6184768990295
 20
139.04476198520661
 30
0.0
  0
TEXT
  8
SUNPOU
  40
3
  5
E2F
  62
4
  72
0
  71
0
 10
126.618
 20
133.735
 30
0.000000
  1
12
  0
POINT
  5
A77
  8
DEFPOINTS
 62
     0
 10
126.6184768990294
 20
148.5
 30
0.0
  0
POINT
  5
A78
  8
DEFPOINTS
 62
     0
 10
138.6184768990295
 20
148.5
 30
0.0
  0
POINT
  5
A79
  8
DEFPOINTS
 62
     0
 10
138.6184768990295
 20
139.04476198520661
 30
0.0
  0
ENDBLK
  5
A70
  8
0
  0
BLOCK
  8
0
  2
*U80
 70
     1
 10
0.0
 20
0.0
 30
0.0
  3
*U80
  1

  0
TEXT
  5
A7B
  8
SUNPOU
 62
     4
 10
130.6184768990295
 20
137.54476198520649
 30
0.0
 40
3.0
  1
12
  0
ENDBLK
  5
A7D
  8
0
  0
BLOCK
  8
0
  2
*D81
 70
     1
 10
0.0
 20
0.0
 30
0.0
  3
*D81
  1

  0
LINE
  5
A81
  8
SUNPOU
 62
     0
 10
120.1184768990295
 20
147.5
 30
0.0
 11
120.1184768990295
 21
138.04476198520661
 31
0.0
  0
LINE
  5
A82
  8
SUNPOU
 62
     0
 10
126.6184768990294
 20
147.5
 30
0.0
 11
126.6184768990294
 21
138.04476198520661
 31
0.0
  0
LINE
  5
A83
  8
SUNPOU
 62
     0
 10
125.6184768990294
 20
139.04476198520661
 30
0.0
 11
121.1184768990295
 21
139.04476198520661
 31
0.0
  0
TEXT
  8
SUNPOU
  40
3
  5
E30
  62
4
  72
0
  71
0
 10
117.368
 20
126.735
 30
0.000000
  1
6.5
  0
INSERT
  5
A85
  8
SUNPOU
 62
     0
  2
_DOT
 10
126.6184768990294
 20
139.04476198520661
 30
0.0
  0
INSERT
  5
A86
  8
SUNPOU
 62
     0
  2
_DOT
 10
120.1184768990295
 20
139.04476198520661
 30
0.0
 50
180.0
  0
POINT
  5
A87
  8
DEFPOINTS
 62
     0
 10
120.1184768990295
 20
148.5
 30
0.0
  0
POINT
  5
A88
  8
DEFPOINTS
 62
     0
 10
126.6184768990294
 20
148.5
 30
0.0
  0
POINT
  5
A89
  8
DEFPOINTS
 62
     0
 10
126.6184768990294
 20
139.04476198520661
 30
0.0
  0
ENDBLK
  5
A80
  8
0
  0
BLOCK
  8
0
  2
*U82
 70
     1
 10
0.0
 20
0.0
 30
0.0
  3
*U82
  1

  0
TEXT
  5
A8B
  8
SUNPOU
 62
     4
 10
120.3684768990294
 20
130.54476198520649
 30
0.0
 40
3.0
  1
6.5
  0
ENDBLK
  5
A8D
  8
0
  0
BLOCK
  8
0
  2
*D83
 70
     1
 10
0.0
 20
0.0
 30
0.0
  3
*D83
  1

  0
LINE
  5
A91
  8
SUNPOU
 62
     0
 10
89.118476899029474
 20
167.0
 30
0.0
 11
69.12047016654536
 21
167.0
 31
0.0
  0
LINE
  5
A92
  8
SUNPOU
 62
     0
 10
89.118476899029474
 20
255.0
 30
0.0
 11
69.120470166545374
 21
255.0
 31
0.0
  0
LINE
  5
A93
  8
SUNPOU
 62
     0
 10
70.12047016654536
 20
168.0
 30
0.0
 11
70.12047016654536
 21
207.5
 31
0.0
  0
LINE
  5
A94
  8
SUNPOU
 62
     0
 10
70.120470166545374
 20
254.0
 30
0.0
 11
70.12047016654536
 21
214.5
 31
0.0
  0
INSERT
  5
A95
  8
SUNPOU
 62
     0
  2
_DOT
 10
70.12047016654536
 20
167.0
 30
0.0
 50
270.0
  0
INSERT
  5
A96
  8
SUNPOU
 62
     0
  2
_DOT
 10
70.120470166545374
 20
255.0
 30
0.0
 50
90.0
  0
TEXT
  8
SUNPOU
  40
3
  5
E31
  62
4
  72
0
  71
0
 10
64.1205
 20
205.690
 30
0.000000
  1
88
  0
POINT
  5
A98
  8
DEFPOINTS
 62
     0
 10
90.118476899029474
 20
167.0
 30
0.0
  0
POINT
  5
A99
  8
DEFPOINTS
 62
     0
 10
90.118476899029474
 20
255.0
 30
0.0
  0
POINT
  5
A9A
  8
DEFPOINTS
 62
     0
 10
70.120470166545374
 20
255.0
 30
0.0
  0
ENDBLK
  5
A90
  8
0
  0
BLOCK
  8
0
  2
*U84
 70
     1
 10
0.0
 20
0.0
 30
0.0
  3
*U84
  1

  0
TEXT
  5
A9C
  8
SUNPOU
 62
     4
 10
71.620470166545331
 20
208.5
 30
0.0
 40
3.0
  1
88
 50
90.0
  0
ENDBLK
  5
A9E
  8
0
  0
BLOCK
  8
0
  2
*D85
 70
     1
 10
0.0
 20
0.0
 30
0.0
  3
*D85
  1

  0
LINE
  5
AA2
  8
SUNPOU
 62
     0
 10
89.118476899029474
 20
255.0
 30
0.0
 11
79.121202343534321
 21
255.0
 31
0.0
  0
LINE
  5
AA3
  8
SUNPOU
 62
     0
 10
80.121202343534321
 20
247.0
 30
0.0
 11
80.121202343534321
 21
248.5
 31
0.0
  0
LINE
  5
AA4
  8
SUNPOU
 62
     0
 10
80.121202343534321
 20
254.0
 30
0.0
 11
80.121202343534321
 21
252.5
 31
0.0
  0
INSERT
  5
AA5
  8
SUNPOU
 62
     0
  2
_DOT
 10
80.121202343534321
 20
246.0
 30
0.0
 50
270.0
  0
INSERT
  5
AA6
  8
SUNPOU
 62
     0
  2
_DOT
 10
80.121202343534321
 20
255.0
 30
0.0
 50
90.0
  0
TEXT
  8
SUNPOU
  40
3
  5
E32
  62
4
  72
0
  71
0
 10
74.1212
 20
245.190
 30
0.000000
  1
9
  0
POINT
  5
AA8
  8
DEFPOINTS
 62
     0
 10
90.118476899029474
 20
246.0
 30
0.0
  0
POINT
  5
AA9
  8
DEFPOINTS
 62
     0
 10
90.118476899029474
 20
255.0
 30
0.0
  0
POINT
  5
AAA
  8
DEFPOINTS
 62
     0
 10
80.121202343534321
 20
255.0
 30
0.0
  0
ENDBLK
  5
AA1
  8
0
  0
BLOCK
  8
0
  2
*U86
 70
     1
 10
0.0
 20
0.0
 30
0.0
  3
*U86
  1

  0
TEXT
  5
AAC
  8
SUNPOU
 62
     4
 10
81.621202343534279
 20
249.5
 30
0.0
 40
3.0
  1
9
 50
90.0
  0
ENDBLK
  5
AAE
  8
0
  0
BLOCK
  8
0
  2
*D87
 70
     1
 10
0.0
 20
0.0
 30
0.0
  3
*D87
  1

  0
LINE
  5
AB2
  8
SUNPOU
 62
     0
 10
89.118476899029474
 20
246.0
 30
0.0
 11
79.121202343534321
 21
246.0
 31
0.0
  0
LINE
  5
AB3
  8
SUNPOU
 62
     0
 10
80.121202343534321
 20
227.0
 30
0.0
 11
80.121202343534321
 21
232.75
 31
0.0
  0
LINE
  5
AB4
  8
SUNPOU
 62
     0
 10
80.121202343534321
 20
245.0
 30
0.0
 11
80.121202343534321
 21
239.25
 31
0.0
  0
INSERT
  5
AB5
  8
SUNPOU
 62
     0
  2
_DOT
 10
80.121202343534321
 20
226.0
 30
0.0
 50
270.0
  0
INSERT
  5
AB6
  8
SUNPOU
 62
     0
  2
_DOT
 10
80.121202343534321
 20
246.0
 30
0.0
 50
90.0
  0
TEXT
  8
SUNPOU
  40
3
  5
E33
  62
4
  72
0
  71
0
 10
74.1212
 20
230.690
 30
0.000000
  1
20
  0
POINT
  5
AB8
  8
DEFPOINTS
 62
     0
 10
90.118476899029474
 20
226.0
 30
0.0
  0
POINT
  5
AB9
  8
DEFPOINTS
 62
     0
 10
90.118476899029474
 20
246.0
 30
0.0
  0
POINT
  5
ABA
  8
DEFPOINTS
 62
     0
 10
80.121202343534321
 20
246.0
 30
0.0
  0
ENDBLK
  5
AB1
  8
0
  0
BLOCK
  8
0
  2
*U88
 70
     1
 10
0.0
 20
0.0
 30
0.0
  3
*U88
  1

  0
TEXT
  5
ABC
  8
SUNPOU
 62
     4
 10
81.621202343534279
 20
233.75
 30
0.0
 40
3.0
  1
20
 50
90.0
  0
ENDBLK
  5
ABE
  8
0
  0
BLOCK
  8
0
  2
*D89
 70
     1
 10
0.0
 20
0.0
 30
0.0
  3
*D89
  1

  0
LINE
  5
AC2
  8
SUNPOU
 62
     0
 10
89.118476899029474
 20
226.0
 30
0.0
 11
79.121202343534264
 21
226.0
 31
0.0
  0
LINE
  5
AC3
  8
SUNPOU
 62
     0
 10
80.12120234353425
 20
197.0
 30
0.0
 11
80.12120234353425
 21
207.75
 31
0.0
  0
LINE
  5
AC4
  8
SUNPOU
 62
     0
 10
80.121202343534264
 20
225.0
 30
0.0
 11
80.12120234353425
 21
214.25
 31
0.0
  0
INSERT
  5
AC5
  8
SUNPOU
 62
     0
  2
_DOT
 10
80.12120234353425
 20
196.0
 30
0.0
 50
270.0
  0
INSERT
  5
AC6
  8
SUNPOU
 62
     0
  2
_DOT
 10
80.121202343534264
 20
226.0
 30
0.0
 50
90.0
  0
TEXT
  8
SUNPOU
  40
3
  5
E34
  62
4
  72
0
  71
0
 10
74.1212
 20
205.690
 30
0.000000
  1
30
  0
POINT
  5
AC8
  8
DEFPOINTS
 62
     0
 10
90.118476899029474
 20
196.0
 30
0.0
  0
POINT
  5
AC9
  8
DEFPOINTS
 62
     0
 10
90.118476899029474
 20
226.0
 30
0.0
  0
POINT
  5
ACA
  8
DEFPOINTS
 62
     0
 10
80.121202343534264
 20
226.0
 30
0.0
  0
ENDBLK
  5
AC1
  8
0
  0
BLOCK
  8
0
  2
*U90
 70
     1
 10
0.0
 20
0.0
 30
0.0
  3
*U90
  1

  0
TEXT
  5
ACC
  8
SUNPOU
 62
     4
 10
81.621202343534208
 20
208.75
 30
0.0
 40
3.0
  1
30
 50
90.0
  0
ENDBLK
  5
ACE
  8
0
  0
BLOCK
  8
0
  2
*D91
 70
     1
 10
0.0
 20
0.0
 30
0.0
  3
*D91
  1

  0
LINE
  5
AD2
  8
SUNPOU
 62
     0
 10
89.118476899029474
 20
196.0
 30
0.0
 11
79.121202343534264
 21
196.0
 31
0.0
  0
LINE
  5
AD3
  8
SUNPOU
 62
     0
 10
80.121202343534264
 20
177.0
 30
0.0
 11
80.121202343534264
 21
182.75
 31
0.0
  0
LINE
  5
AD4
  8
SUNPOU
 62
     0
 10
80.121202343534264
 20
195.0
 30
0.0
 11
80.121202343534264
 21
189.25
 31
0.0
  0
INSERT
  5
AD5
  8
SUNPOU
 62
     0
  2
_DOT
 10
80.121202343534264
 20
176.0
 30
0.0
 50
270.0
  0
INSERT
  5
AD6
  8
SUNPOU
 62
     0
  2
_DOT
 10
80.121202343534264
 20
196.0
 30
0.0
 50
90.0
  0
TEXT
  8
SUNPOU
  40
3
  5
E35
  62
4
  72
0
  71
0
 10
74.1212
 20
180.690
 30
0.000000
  1
20
  0
POINT
  5
AD8
  8
DEFPOINTS
 62
     0
 10
90.118476899029474
 20
176.0
 30
0.0
  0
POINT
  5
AD9
  8
DEFPOINTS
 62
     0
 10
90.118476899029474
 20
196.0
 30
0.0
  0
POINT
  5
ADA
  8
DEFPOINTS
 62
     0
 10
80.121202343534264
 20
196.0
 30
0.0
  0
ENDBLK
  5
AD1
  8
0
  0
BLOCK
  8
0
  2
*U92
 70
     1
 10
0.0
 20
0.0
 30
0.0
  3
*U92
  1

  0
TEXT
  5
ADC
  8
SUNPOU
 62
     4
 10
81.621202343534236
 20
183.75
 30
0.0
 40
3.0
  1
20
 50
90.0
  0
ENDBLK
  5
ADE
  8
0
  0
BLOCK
  8
0
  2
*D93
 70
     1
 10
0.0
 20
0.0
 30
0.0
  3
*D93
  1

  0
LINE
  5
AE2
  8
SUNPOU
 62
     0
 10
89.118476899029474
 20
167.0
 30
0.0
 11
79.121202343534264
 21
167.0
 31
0.0
  0
LINE
  5
AE3
  8
SUNPOU
 62
     0
 10
89.118476899029474
 20
176.0
 30
0.0
 11
79.121202343534264
 21
176.0
 31
0.0
  0
LINE
  5
AE4
  8
SUNPOU
 62
     0
 10
80.121202343534264
 20
168.0
 30
0.0
 11
80.121202343534264
 21
169.5
 31
0.0
  0
LINE
  5
AE5
  8
SUNPOU
 62
     0
 10
80.121202343534264
 20
175.0
 30
0.0
 11
80.121202343534264
 21
173.5
 31
0.0
  0
INSERT
  5
AE6
  8
SUNPOU
 62
     0
  2
_DOT
 10
80.121202343534264
 20
167.0
 30
0.0
 50
270.0
  0
INSERT
  5
AE7
  8
SUNPOU
 62
     0
  2
_DOT
 10
80.121202343534264
 20
176.0
 30
0.0
 50
90.0
  0
TEXT
  8
SUNPOU
  40
3
  5
E36
  62
4
  72
0
  71
0
 10
74.1212
 20
166.190
 30
0.000000
  1
9
  0
POINT
  5
AE9
  8
DEFPOINTS
 62
     0
 10
90.118476899029474
 20
167.0
 30
0.0
  0
POINT
  5
AEA
  8
DEFPOINTS
 62
     0
 10
90.118476899029474
 20
176.0
 30
0.0
  0
POINT
  5
AEB
  8
DEFPOINTS
 62
     0
 10
80.121202343534264
 20
176.0
 30
0.0
  0
ENDBLK
  5
AE1
  8
0
  0
BLOCK
  8
0
  2
*U94
 70
     1
 10
0.0
 20
0.0
 30
0.0
  3
*U94
  1

  0
TEXT
  5
AED
  8
SUNPOU
 62
     4
 10
81.621202343534236
 20
170.5
 30
0.0
 40
3.0
  1
9
 50
90.0
  0
ENDBLK
  5
AEF
  8
0
  0
BLOCK
  8
0
  2
*D95
 70
     1
 10
0.0
 20
0.0
 30
0.0
  3
*D95
  1

  0
LINE
  5
AF3
  8
SUNPOU
 62
     0
 10
146.11847689902939
 20
148.5
 30
0.0
 11
164.6010733011922
 21
148.5
 31
0.0
  0
LINE
  5
AF4
  8
SUNPOU
 62
     0
 10
146.11847689902939
 20
273.5
 30
0.0
 11
164.60107330119229
 21
273.5
 31
0.0
  0
LINE
  5
AF5
  8
SUNPOU
 62
     0
 10
163.6010733011922
 20
149.5
 30
0.0
 11
163.60107330119229
 21
206.5
 31
0.0
  0
LINE
  5
AF6
  8
SUNPOU
 62
     0
 10
163.60107330119229
 20
272.5
 30
0.0
 11
163.60107330119229
 21
215.5
 31
0.0
  0
INSERT
  5
AF7
  8
SUNPOU
 62
     0
  2
_DOT
 10
163.6010733011922
 20
148.5
 30
0.0
 50
270.0
  0
INSERT
  5
AF8
  8
SUNPOU
 62
     0
  2
_DOT
 10
163.60107330119229
 20
273.5
 30
0.0
 50
90.0
  0
TEXT
  8
SUNPOU
  40
3
  5
E37
  62
4
  72
0
  71
0
 10
157.601
 20
205.690
 30
0.000000
  1
125
  0
POINT
  5
AFA
  8
DEFPOINTS
 62
     0
 10
145.1184768990295
 20
148.5
 30
0.0
  0
POINT
  5
AFB
  8
DEFPOINTS
 62
     0
 10
145.1184768990295
 20
273.5
 30
0.0
  0
POINT
  5
AFC
  8
DEFPOINTS
 62
     0
 10
163.60107330119229
 20
273.5
 30
0.0
  0
ENDBLK
  5
AF2
  8
0
  0
BLOCK
  8
0
  2
*U96
 70
     1
 10
0.0
 20
0.0
 30
0.0
  3
*U96
  1

  0
TEXT
  5
AFE
  8
SUNPOU
 62
     4
 10
165.1010733011922
 20
207.50000000000011
 30
0.0
 40
3.0
  1
125
 50
90.0
  0
ENDBLK
  5
B00
  8
0
  0
BLOCK
  8
0
  2
*D97
 70
     1
 10
0.0
 20
0.0
 30
0.0
  3
*D97
  1

  0
LINE
  5
B04
  8
SUNPOU
 62
     0
 10
146.11847689902939
 20
273.5
 30
0.0
 11
156.02835553854879
 21
273.5
 31
0.0
  0
LINE
  5
B05
  8
SUNPOU
 62
     0
 10
155.02835553854879
 20
265.0
 30
0.0
 11
155.02835553854879
 21
264.0
 31
0.0
  0
LINE
  5
B06
  8
SUNPOU
 62
     0
 10
155.02835553854879
 20
274.5
 30
0.0
 11
155.02835553854879
 21
275.5
 31
0.0
  0
LINE
  5
B07
  8
SUNPOU
 62
     0
 10
155.02835553854879
 20
266.0
 30
0.0
 11
155.02835553854879
 21
273.5
 31
0.0
  0
INSERT
  5
B08
  8
SUNPOU
 62
     0
  2
_DOT
 10
155.02835553854879
 20
266.0
 30
0.0
 50
90.0
  0
INSERT
  5
B09
  8
SUNPOU
 62
     0
  2
_DOT
 10
155.02835553854879
 20
273.5
 30
0.0
 50
270.0
  0
TEXT
  8
SUNPOU
  40
3
  5
E38
  62
4
  72
0
  71
0
 10
146.528
 20
264.440
 30
0.000000
  1
7.5
  0
POINT
  5
B0B
  8
DEFPOINTS
 62
     0
 10
145.1184768990295
 20
266.0
 30
0.0
  0
POINT
  5
B0C
  8
DEFPOINTS
 62
     0
 10
145.1184768990295
 20
273.5
 30
0.0
  0
POINT
  5
B0D
  8
DEFPOINTS
 62
     0
 10
155.02835553854879
 20
273.5
 30
0.0
  0
ENDBLK
  5
B03
  8
0
  0
BLOCK
  8
0
  2
*U98
 70
     1
 10
0.0
 20
0.0
 30
0.0
  3
*U98
  1

  0
TEXT
  5
B0F
  8
SUNPOU
 62
     4
 10
154.02835553854879
 20
266.75
 30
0.0
 40
3.0
  1
7.5
 50
90.0
  0
ENDBLK
  5
B11
  8
0
  0
BLOCK
  8
0
  2
*D99
 70
     1
 10
0.0
 20
0.0
 30
0.0
  3
*D99
  1

  0
LINE
  5
B15
  8
SUNPOU
 62
     0
 10
146.11847689902939
 20
266.0
 30
0.0
 11
156.02835553854879
 21
266.0
 31
0.0
  0
LINE
  5
B16
  8
SUNPOU
 62
     0
 10
155.02835553854879
 20
157.0
 30
0.0
 11
155.02835553854879
 21
207.25
 31
0.0
  0
LINE
  5
B17
  8
SUNPOU
 62
     0
 10
155.02835553854879
 20
265.0
 30
0.0
 11
155.02835553854879
 21
214.75
 31
0.0
  0
INSERT
  5
B18
  8
SUNPOU
 62
     0
  2
_DOT
 10
155.02835553854879
 20
156.0
 30
0.0
 50
270.0
  0
INSERT
  5
B19
  8
SUNPOU
 62
     0
  2
_DOT
 10
155.02835553854879
 20
266.0
 30
0.0
 50
90.0
  0
TEXT
  8
SUNPOU
  40
3
  5
E39
  62
4
  72
0
  71
0
 10
149.028
 20
205.690
 30
0.000000
  1
110
  0
POINT
  5
B1B
  8
DEFPOINTS
 62
     0
 10
145.1184768990295
 20
156.0
 30
0.0
  0
POINT
  5
B1C
  8
DEFPOINTS
 62
     0
 10
145.1184768990295
 20
266.0
 30
0.0
  0
POINT
  5
B1D
  8
DEFPOINTS
 62
     0
 10
155.02835553854879
 20
266.0
 30
0.0
  0
ENDBLK
  5
B14
  8
0
  0
BLOCK
  8
0
  2
*U100
 70
     1
 10
0.0
 20
0.0
 30
0.0
  3
*U100
  1

  0
TEXT
  5
B1F
  8
SUNPOU
 62
     4
 10
156.52835553854879
 20
208.25
 30
0.0
 40
3.0
  1
110
 50
90.0
  0
ENDBLK
  5
B21
  8
0
  0
BLOCK
  8
0
  2
*D101
 70
     1
 10
0.0
 20
0.0
 30
0.0
  3
*D101
  1

  0
LINE
  5
B25
  8
SUNPOU
 62
     0
 10
146.11847689902939
 20
148.5
 30
0.0
 11
156.02835553854879
 21
148.5
 31
0.0
  0
LINE
  5
B26
  8
SUNPOU
 62
     0
 10
146.11847689902939
 20
156.0
 30
0.0
 11
156.02835553854879
 21
156.0
 31
0.0
  0
LINE
  5
B27
  8
SUNPOU
 62
     0
 10
155.02835553854879
 20
147.5
 30
0.0
 11
155.02835553854879
 21
146.5
 31
0.0
  0
LINE
  5
B28
  8
SUNPOU
 62
     0
 10
155.02835553854879
 20
157.0
 30
0.0
 11
155.02835553854879
 21
158.0
 31
0.0
  0
LINE
  5
B29
  8
SUNPOU
 62
     0
 10
155.02835553854879
 20
148.5
 30
0.0
 11
155.02835553854879
 21
156.0
 31
0.0
  0
INSERT
  5
B2A
  8
SUNPOU
 62
     0
  2
_DOT
 10
155.02835553854879
 20
148.5
 30
0.0
 50
90.0
  0
INSERT
  5
B2B
  8
SUNPOU
 62
     0
  2
_DOT
 10
155.02835553854879
 20
156.0
 30
0.0
 50
270.0
  0
TEXT
  8
SUNPOU
  40
3
  5
E3A
  62
4
  72
0
  71
0
 10
146.528
 20
146.940
 30
0.000000
  1
7.5
  0
POINT
  5
B2D
  8
DEFPOINTS
 62
     0
 10
145.1184768990295
 20
148.5
 30
0.0
  0
POINT
  5
B2E
  8
DEFPOINTS
 62
     0
 10
145.1184768990295
 20
156.0
 30
0.0
  0
POINT
  5
B2F
  8
DEFPOINTS
 62
     0
 10
155.02835553854879
 20
156.0
 30
0.0
  0
ENDBLK
  5
B24
  8
0
  0
BLOCK
  8
0
  2
*U102
 70
     1
 10
0.0
 20
0.0
 30
0.0
  3
*U102
  1

  0
TEXT
  5
B31
  8
SUNPOU
 62
     4
 10
154.02835553854879
 20
149.25
 30
0.0
 40
3.0
  1
7.5
 50
90.0
  0
ENDBLK
  5
B33
  8
0
  0
ENDSEC
  0
SECTION
  2
ENTITIES
  0
TEXT
  5
32
  8
TEXT
 10
351.32252579249229
 20
22.15930076952429
 30
0.0
 40
3.0
  1
2428-N（ｽﾌﾟﾘﾝｸﾞナシ)
  0
DIMENSION
  5
33
  8
SUNPOU
  2
*D39
 10
270.45657193144251
 20
130.63485377438809
 30
0.0
 11
273.4565719314424
 21
130.63485377438809
 31
0.0
 70
     0
 13
266.4565719314424
 23
123.13485377438811
 33
0.0
 14
270.45657193144251
 24
123.13485377438811
 34
0.0
1001
ACAD
1000
DSTYLE
1002
{
1070
   287
1070
     3
1070
   287
1070
     3
1070
   287
1070
     3
1070
   287
1070
     3
1070
   287
1070
     3
1070
    41
1040
1.0
1070
    42
1040
1.0
1070
    43
1040
0.0
1070
    44
1040
1.0
1070
    78
1070
     8
1070
   140
1040
3.0
1070
   141
1040
0.5
1070
   143
1040
0.0394
1070
   147
1040
1.0
1070
   171
1070
     4
1070
   172
1070
     1
1070
   173
1070
     1
1070
   178
1070
     4
1070
   279
1070
     0
1070
   341
1005
3A
1070
     6
1000
DOT
1070
     7
1000
DOT
1002
}
  0
TEXT
  5
57
  8
SUNPOU
 62
     4
 10
316.53335601805378
 20
143.338977267583
 30
0.0
 40
3.0
  1
耐荷重は、別途ご相談ください。
  0
LINE
  5
59
  8
HONTAI
 10
138.11847689902939
 20
205.0
 30
0.0
 11
138.11847689902939
 21
201.0
 31
0.0
  0
LINE
  5
5B
  8
HONTAIFUKASIBU
 10
138.11847689902939
 20
217.0
 30
0.0
 11
138.11847689902939
 21
205.0
 31
0.0
  0
DIMENSION
  5
5E
  8
SUNPOU
  2
*D41
 10
96.618476899029474
 20
265.0
 30
0.0
 11
93.368476899029474
 21
267.5
 31
0.0
 70
     0
 13
90.118476899029474
 23
255.0
 33
0.0
 14
96.618476899029474
 24
255.0
 34
0.0
1001
ACAD
1000
DSTYLE
1002
{
1070
   287
1070
     3
1070
   287
1070
     3
1070
   287
1070
     3
1070
   287
1070
     3
1070
   287
1070
     3
1070
    41
1040
1.0
1070
    42
1040
1.0
1070
    43
1040
0.0
1070
    44
1040
1.0
1070
    73
1070
     0
1070
    74
1070
     0
1070
    77
1070
     1
1070
    78
1070
     8
1070
   140
1040
3.0
1070
   141
1040
0.5
1070
   143
1040
0.0394
1070
   147
1040
1.0
1070
   171
1070
     4
1070
   172
1070
     1
1070
   173
1070
     1
1070
   174
1070
     1
1070
   178
1070
     4
1070
   279
1070
     0
1070
     6
1000
DOT
1070
     7
1000
DOT
1002
}
  0
ARC
  5
6D
  8
OSAMARISANKOU
 10
261.74657193144242
 20
83.244853774388176
 30
0.0
 40
4.6900000000000004
 50
90.000000000000028
 51
180.0
  0
TEXT
  5
70
  8
SUNPOU
 62
     4
 10
316.53335601805378
 20
161.338977267583
 30
0.0
 40
3.0
  1
開き角：90゜左右勝手なし
  0
TEXT
  5
71
  8
SUNPOU
 62
     4
 10
316.53335601805378
 20
149.338977267583
 30
0.0
 40
3.0
  1
2428-Bの補助用としてご使用ください。
  0
LINE
  5
72
  8
SUNPOU
 10
315.53335601805389
 20
160.338977267583
 30
0.0
 11
389.22706925170058
 21
160.338977267583
 31
0.0
  0
LINE
  5
73
  8
SUNPOU
 10
315.53335601805389
 20
154.338977267583
 30
0.0
 11
389.22706925170058
 21
154.338977267583
 31
0.0
  0
TEXT
  5
74
  8
SUNPOU
 62
     4
 10
316.53335601805378
 20
155.338977267583
 30
0.0
 40
3.0
  1
適用扉：片面フラッシュ扉
  0
LINE
  5
75
  8
SUNPOU
 10
315.53335601805389
 20
148.338977267583
 30
0.0
 11
389.22706925170058
 21
148.338977267583
 31
0.0
  0
LINE
  5
76
  8
SUNPOU
 10
315.53335601805389
 20
142.338977267583
 30
0.0
 11
389.22706925170058
 21
142.338977267583
 31
0.0
  0
DIMENSION
  5
77
  8
SUNPOU
  2
*D36
 10
128.27022607521241
 20
157.12770770103751
 30
0.0
 11
115.82326344400551
 21
148.6297251888399
 31
0.0
 70
   131
  1
4-M4用タップ
 15
124.9667277228468
 25
154.87229229896249
 35
0.0
 40
0.0
1001
ACAD
1000
DSTYLE
1002
{
1070
   287
1070
     4
1070
   270
1070
     8
1070
   287
1070
     4
1070
   270
1070
     8
1070
   287
1070
     4
1070
   270
1070
     8
1070
   287
1070
     4
1070
   270
1070
     8
1070
   287
1070
     4
1070
   270
1070
     8
1070
    41
1040
1.0
1070
    42
1040
1.0
1070
    43
1040
0.0
1070
    44
1040
1.0
1070
    78
1070
     8
1070
   140
1040
3.0
1070
   141
1040
0.5
1070
   143
1040
0.0394
1070
   147
1040
1.0
1070
   171
1070
     4
1070
   172
1070
     1
1070
   173
1070
     1
1070
   178
1070
     4
1070
   273
1070
     8
1070
   274
1070
     4
1070
   277
1070
     6
1070
   279
1070
     1
1070
   284
1070
     8
1070
   288
1070
     1
1070
     6
1000
DOT
1070
     7
1000
DOT
1002
}
  0
DIMENSION
  5
84
  8
SUNPOU
  2
*D43
 10
97.631648117454006
 20
178.0089758789384
 30
0.0
 11
87.879487772548018
 21
158.67181494880401
 31
0.0
 70
   131
  1
4-4.5%%C
 15
95.605305680604914
 25
173.9910241210616
 35
0.0
 40
0.0
1001
ACAD
1000
DSTYLE
1002
{
1070
   287
1070
     4
1070
   270
1070
     8
1070
   287
1070
     4
1070
   270
1070
     8
1070
   287
1070
     4
1070
   270
1070
     8
1070
   287
1070
     4
1070
   270
1070
     8
1070
   287
1070
     4
1070
   270
1070
     8
1070
    41
1040
1.0
1070
    42
1040
1.0
1070
    43
1040
0.0
1070
    44
1040
1.0
1070
    78
1070
     8
1070
   140
1040
3.0
1070
   141
1040
0.5
1070
   143
1040
0.0394
1070
   147
1040
1.0
1070
   171
1070
     4
1070
   172
1070
     1
1070
   173
1070
     1
1070
   178
1070
     4
1070
   273
1070
     8
1070
   274
1070
     4
1070
   277
1070
     6
1070
   279
1070
     1
1070
   284
1070
     8
1070
   288
1070
     1
1070
     6
1000
DOT
1070
     7
1000
DOT
1002
}
  0
LINE
  5
91
  8
CENTER
 10
255.8565719314424
 20
114.0348537743881
 30
0.0
 11
265.85657193144237
 21
114.0348537743881
 31
0.0
  0
LINE
  5
93
  8
HONTAI
 10
260.85657193144237
 20
95.534853774388125
 30
0.0
 11
260.85657193144237
 21
120.5348537743881
 31
0.0
  0
LINE
  5
94
  8
CENTER
 10
255.8565719314424
 20
102.0348537743881
 30
0.0
 11
265.85657193144237
 21
102.0348537743881
 31
0.0
  0
ARC
  5
95
  8
OSAMARISANKOU
  6
HIDDEN
 10
250.50657193144249
 20
74.284853774388125
 30
0.0
 40
1.75
 50
90.000000000000028
 51
180.0
  0
ARC
  5
97
  8
OSAMARISANKOU
  6
HIDDEN
 10
250.50657193144249
 20
69.784853774388125
 30
0.0
 40
1.75
 50
180.0
 51
270.0
  0
LINE
  5
98
  8
OSAMARISANKOU
  6
HIDDEN
 10
248.75657193144241
 20
69.784853774388125
 30
0.0
 11
248.75657193144241
 21
74.284853774388125
 31
0.0
  0
LINE
  5
99
  8
OSAMARISANKOU
  6
HIDDEN
 10
252.25657193144249
 20
68.034853774388125
 30
0.0
 11
250.50657193144249
 21
68.034853774388125
 31
0.0
  0
LINE
  5
9A
  8
OSAMARISANKOU
  6
HIDDEN
 10
252.25657193144249
 20
76.034853774388125
 30
0.0
 11
250.50657193144249
 21
76.034853774388125
 31
0.0
  0
LINE
  5
9B
  8
OSAMARISANKOU
  6
DASHED
 10
252.25657193144249
 20
73.534853774388125
 30
0.0
 11
267.25657193144241
 21
73.534853774388125
 31
0.0
  0
LINE
  5
9C
  8
OSAMARISANKOU
  6
DASHED
 10
252.25657193144249
 20
70.534853774388125
 30
0.0
 11
267.25657193144241
 21
70.534853774388125
 31
0.0
  0
LINE
  5
9D
  8
OSAMARISANKOU
  6
DASHED
 10
267.25657193144241
 20
70.034853774388154
 30
0.0
 11
267.25657193144241
 21
74.034853774388154
 31
0.0
  0
LINE
  5
9E
  8
OSAMARISANKOU
  6
DASHED
 10
252.25657193144249
 20
74.034853774388154
 30
0.0
 11
267.25657193144241
 21
74.034853774388154
 31
0.0
  0
LINE
  5
9F
  8
OSAMARISANKOU
  6
DASHED
 10
252.25657193144249
 20
70.034853774388154
 30
0.0
 11
267.25657193144241
 21
70.034853774388154
 31
0.0
  0
LINE
  5
A0
  8
CENTER
 10
242.25657193144241
 20
72.034853774388125
 30
0.0
 11
272.25657193144241
 21
72.034853774388125
 31
0.0
  0
LINE
  5
A1
  8
OSAMARISANKOU
 10
261.65657193144239
 20
58.134853774388148
 30
0.0
 11
257.05657193144242
 21
58.134853774388148
 31
0.0
  0
LINE
  5
A2
  8
OSAMARISANKOU
 10
272.05657193144242
 20
83.034853774388154
 30
0.0
 11
261.65657193144239
 21
83.034853774388154
 31
0.0
  0
LINE
  5
A3
  8
OSAMARISANKOU
 10
272.05657193144242
 20
87.934853774388159
 30
0.0
 11
272.05657193144242
 21
83.034853774388154
 31
0.0
  0
LINE
  5
A4
  8
OSAMARISANKOU
 10
261.65657193144239
 20
58.134853774388148
 30
0.0
 11
261.65657193144239
 21
83.034853774388125
 31
0.0
  0
ARC
  5
A5
  8
OSAMARISANKOU
 10
264.85657193144237
 20
94.134853774388148
 30
0.0
 40
1.6000000000000001
 50
270.0
 51
0.0
  0
ARC
  5
A6
  8
OSAMARISANKOU
 10
264.85657193144237
 20
120.5348537743881
 30
0.0
 40
1.6000000000000001
 50
0.0
 51
90.000000000000028
  0
ARC
  5
A7
  8
OSAMARISANKOU
 10
288.85657193144237
 20
123.9348537743881
 30
0.0
 40
1.6000000000000001
 50
0.0
 51
90.000000000000028
  0
ARC
  5
A8
  8
OSAMARISANKOU
 10
272.05657193144242
 20
123.9348537743881
 30
0.0
 40
1.6000000000000001
 50
90.000000000000028
 51
180.0
  0
ARC
  5
A9
  8
OSAMARISANKOU
 10
270.45657193144251
 20
89.534853774388154
 30
0.0
 40
1.6000000000000001
 50
270.0
 51
0.0
  0
ARC
  5
AA
  8
OSAMARISANKOU
 10
257.05657193144242
 20
87.934853774388159
 30
0.0
 40
1.6000000000000001
 50
90.000000000000028
 51
180.0
  0
ARC
  5
AB
  8
OSAMARISANKOU
 10
257.05657193144242
 20
57.134853774388141
 30
0.0
 40
1.6000000000000001
 50
180.0
 51
270.0
  0
ARC
  5
AC
  8
OSAMARISANKOU
 10
283.85657193144237
 20
57.134853774388141
 30
0.0
 40
1.6000000000000001
 50
270.0
 51
0.0
  0
LINE
  5
AD
  8
OSAMARISANKOU
 10
288.85657193144237
 20
123.9348537743881
 30
0.0
 11
272.05657193144242
 21
123.9348537743881
 31
0.0
  0
LINE
  5
AE
  8
OSAMARISANKOU
 10
288.85657193144237
 20
115.5348537743881
 30
0.0
 11
288.85657193144237
 21
123.9348537743881
 31
0.0
  0
LINE
  5
AF
  8
OSAMARISANKOU
 10
290.45657193144251
 20
115.5348537743881
 30
0.0
 11
288.85657193144237
 21
115.5348537743881
 31
0.0
  0
LINE
  5
B0
  8
OSAMARISANKOU
 10
290.45657193144251
 20
123.9348537743881
 30
0.0
 11
290.45657193144251
 21
115.5348537743881
 31
0.0
  0
LINE
  5
B1
  8
OSAMARISANKOU
 10
272.05657193144242
 20
125.5348537743881
 30
0.0
 11
288.85657193144237
 21
125.5348537743881
 31
0.0
  0
LINE
  5
B2
  8
OSAMARISANKOU
 10
270.45657193144251
 20
89.534853774388125
 30
0.0
 11
270.45657193144251
 21
123.9348537743881
 31
0.0
  0
LINE
  5
B3
  8
OSAMARISANKOU
 10
257.05657193144242
 20
89.534853774388125
 30
0.0
 11
270.45657193144251
 21
89.534853774388125
 31
0.0
  0
LINE
  5
B4
  8
OSAMARISANKOU
 10
272.05657193144242
 20
89.534853774388154
 30
0.0
 11
272.05657193144242
 21
123.9348537743881
 31
0.0
  0
LINE
  5
B5
  8
OSAMARISANKOU
 10
257.05657193144242
 20
87.934853774388159
 30
0.0
 11
272.05657193144242
 21
87.934853774388159
 31
0.0
  0
LINE
  5
B6
  8
OSAMARISANKOU
 10
257.05657193144242
 20
57.134853774388141
 30
0.0
 11
257.05657193144242
 21
87.934853774388159
 31
0.0
  0
LINE
  5
B7
  8
OSAMARISANKOU
 10
283.85657193144237
 20
57.134853774388141
 30
0.0
 11
257.05657193144242
 21
57.134853774388141
 31
0.0
  0
LINE
  5
B8
  8
OSAMARISANKOU
 10
283.85657193144237
 20
65.534853774388125
 30
0.0
 11
283.85657193144237
 21
57.134853774388141
 31
0.0
  0
LINE
  5
B9
  8
OSAMARISANKOU
 10
285.4565719314424
 20
65.534853774388125
 30
0.0
 11
283.85657193144237
 21
65.534853774388125
 31
0.0
  0
LINE
  5
BA
  8
OSAMARISANKOU
 10
285.4565719314424
 20
57.134853774388141
 30
0.0
 11
285.4565719314424
 21
65.534853774388125
 31
0.0
  0
LINE
  5
BB
  8
OSAMARISANKOU
 10
257.05657193144242
 20
55.534853774388118
 30
0.0
 11
283.85657193144237
 21
55.534853774388118
 31
0.0
  0
LINE
  5
BC
  8
OSAMARISANKOU
 10
255.4565719314424
 20
87.934853774388159
 30
0.0
 11
255.4565719314424
 21
57.134853774388141
 31
0.0
  0
LINE
  5
BD
  8
OSAMARISANKOU
 10
264.85657193144237
 20
122.13485377438811
 30
0.0
 11
184.8565719314424
 21
122.13485377438811
 31
0.0
  0
LINE
  5
BE
  8
OSAMARISANKOU
 10
266.4565719314424
 20
94.134853774388148
 30
0.0
 11
266.4565719314424
 21
120.5348537743881
 31
0.0
  0
LINE
  5
BF
  8
OSAMARISANKOU
 10
254.3565719314424
 20
92.534853774388125
 30
0.0
 11
264.85657193144237
 21
92.534853774388154
 31
0.0
  0
LINE
  5
C0
  8
OSAMARISANKOU
 10
254.3565719314424
 20
94.134853774388148
 30
0.0
 11
254.3565719314424
 21
92.534853774388125
 31
0.0
  0
LINE
  5
C1
  8
OSAMARISANKOU
 10
264.85657193144237
 20
94.134853774388148
 30
0.0
 11
254.3565719314424
 21
94.134853774388148
 31
0.0
  0
LINE
  5
C2
  8
OSAMARISANKOU
 10
264.85657193144237
 20
120.5348537743881
 30
0.0
 11
264.85657193144237
 21
94.134853774388148
 31
0.0
  0
LINE
  5
C3
  8
OSAMARISANKOU
 10
184.8565719314424
 20
120.5348537743881
 30
0.0
 11
264.85657193144237
 21
120.5348537743881
 31
0.0
  0
LINE
  5
C4
  8
HONTAIFUKASIBU
 10
225.05657193144239
 20
95.534853774388125
 30
0.0
 11
225.05657193144239
 21
120.5348537743881
 31
0.0
  0
LINE
  5
C5
  8
CENTER
 10
250.8565719314424
 20
113.5348537743881
 30
0.0
 11
264.85657193144237
 21
113.5348537743881
 31
0.0
  0
LINE
  5
C6
  8
HONTAI
 10
264.85657193144237
 20
95.534853774388125
 30
0.0
 11
264.85657193144237
 21
120.5348537743881
 31
0.0
  0
LINE
  5
C7
  8
HONTAI
 10
221.8565719314424
 20
120.5348537743881
 30
0.0
 11
264.85657193144237
 21
120.5348537743881
 31
0.0
  0
LINE
  5
C8
  8
HONTAI
 10
221.8565719314424
 20
95.534853774388125
 30
0.0
 11
221.8565719314424
 21
120.5348537743881
 31
0.0
  0
LINE
  5
C9
  8
HONTAI
 10
264.85657193144237
 20
95.534853774388125
 30
0.0
 11
221.8565719314424
 21
95.534853774388125
 31
0.0
  0
LINE
  5
CA
  8
HONTAIFUKASIBU
 10
226.34625890158961
 20
95.534853774388125
 30
0.0
 11
226.34625890158961
 21
116.5348537743881
 31
0.0
  0
LINE
  5
CB
  8
HONTAIFUKASIBU
 10
229.5462589015896
 20
95.534853774388125
 30
0.0
 11
229.5462589015896
 21
116.5348537743881
 31
0.0
  0
ARC
  5
CC
  8
HONTAI
 10
252.25657193144249
 20
79.834853774388137
 30
0.0
 40
3.2000000000000002
 50
0.0
 51
90.000000000000028
  0
ARC
  5
CD
  8
HONTAI
 10
229.5462589015896
 20
83.034853774388154
 30
0.0
 40
3.2000000000000002
 50
180.0
 51
270.0
  0
ARC
  5
CE
  8
HONTAIFUKASIBU
 10
229.5462589015896
 20
116.5348537743881
 30
0.0
 40
3.2000000000000002
 50
90.000000000000028
 51
180.0
  0
LINE
  5
CF
  8
HONTAIFUKASIBU
 10
257.85657193144237
 20
116.5348537743881
 30
0.0
 11
229.5462589015896
 21
116.5348537743881
 31
0.0
  0
LINE
  5
D0
  8
HONTAIFUKASIBU
 10
257.85657193144237
 20
119.7348537743881
 30
0.0
 11
229.5462589015896
 21
119.7348537743881
 31
0.0
  0
ARC
  5
D1
  8
HONTAIFUKASIBU
 10
257.85657193144237
 20
113.5348537743881
 30
0.0
 40
6.2000000000000002
 50
151.0614722598194
 51
90.000000000000028
  0
CIRCLE
  5
D2
  8
HONTAI
 10
257.85657193144237
 20
113.5348537743881
 30
0.0
 40
3.0
  0
LINE
  5
D3
  8
HONTAI
 10
252.25657193144249
 20
83.034853774388125
 30
0.0
 11
229.5462589015896
 21
83.034853774388125
 31
0.0
  0
LINE
  5
D4
  8
HONTAI
 10
229.5462589015896
 20
83.034853774388125
 30
0.0
 11
229.5462589015896
 21
95.534853774388125
 31
0.0
  0
LINE
  5
D5
  8
HONTAI
 10
226.34625890158961
 20
83.034853774388154
 30
0.0
 11
226.34625890158961
 21
95.534853774388125
 31
0.0
  0
LINE
  5
D6
  8
HONTAI
 10
252.25657193144249
 20
79.834853774388137
 30
0.0
 11
229.5462589015896
 21
79.834853774388137
 31
0.0
  0
LINE
  5
D7
  8
HONTAI
 10
252.25657193144249
 20
65.534853774388125
 30
0.0
 11
252.25657193144249
 21
79.834853774388137
 31
0.0
  0
LINE
  5
D8
  8
HONTAI
 10
255.4565719314424
 20
65.534853774388125
 30
0.0
 11
252.25657193144249
 21
65.534853774388125
 31
0.0
  0
LINE
  5
D9
  8
HONTAI
 10
255.4565719314424
 20
79.834853774388137
 30
0.0
 11
255.4565719314424
 21
65.534853774388125
 31
0.0
  0
LINE
  5
11A
  8
HONTAIFUKASIBU
 10
229.8565719314424
 20
167.0
 30
0.0
 11
229.8565719314424
 21
192.0
 31
0.0
  0
LINE
  5
11B
  8
HONTAI
 10
229.8565719314424
 20
192.0
 30
0.0
 11
229.8565719314424
 21
205.0
 31
0.0
  0
LINE
  5
11C
  8
HONTAI
 10
226.65657193144239
 20
167.0
 30
0.0
 11
226.65657193144239
 21
205.0
 31
0.0
  0
LINE
  5
11D
  8
HONTAI
 10
229.8565719314424
 20
230.0
 30
0.0
 11
229.8565719314424
 21
217.0
 31
0.0
  0
LINE
  5
11E
  8
HONTAIFUKASIBU
 10
229.8565719314424
 20
255.00000000000011
 30
0.0
 11
229.8565719314424
 21
230.0
 31
0.0
  0
LINE
  5
11F
  8
HONTAI
 10
226.65657193144239
 20
255.0
 30
0.0
 11
226.65657193144239
 21
217.0
 31
0.0
  0
LINE
  5
120
  8
HONTAI
 10
225.05657193144239
 20
205.0
 30
0.0
 11
225.05657193144239
 21
166.50000000000011
 31
0.0
  0
LINE
  5
121
  8
HONTAI
 10
239.8565719314424
 20
205.0
 30
0.0
 11
239.8565719314424
 21
217.0
 31
0.0
  0
LINE
  5
122
  8
HONTAI
 10
221.8565719314424
 20
205.0
 30
0.0
 11
239.8565719314424
 21
205.0
 31
0.0
  0
LINE
  5
123
  8
HONTAI
 10
221.8565719314424
 20
217.0
 30
0.0
 11
239.8565719314424
 21
217.0
 31
0.0
  0
LINE
  5
124
  8
HONTAI
 10
225.05657193144239
 20
221.0
 30
0.0
 11
221.8565719314424
 21
221.0
 31
0.0
  0
LINE
  5
125
  8
HONTAI
 10
225.05657193144239
 20
201.00000000000011
 30
0.0
 11
221.8565719314424
 21
201.00000000000011
 31
0.0
  0
ARC
  5
126
  8
HONTAI
 10
257.85657193144237
 20
165.5500000000001
 30
0.0
 40
3.75
 50
216.86989764584399
 51
323.13010235415601
  0
ARC
  5
127
  8
HONTAI
 10
257.85657193144237
 20
256.4500000000001
 30
0.0
 40
3.75
 50
36.869897645844027
 51
143.13010235415601
  0
LINE
  5
128
  8
HONTAIFUKASIBU
  6
HIDDEN
 10
261.65657193144239
 20
268.0
 30
0.0
 11
264.85657193144237
 21
268.0
 31
0.0
  0
LINE
  5
129
  8
HONTAIFUKASIBU
  6
HIDDEN
 10
261.65657193144239
 20
264.0
 30
0.0
 11
264.85657193144237
 21
264.0
 31
0.0
  0
LINE
  5
12A
  8
HONTAIFUKASIBU
  6
HIDDEN
 10
261.65657193144239
 20
267.25
 30
0.0
 11
264.85657193144237
 21
267.25
 31
0.0
  0
LINE
  5
12B
  8
HONTAIFUKASIBU
  6
HIDDEN
 10
261.65657193144239
 20
264.75
 30
0.0
 11
264.85657193144237
 21
264.75
 31
0.0
  0
LINE
  5
12C
  8
HONTAIFUKASIBU
  6
HIDDEN
 10
261.65657193144239
 20
154.75
 30
0.0
 11
264.85657193144237
 21
154.75
 31
0.0
  0
LINE
  5
12D
  8
HONTAIFUKASIBU
  6
HIDDEN
 10
261.65657193144239
 20
157.25
 30
0.0
 11
264.85657193144237
 21
157.25
 31
0.0
  0
LINE
  5
12E
  8
HONTAIFUKASIBU
  6
HIDDEN
 10
261.65657193144239
 20
154.0
 30
0.0
 11
264.85657193144237
 21
154.0
 31
0.0
  0
LINE
  5
12F
  8
HONTAIFUKASIBU
  6
HIDDEN
 10
261.65657193144239
 20
158.0
 30
0.0
 11
264.85657193144237
 21
158.0
 31
0.0
  0
LINE
  5
130
  8
HONTAI
 10
264.55657193144248
 20
167.0
 30
0.0
 11
226.65657193144239
 21
167.0
 31
0.0
  0
LINE
  5
131
  8
HONTAI
 10
264.55657193144248
 20
255.00000000000011
 30
0.0
 11
226.65657193144239
 21
255.0
 31
0.0
  0
LINE
  5
132
  8
HONTAI
 10
264.55657193144248
 20
167.0
 30
0.0
 11
264.55657193144248
 21
192.0
 31
0.0
  0
LINE
  5
133
  8
HONTAIFUKASIBU
 10
251.15657193144239
 20
167.0
 30
0.0
 11
251.15657193144239
 21
192.0
 31
0.0
  0
LINE
  5
134
  8
HONTAI
 10
264.55657193144248
 20
192.0
 30
0.0
 11
226.65657193144239
 21
192.0
 31
0.0
  0
LINE
  5
135
  8
HONTAI
 10
264.55657193144248
 20
255.00000000000011
 30
0.0
 11
264.55657193144248
 21
230.0
 31
0.0
  0
LINE
  5
136
  8
HONTAIFUKASIBU
 10
251.15657193144239
 20
255.00000000000011
 30
0.0
 11
251.15657193144239
 21
230.0
 31
0.0
  0
LINE
  5
137
  8
HONTAI
 10
264.55657193144248
 20
230.0
 30
0.0
 11
226.65657193144239
 21
230.0
 31
0.0
  0
LINE
  5
138
  8
CENTER
 10
258.25657193144241
 20
156.0
 30
0.0
 11
268.25657193144241
 21
156.0
 31
0.0
  0
LINE
  5
139
  8
CENTER
 10
258.25657193144229
 20
266.0
 30
0.0
 11
268.25657193144229
 21
266.0
 31
0.0
  0
LINE
  5
13A
  8
CENTER
 10
257.85657193144237
 20
106.5348537743881
 30
0.0
 11
257.85657193144237
 21
120.5348537743881
 31
0.0
  0
LINE
  5
13B
  8
HONTAIFUKASIBU
 10
260.85657193144237
 20
163.30000000000001
 30
0.0
 11
260.85657193144237
 21
192.0
 31
0.0
  0
LINE
  5
13C
  8
HONTAIFUKASIBU
 10
254.8565719314424
 20
163.30000000000001
 30
0.0
 11
254.8565719314424
 21
192.0
 31
0.0
  0
LINE
  5
13D
  8
HONTAI
 10
261.65657193144239
 20
148.5
 30
0.0
 11
264.85657193144237
 21
148.5
 31
0.0
  0
LINE
  5
13E
  8
HONTAI
 10
261.65657193144239
 20
273.50000000000011
 30
0.0
 11
264.85657193144237
 21
273.50000000000011
 31
0.0
  0
ARC
  5
13F
  8
HONTAI
 10
261.65657193144239
 20
258.7000000000001
 30
0.0
 40
3.2000000000000002
 50
270.0
 51
0.0
  0
ARC
  5
140
  8
HONTAI
 10
261.65657193144239
 20
163.30000000000001
 30
0.0
 40
3.2000000000000002
 50
0.0
 51
90.0
  0
ARC
  5
141
  8
HONTAI
 10
225.05657193144239
 20
166.5
 30
0.0
 40
3.2000000000000002
 50
180.0
 51
270.0
  0
ARC
  5
142
  8
HONTAI
 10
225.05657193144239
 20
255.5
 30
0.0
 40
3.2000000000000002
 50
90.0
 51
180.0
  0
LINE
  5
143
  8
HONTAI
 10
261.65657193144239
 20
273.50000000000011
 30
0.0
 11
261.65657193144239
 21
258.7000000000001
 31
0.0
  0
LINE
  5
144
  8
HONTAI
 10
261.65657193144239
 20
255.50000000000011
 30
0.0
 11
225.05657193144239
 21
255.50000000000011
 31
0.0
  0
LINE
  5
145
  8
HONTAI
 10
225.05657193144239
 20
255.50000000000011
 30
0.0
 11
225.05657193144239
 21
217.0
 31
0.0
  0
LINE
  5
146
  8
HONTAI
 10
225.05657193144239
 20
163.30000000000001
 30
0.0
 11
261.65657193144239
 21
163.30000000000001
 31
0.0
  0
LINE
  5
147
  8
HONTAI
 10
261.65657193144239
 20
163.30000000000001
 30
0.0
 11
261.65657193144239
 21
148.5
 31
0.0
  0
LINE
  5
148
  8
HONTAI
 10
264.85657193144237
 20
163.30000000000001
 30
0.0
 11
264.85657193144237
 21
148.5
 31
0.0
  0
LINE
  5
149
  8
HONTAI
 10
225.05657193144239
 20
166.50000000000011
 30
0.0
 11
261.65657193144239
 21
166.5
 31
0.0
  0
LINE
  5
14A
  8
HONTAI
 10
221.8565719314424
 20
255.5
 30
0.0
 11
221.8565719314424
 21
166.5
 31
0.0
  0
LINE
  5
14B
  8
HONTAI
 10
261.65657193144239
 20
258.7000000000001
 30
0.0
 11
225.05657193144239
 21
258.69999999999999
 31
0.0
  0
LINE
  5
14C
  8
HONTAI
 10
264.85657193144237
 20
273.50000000000011
 30
0.0
 11
264.85657193144237
 21
258.7000000000001
 31
0.0
  0
LINE
  5
14E
  8
HONTAI
 10
142.11847689902939
 20
205.0
 30
0.0
 11
142.11847689902939
 21
217.0
 31
0.0
  0
LINE
  5
14F
  8
HONTAI
 10
138.11847689902939
 20
205.0
 30
0.0
 11
142.11847689902939
 21
205.0
 31
0.0
  0
LINE
  5
150
  8
HONTAI
 10
138.11847689902939
 20
217.0
 30
0.0
 11
142.11847689902939
 21
217.0
 31
0.0
  0
LINE
  5
151
  8
HONTAI
 10
145.1184768990295
 20
221.0
 30
0.0
 11
145.1184768990295
 21
272.5
 31
0.0
  0
LINE
  5
152
  8
HONTAI
 10
138.11847689902939
 20
221.0
 30
0.0
 11
138.11847689902939
 21
217.0
 31
0.0
  0
LINE
  5
153
  8
HONTAI
 10
145.1184768990295
 20
221.0
 30
0.0
 11
138.11847689902939
 21
221.0
 31
0.0
  0
LINE
  5
154
  8
HONTAI
 10
145.1184768990295
 20
201.0
 30
0.0
 11
138.11847689902939
 21
201.0
 31
0.0
  0
LINE
  5
155
  8
HONTAIFUKASIBU
 10
144.81847689902941
 20
230.0
 30
0.0
 11
131.51847689902951
 21
230.0
 31
0.0
  0
LINE
  5
156
  8
HONTAIFUKASIBU
 10
131.51847689902951
 20
255.0
 30
0.0
 11
131.51847689902951
 21
230.0
 31
0.0
  0
LINE
  5
157
  8
HONTAIFUKASIBU
 10
144.81847689902941
 20
255.0
 30
0.0
 11
144.81847689902941
 21
230.0
 31
0.0
  0
LINE
  5
158
  8
HONTAIFUKASIBU
 10
144.81847689902941
 20
192.0
 30
0.0
 11
131.41847689902951
 21
192.0
 31
0.0
  0
LINE
  5
159
  8
HONTAIFUKASIBU
 10
144.81847689902941
 20
167.0
 30
0.0
 11
144.81847689902941
 21
192.0
 31
0.0
  0
LINE
  5
15A
  8
HONTAIFUKASIBU
 10
131.41847689902951
 20
167.0
 30
0.0
 11
131.41847689902951
 21
192.0
 31
0.0
  0
LINE
  5
15B
  8
HONTAI
 10
120.1184768990295
 20
163.5
 30
0.0
 11
145.1184768990295
 21
163.5
 31
0.0
  0
LINE
  5
15C
  8
HONTAI
 10
145.1184768990295
 20
258.5
 30
0.0
 11
120.1184768990295
 21
258.5
 31
0.0
  0
LINE
  5
15D
  8
HONTAIFUKASIBU
 10
135.11847689902939
 20
258.5
 30
0.0
 11
135.11847689902939
 21
163.5
 31
0.0
  0
LINE
  5
15E
  8
HONTAIFUKASIBU
 10
141.11847689902939
 20
258.5
 30
0.0
 11
141.11847689902939
 21
163.5
 31
0.0
  0
LINE
  5
15F
  8
CENTER
 10
138.11847689902939
 20
161.0
 30
0.0
 11
138.11847689902939
 21
261.0
 31
0.0
  0
LINE
  5
160
  8
CENTER
 10
133.6184768990293
 20
266.0
 30
0.0
 11
143.6184768990293
 21
266.0
 31
0.0
  0
CIRCLE
  5
161
  8
HONTAIFUKASIBU
 10
138.61847689902939
 20
266.0
 30
0.0
 40
2.0
  0
CIRCLE
  5
162
  8
HONTAI
 10
138.61847689902939
 20
266.0
 30
0.0
 40
1.25
  0
CIRCLE
  5
163
  8
HONTAI
 10
126.6184768990294
 20
266.0
 30
0.0
 40
1.25
  0
CIRCLE
  5
164
  8
HONTAIFUKASIBU
 10
126.6184768990294
 20
266.0
 30
0.0
 40
2.0
  0
LINE
  5
165
  8
CENTER
 10
121.6184768990293
 20
266.0
 30
0.0
 11
131.6184768990293
 21
266.0
 31
0.0
  0
LINE
  5
166
  8
CENTER
 10
126.6184768990294
 20
271.0
 30
0.0
 11
126.6184768990294
 21
261.0
 31
0.0
  0
LINE
  5
167
  8
CENTER
 10
138.61847689902939
 20
271.0
 30
0.0
 11
138.61847689902939
 21
261.0
 31
0.0
  0
CIRCLE
  5
168
  8
HONTAI
 10
138.6184768990295
 20
156.0
 30
0.0
 40
1.25
  0
CIRCLE
  5
169
  8
HONTAIFUKASIBU
 10
138.6184768990295
 20
156.0
 30
0.0
 40
2.0
  0
LINE
  5
16A
  8
CENTER
 10
133.61847689902939
 20
156.0
 30
0.0
 11
143.61847689902939
 21
156.0
 31
0.0
  0
LINE
  5
16B
  8
CENTER
 10
138.6184768990295
 20
161.0
 30
0.0
 11
138.6184768990295
 21
151.0
 31
0.0
  0
CIRCLE
  5
16C
  8
HONTAI
 10
126.6184768990294
 20
156.0
 30
0.0
 40
1.25
  0
LINE
  5
16D
  8
CENTER
 10
126.6184768990294
 20
161.0
 30
0.0
 11
126.6184768990294
 21
151.0
 31
0.0
  0
CIRCLE
  5
16E
  8
HONTAIFUKASIBU
 10
126.6184768990294
 20
156.0
 30
0.0
 40
2.0
  0
LINE
  5
16F
  8
CENTER
 10
121.6184768990294
 20
156.0
 30
0.0
 11
131.61847689902939
 21
156.0
 31
0.0
  0
LINE
  5
170
  8
HONTAIFUKASIBU
 10
120.1184768990295
 20
167.0
 30
0.0
 11
145.1184768990295
 21
167.0
 31
0.0
  0
LINE
  5
171
  8
HONTAIFUKASIBU
 10
120.1184768990295
 20
255.0
 30
0.0
 11
145.1184768990295
 21
255.0
 31
0.0
  0
LINE
  5
172
  8
HONTAIFUKASIBU
 10
120.1184768990295
 20
166.5
 30
0.0
 11
145.1184768990295
 21
166.5
 31
0.0
  0
LINE
  5
173
  8
HONTAIFUKASIBU
 10
120.1184768990295
 20
255.5
 30
0.0
 11
145.1184768990295
 21
255.5
 31
0.0
  0
LINE
  5
174
  8
HONTAIFUKASIBU
 10
107.6184768990295
 20
255.0
 30
0.0
 11
107.6184768990295
 21
167.0
 31
0.0
  0
LINE
  5
175
  8
CENTER
 10
96.618476899029474
 20
251.0
 30
0.0
 11
96.618476899029474
 21
241.0
 31
0.0
  0
LINE
  5
176
  8
CENTER
 10
96.618476899029474
 20
231.0
 30
0.0
 11
96.618476899029474
 21
221.0
 31
0.0
  0
CIRCLE
  5
177
  8
HONTAI
 10
96.618476899029474
 20
226.0
 30
0.0
 40
2.25
  0
LINE
  5
178
  8
CENTER
 10
91.618476899029474
 20
226.0
 30
0.0
 11
101.6184768990294
 21
226.0
 31
0.0
  0
LINE
  5
179
  8
CENTER
 10
91.618476899029474
 20
246.0
 30
0.0
 11
101.6184768990294
 21
246.0
 31
0.0
  0
CIRCLE
  5
17A
  8
HONTAI
 10
96.618476899029474
 20
246.0
 30
0.0
 40
2.25
  0
LINE
  5
17B
  8
CENTER
 10
96.618476899029474
 20
201.0
 30
0.0
 11
96.618476899029474
 21
191.0
 31
0.0
  0
CIRCLE
  5
17C
  8
HONTAI
 10
96.618476899029474
 20
196.0
 30
0.0
 40
2.25
  0
LINE
  5
17D
  8
CENTER
 10
91.618476899029474
 20
196.0
 30
0.0
 11
101.6184768990294
 21
196.0
 31
0.0
  0
LINE
  5
17E
  8
CENTER
 10
91.618476899029474
 20
176.0
 30
0.0
 11
101.6184768990294
 21
176.0
 31
0.0
  0
LINE
  5
17F
  8
CENTER
 10
96.618476899029474
 20
181.0
 30
0.0
 11
96.618476899029474
 21
171.0
 31
0.0
  0
CIRCLE
  5
180
  8
HONTAI
 10
96.618476899029474
 20
176.0
 30
0.0
 40
2.25
  0
LINE
  5
181
  8
HONTAI
 10
104.4184768990294
 20
255.0
 30
0.0
 11
104.4184768990294
 21
167.0
 31
0.0
  0
LINE
  5
182
  8
HONTAI
 10
92.118476899029474
 20
167.0
 30
0.0
 11
120.1184768990295
 21
167.0
 31
0.0
  0
LINE
  5
183
  8
HONTAI
 10
90.118476899029474
 20
253.0
 30
0.0
 11
90.118476899029474
 21
169.0
 31
0.0
  0
LINE
  5
184
  8
HONTAI
 10
120.1184768990295
 20
255.0
 30
0.0
 11
92.118476899029474
 21
255.0
 31
0.0
  0
LINE
  5
185
  8
HONTAI
 10
144.1184768990295
 20
273.5
 30
0.0
 11
121.1184768990295
 21
273.5
 31
0.0
  0
LINE
  5
186
  8
HONTAI
 10
145.1184768990295
 20
149.5
 30
0.0
 11
145.1184768990295
 21
201.0
 31
0.0
  0
LINE
  5
187
  8
HONTAI
 10
121.1184768990295
 20
148.5
 30
0.0
 11
144.1184768990295
 21
148.5
 31
0.0
  0
LINE
  5
188
  8
HONTAI
 10
120.1184768990295
 20
272.5
 30
0.0
 11
120.1184768990295
 21
149.5
 31
0.0
  0
DIMENSION
  5
189
  8
SUNPOU
  2
*D45
 10
282.05657193144242
 20
89.534853774388154
 30
0.0
 11
284.55657193144242
 21
91.034853774388196
 31
0.0
 70
     0
 13
272.05657193144242
 23
92.534853774388154
 33
0.0
 14
272.05657193144242
 24
89.534853774388154
 34
0.0
 50
270.0
1001
ACAD
1000
DSTYLE
1002
{
1070
   270
1070
     8
1070
   270
1070
     8
1070
   270
1070
     8
1070
   270
1070
     8
1070
   270
1070
     8
1070
    41
1040
1.0
1070
    42
1040
1.0
1070
    43
1040
0.0
1070
    44
1040
1.0
1070
    73
1070
     0
1070
    74
1070
     0
1070
    77
1070
     2
1070
    78
1070
     8
1070
   140
1040
3.0
1070
   141
1040
0.5
1070
   143
1040
0.0394
1070
   147
1040
1.0
1070
   171
1070
     4
1070
   172
1070
     1
1070
   173
1070
     1
1070
   174
1070
     1
1070
   178
1070
     4
1070
   273
1070
     8
1070
   277
1070
     6
1070
   284
1070
     8
1070
     6
1000
DOT
1070
     7
1000
DOT
1002
}
  0
DIMENSION
  5
198
  8
SUNPOU
  2
*D47
 10
282.05657193144242
 20
113.5348537743881
 30
0.0
 11
282.05657193144242
 21
117.0348537743882
 31
0.0
 70
     0
 13
272.05657193144242
 23
120.5348537743881
 33
0.0
 14
272.05657193144242
 24
113.5348537743881
 34
0.0
 50
270.0
1001
ACAD
1000
DSTYLE
1002
{
1070
   270
1070
     8
1070
   270
1070
     8
1070
   270
1070
     8
1070
   270
1070
     8
1070
   270
1070
     8
1070
    41
1040
1.0
1070
    42
1040
1.0
1070
    43
1040
0.0
1070
    44
1040
1.0
1070
    73
1070
     0
1070
    74
1070
     0
1070
    78
1070
     8
1070
   140
1040
3.0
1070
   141
1040
0.5
1070
   143
1040
0.0394
1070
   147
1040
1.0
1070
   171
1070
     4
1070
   172
1070
     1
1070
   173
1070
     1
1070
   174
1070
     1
1070
   178
1070
     4
1070
   273
1070
     8
1070
   274
1070
     4
1070
   277
1070
     6
1070
   284
1070
     8
1070
     6
1000
DOT
1070
     7
1000
DOT
1002
}
  0
DIMENSION
  5
1A8
  8
SUNPOU
  2
*D49
 10
252.25657193144249
 20
50.845880658459059
 30
0.0
 11
246.4044488264754
 21
50.845880658459059
 31
0.0
 70
   128
 13
255.4565719314424
 23
55.534853774388118
 33
0.0
 14
252.25657193144249
 24
65.534853774388125
 34
0.0
1001
ACAD
1000
DSTYLE
1002
{
1070
   270
1070
     8
1070
   270
1070
     8
1070
   270
1070
     8
1070
   270
1070
     8
1070
   270
1070
     8
1070
    41
1040
1.0
1070
    42
1040
1.0
1070
    43
1040
0.0
1070
    44
1040
1.0
1070
    73
1070
     0
1070
    74
1070
     0
1070
    78
1070
     8
1070
   140
1040
3.0
1070
   141
1040
0.5
1070
   143
1040
0.0394
1070
   147
1040
1.0
1070
   171
1070
     4
1070
   172
1070
     1
1070
   173
1070
     1
1070
   174
1070
     1
1070
   178
1070
     4
1070
   273
1070
     8
1070
   274
1070
     4
1070
   277
1070
     6
1070
   284
1070
     8
1070
     6
1000
DOT
1070
     7
1000
DOT
1002
}
  0
DIMENSION
  5
1B7
  8
SUNPOU
  2
*D51
 10
270.45657193144251
 20
42.362672170204803
 30
0.0
 11
262.9565719314424
 21
42.362672170204803
 31
0.0
 70
     0
 13
255.4565719314424
 23
55.534853774388118
 33
0.0
 14
270.45657193144251
 24
55.534853774388118
 34
0.0
1001
ACAD
1000
DSTYLE
1002
{
1070
   270
1070
     8
1070
   270
1070
     8
1070
   270
1070
     8
1070
   270
1070
     8
1070
   270
1070
     8
1070
    41
1040
1.0
1070
    42
1040
1.0
1070
    43
1040
0.0
1070
    44
1040
1.0
1070
    73
1070
     0
1070
    74
1070
     0
1070
    78
1070
     8
1070
   140
1040
3.0
1070
   141
1040
0.5
1070
   143
1040
0.0394
1070
   147
1040
1.0
1070
   171
1070
     4
1070
   172
1070
     1
1070
   173
1070
     1
1070
   174
1070
     1
1070
   178
1070
     4
1070
   273
1070
     8
1070
   274
1070
     4
1070
   277
1070
     6
1070
   284
1070
     8
1070
     6
1000
DOT
1070
     7
1000
DOT
1002
}
  0
DIMENSION
  5
1C5
  8
SUNPOU
  2
*D53
 10
255.4565719314424
 20
50.845880658459059
 30
0.0
 11
260.15657193144239
 21
50.845880658459059
 31
0.0
 70
     0
 13
264.85657193144237
 23
55.534853774388118
 33
0.0
 14
255.4565719314424
 24
55.534853774388118
 34
0.0
1001
ACAD
1000
DSTYLE
1002
{
1070
   270
1070
     8
1070
   270
1070
     8
1070
   270
1070
     8
1070
   270
1070
     8
1070
   270
1070
     8
1070
    41
1040
1.0
1070
    42
1040
1.0
1070
    43
1040
0.0
1070
    44
1040
1.0
1070
    73
1070
     0
1070
    74
1070
     0
1070
    78
1070
     8
1070
   140
1040
3.0
1070
   141
1040
0.5
1070
   143
1040
0.0394
1070
   147
1040
1.0
1070
   171
1070
     4
1070
   172
1070
     1
1070
   173
1070
     1
1070
   174
1070
     1
1070
   178
1070
     4
1070
   273
1070
     8
1070
   274
1070
     4
1070
   277
1070
     6
1070
   284
1070
     8
1070
     6
1000
DOT
1070
     7
1000
DOT
1002
}
  0
DIMENSION
  5
1D5
  8
SUNPOU
  2
*D55
 10
211.85670175781851
 20
83.034853774388125
 30
0.0
 11
211.85670175781851
 21
74.284853774388154
 31
0.0
 70
     0
  1
17
 13
221.8565719314424
 23
65.534853774388125
 33
0.0
 14
221.8565719314424
 24
83.034853774388125
 34
0.0
 50
270.0
1001
ACAD
1000
DSTYLE
1002
{
1070
   270
1070
     8
1070
   270
1070
     8
1070
   270
1070
     8
1070
   270
1070
     8
1070
   270
1070
     8
1070
    41
1040
1.0
1070
    42
1040
1.0
1070
    43
1040
0.0
1070
    44
1040
1.0
1070
    73
1070
     0
1070
    74
1070
     0
1070
    78
1070
     8
1070
   140
1040
3.0
1070
   141
1040
0.5
1070
   143
1040
0.0394
1070
   147
1040
1.0
1070
   171
1070
     4
1070
   172
1070
     1
1070
   173
1070
     1
1070
   174
1070
     1
1070
   178
1070
     4
1070
   273
1070
     8
1070
   274
1070
     4
1070
   277
1070
     6
1070
   284
1070
     8
1070
     6
1000
DOT
1070
     7
1000
DOT
1002
}
  0
DIMENSION
  5
1E3
  8
SUNPOU
  2
*D57
 10
211.865732144558
 20
95.534853774388125
 30
0.0
 11
211.86573214455791
 21
108.0348537743881
 31
0.0
 70
     0
 13
221.8565719314424
 23
120.5348537743881
 33
0.0
 14
221.8565719314424
 24
95.534853774388125
 34
0.0
 50
270.0
1001
ACAD
1000
DSTYLE
1002
{
1070
   270
1070
     8
1070
   270
1070
     8
1070
   270
1070
     8
1070
   270
1070
     8
1070
   270
1070
     8
1070
    41
1040
1.0
1070
    42
1040
1.0
1070
    43
1040
0.0
1070
    44
1040
1.0
1070
    73
1070
     0
1070
    74
1070
     0
1070
    78
1070
     8
1070
   140
1040
3.0
1070
   141
1040
0.5
1070
   143
1040
0.0394
1070
   147
1040
1.0
1070
   171
1070
     4
1070
   172
1070
     1
1070
   173
1070
     1
1070
   174
1070
     1
1070
   178
1070
     4
1070
   273
1070
     8
1070
   274
1070
     4
1070
   277
1070
     6
1070
   284
1070
     8
1070
     6
1000
DOT
1070
     7
1000
DOT
1002
}
  0
DIMENSION
  5
1F1
  8
SUNPOU
  2
*D59
 10
201.9213509768276
 20
65.534853774388125
 30
0.0
 11
201.92135097682751
 21
93.034853774388154
 31
0.0
 70
     0
 13
221.8565719314424
 23
120.5348537743881
 33
0.0
 14
221.8565719314424
 24
65.534853774388125
 34
0.0
 50
270.0
1001
ACAD
1000
DSTYLE
1002
{
1070
   270
1070
     8
1070
   270
1070
     8
1070
   270
1070
     8
1070
   270
1070
     8
1070
   270
1070
     8
1070
    41
1040
1.0
1070
    42
1040
1.0
1070
    43
1040
0.0
1070
    44
1040
1.0
1070
    73
1070
     0
1070
    74
1070
     0
1070
    78
1070
     8
1070
   140
1040
3.0
1070
   141
1040
0.5
1070
   143
1040
0.0394
1070
   147
1040
1.0
1070
   171
1070
     4
1070
   172
1070
     1
1070
   173
1070
     1
1070
   174
1070
     1
1070
   178
1070
     4
1070
   273
1070
     8
1070
   274
1070
     4
1070
   277
1070
     6
1070
   284
1070
     8
1070
     6
1000
DOT
1070
     7
1000
DOT
1002
}
  0
DIMENSION
  5
1FF
  8
SUNPOU
  2
*D61
 10
257.85657193144237
 20
127.13485377438811
 30
0.0
 11
261.35657193144237
 21
127.13485377438811
 31
0.0
 70
     0
 13
264.85657193144237
 23
122.13485377438811
 33
0.0
 14
257.85657193144237
 24
122.13485377438811
 34
0.0
1001
ACAD
1000
DSTYLE
1002
{
1070
   270
1070
     8
1070
   270
1070
     8
1070
   270
1070
     8
1070
   270
1070
     8
1070
   270
1070
     8
1070
    41
1040
1.0
1070
    42
1040
1.0
1070
    43
1040
0.0
1070
    44
1040
1.0
1070
    73
1070
     0
1070
    74
1070
     0
1070
    78
1070
     8
1070
   140
1040
3.0
1070
   141
1040
0.5
1070
   143
1040
0.0394
1070
   147
1040
1.0
1070
   171
1070
     4
1070
   172
1070
     1
1070
   173
1070
     1
1070
   174
1070
     1
1070
   178
1070
     4
1070
   273
1070
     8
1070
   274
1070
     4
1070
   277
1070
     6
1070
   284
1070
     8
1070
     6
1000
DOT
1070
     7
1000
DOT
1002
}
  0
DIMENSION
  5
20F
  8
SUNPOU
  2
*D63
 10
264.85657193144237
 20
137.13485377438809
 30
0.0
 11
243.3565719314424
 21
137.13485377438809
 31
0.0
 70
     0
 13
221.8565719314424
 23
122.13485377438811
 33
0.0
 14
264.85657193144237
 24
122.13485377438811
 34
0.0
1001
ACAD
1000
DSTYLE
1002
{
1070
   270
1070
     8
1070
   270
1070
     8
1070
   270
1070
     8
1070
   270
1070
     8
1070
   270
1070
     8
1070
    41
1040
1.0
1070
    42
1040
1.0
1070
    43
1040
0.0
1070
    44
1040
1.0
1070
    73
1070
     0
1070
    74
1070
     0
1070
    78
1070
     8
1070
   140
1040
3.0
1070
   141
1040
0.5
1070
   143
1040
0.0394
1070
   147
1040
1.0
1070
   171
1070
     4
1070
   172
1070
     1
1070
   173
1070
     1
1070
   174
1070
     1
1070
   178
1070
     4
1070
   273
1070
     8
1070
   274
1070
     4
1070
   277
1070
     6
1070
   284
1070
     8
1070
     6
1000
DOT
1070
     7
1000
DOT
1002
}
  0
DIMENSION
  5
21D
  8
SUNPOU
  2
*D65
 10
274.80306266385787
 20
273.50000000000011
 30
0.0
 11
274.80306266385782
 21
264.25000000000011
 31
0.0
 70
     0
 13
264.85657193144237
 23
255.00000000000011
 33
0.0
 14
264.85657193144237
 24
273.50000000000011
 34
0.0
 50
90.0
1001
ACAD
1000
DSTYLE
1002
{
1070
   287
1070
     4
1070
   270
1070
     8
1070
   287
1070
     4
1070
   270
1070
     8
1070
   287
1070
     4
1070
   270
1070
     8
1070
   287
1070
     4
1070
   270
1070
     8
1070
   287
1070
     4
1070
   270
1070
     8
1070
    41
1040
1.0
1070
    42
1040
1.0
1070
    43
1040
0.0
1070
    44
1040
1.0
1070
    73
1070
     0
1070
    74
1070
     0
1070
    75
1070
     1
1070
    78
1070
     8
1070
   140
1040
3.0
1070
   141
1040
0.5
1070
   143
1040
0.0394
1070
   147
1040
1.0
1070
   171
1070
     4
1070
   172
1070
     1
1070
   173
1070
     1
1070
   174
1070
     1
1070
   178
1070
     4
1070
   273
1070
     8
1070
   274
1070
     4
1070
   277
1070
     6
1070
   279
1070
     1
1070
   284
1070
     8
1070
     6
1000
DOT
1070
     7
1000
DOT
1002
}
  0
DIMENSION
  5
22A
  8
SUNPOU
  2
*D67
 10
274.80306266385787
 20
255.00000000000011
 30
0.0
 11
274.80306266385782
 21
242.50000000000011
 31
0.0
 70
     0
 13
264.85657193144237
 23
230.00000000000011
 33
0.0
 14
264.85657193144237
 24
255.00000000000011
 34
0.0
 50
90.0
1001
ACAD
1000
DSTYLE
1002
{
1070
   287
1070
     4
1070
   270
1070
     8
1070
   287
1070
     4
1070
   270
1070
     8
1070
   287
1070
     4
1070
   270
1070
     8
1070
   287
1070
     4
1070
   270
1070
     8
1070
   287
1070
     4
1070
   270
1070
     8
1070
    41
1040
1.0
1070
    42
1040
1.0
1070
    43
1040
0.0
1070
    44
1040
1.0
1070
    73
1070
     0
1070
    74
1070
     0
1070
    75
1070
     1
1070
    78
1070
     8
1070
   140
1040
3.0
1070
   141
1040
0.5
1070
   143
1040
0.0394
1070
   147
1040
1.0
1070
   171
1070
     4
1070
   172
1070
     1
1070
   173
1070
     1
1070
   174
1070
     1
1070
   178
1070
     4
1070
   273
1070
     8
1070
   274
1070
     4
1070
   277
1070
     6
1070
   279
1070
     1
1070
   284
1070
     8
1070
     6
1000
DOT
1070
     7
1000
DOT
1002
}
  0
DIMENSION
  5
237
  8
SUNPOU
  2
*D69
 10
274.80306266385787
 20
230.00000000000011
 30
0.0
 11
274.80306266385782
 21
211.00000000000011
 31
0.0
 70
     0
 13
264.85657193144237
 23
192.0
 33
0.0
 14
264.85657193144237
 24
230.00000000000011
 34
0.0
 50
90.0
1001
ACAD
1000
DSTYLE
1002
{
1070
   287
1070
     4
1070
   270
1070
     8
1070
   287
1070
     4
1070
   270
1070
     8
1070
   287
1070
     4
1070
   270
1070
     8
1070
   287
1070
     4
1070
   270
1070
     8
1070
   287
1070
     4
1070
   270
1070
     8
1070
    41
1040
1.0
1070
    42
1040
1.0
1070
    43
1040
0.0
1070
    44
1040
1.0
1070
    73
1070
     0
1070
    74
1070
     0
1070
    75
1070
     1
1070
    78
1070
     8
1070
   140
1040
3.0
1070
   141
1040
0.5
1070
   143
1040
0.0394
1070
   147
1040
1.0
1070
   171
1070
     4
1070
   172
1070
     1
1070
   173
1070
     1
1070
   174
1070
     1
1070
   178
1070
     4
1070
   273
1070
     8
1070
   274
1070
     4
1070
   277
1070
     6
1070
   279
1070
     1
1070
   284
1070
     8
1070
     6
1000
DOT
1070
     7
1000
DOT
1002
}
  0
DIMENSION
  5
244
  8
SUNPOU
  2
*D71
 10
274.80306266385787
 20
192.0
 30
0.0
 11
274.80306266385782
 21
179.5
 31
0.0
 70
     0
 13
264.85657193144237
 23
167.0
 33
0.0
 14
264.85657193144237
 24
192.0
 34
0.0
 50
90.0
1001
ACAD
1000
DSTYLE
1002
{
1070
   287
1070
     4
1070
   270
1070
     8
1070
   287
1070
     4
1070
   270
1070
     8
1070
   287
1070
     4
1070
   270
1070
     8
1070
   287
1070
     4
1070
   270
1070
     8
1070
   287
1070
     4
1070
   270
1070
     8
1070
    41
1040
1.0
1070
    42
1040
1.0
1070
    43
1040
0.0
1070
    44
1040
1.0
1070
    73
1070
     0
1070
    74
1070
     0
1070
    75
1070
     1
1070
    78
1070
     8
1070
   140
1040
3.0
1070
   141
1040
0.5
1070
   143
1040
0.0394
1070
   147
1040
1.0
1070
   171
1070
     4
1070
   172
1070
     1
1070
   173
1070
     1
1070
   174
1070
     1
1070
   178
1070
     4
1070
   273
1070
     8
1070
   274
1070
     4
1070
   277
1070
     6
1070
   279
1070
     1
1070
   284
1070
     8
1070
     6
1000
DOT
1070
     7
1000
DOT
1002
}
  0
DIMENSION
  5
251
  8
SUNPOU
  2
*D73
 10
274.80306266385787
 20
167.0
 30
0.0
 11
274.80306266385782
 21
157.75000000000011
 31
0.0
 70
     0
 13
264.85657193144237
 23
148.5
 33
0.0
 14
264.85657193144237
 24
167.0
 34
0.0
 50
90.0
1001
ACAD
1000
DSTYLE
1002
{
1070
   270
1070
     8
1070
   270
1070
     8
1070
   270
1070
     8
1070
   270
1070
     8
1070
   270
1070
     8
1070
    41
1040
1.0
1070
    42
1040
1.0
1070
    43
1040
0.0
1070
    44
1040
1.0
1070
    73
1070
     0
1070
    74
1070
     0
1070
    78
1070
     8
1070
   140
1040
3.0
1070
   141
1040
0.5
1070
   143
1040
0.0394
1070
   147
1040
1.0
1070
   171
1070
     4
1070
   172
1070
     1
1070
   173
1070
     1
1070
   174
1070
     1
1070
   178
1070
     4
1070
   273
1070
     8
1070
   274
1070
     4
1070
   277
1070
     6
1070
   284
1070
     8
1070
     6
1000
DOT
1070
     7
1000
DOT
1002
}
  0
DIMENSION
  5
25F
  8
SUNPOU
  2
*D75
 10
145.1184768990295
 20
128.55808632024099
 30
0.0
 11
132.6184768990295
 21
128.55808632024099
 31
0.0
 70
     0
 13
120.1184768990295
 23
148.5
 33
0.0
 14
145.1184768990295
 24
148.5
 34
0.0
1001
ACAD
1000
DSTYLE
1002
{
1070
   270
1070
     8
1070
   270
1070
     8
1070
   270
1070
     8
1070
   270
1070
     8
1070
   270
1070
     8
1070
    41
1040
1.0
1070
    42
1040
1.0
1070
    43
1040
0.0
1070
    44
1040
1.0
1070
    73
1070
     0
1070
    74
1070
     0
1070
    78
1070
     8
1070
   140
1040
3.0
1070
   141
1040
0.5
1070
   143
1040
0.0394
1070
   147
1040
1.0
1070
   171
1070
     4
1070
   172
1070
     1
1070
   173
1070
     1
1070
   174
1070
     1
1070
   178
1070
     4
1070
   273
1070
     8
1070
   274
1070
     4
1070
   277
1070
     6
1070
   284
1070
     8
1070
     6
1000
DOT
1070
     7
1000
DOT
1002
}
  0
DIMENSION
  5
26D
  8
SUNPOU
  2
*D77
 10
145.1184768990295
 20
139.04476198520661
 30
0.0
 11
141.8684768990295
 21
132.04476198520661
 31
0.0
 70
     0
 13
138.6184768990295
 23
148.5
 33
0.0
 14
145.1184768990295
 24
148.5
 34
0.0
1001
ACAD
1000
DSTYLE
1002
{
1070
   270
1070
     8
1070
   270
1070
     8
1070
   270
1070
     8
1070
   270
1070
     8
1070
   270
1070
     8
1070
    41
1040
1.0
1070
    42
1040
1.0
1070
    43
1040
0.0
1070
    44
1040
1.0
1070
    73
1070
     0
1070
    74
1070
     0
1070
    78
1070
     8
1070
   140
1040
3.0
1070
   141
1040
0.5
1070
   143
1040
0.0394
1070
   147
1040
1.0
1070
   171
1070
     4
1070
   172
1070
     1
1070
   173
1070
     1
1070
   178
1070
     4
1070
   273
1070
     8
1070
   274
1070
     4
1070
   277
1070
     6
1070
   284
1070
     8
1070
     6
1000
DOT
1070
     7
1000
DOT
1002
}
  0
DIMENSION
  5
27A
  8
SUNPOU
  2
*D79
 10
138.6184768990295
 20
139.04476198520661
 30
0.0
 11
132.6184768990295
 21
139.04476198520661
 31
0.0
 70
     0
 13
126.6184768990294
 23
148.5
 33
0.0
 14
138.6184768990295
 24
148.5
 34
0.0
1001
ACAD
1000
DSTYLE
1002
{
1070
   287
1070
     4
1070
   270
1070
     8
1070
   287
1070
     4
1070
   270
1070
     8
1070
   287
1070
     4
1070
   270
1070
     8
1070
   287
1070
     4
1070
   270
1070
     8
1070
   287
1070
     4
1070
   270
1070
     8
1070
    41
1040
1.0
1070
    42
1040
1.0
1070
    43
1040
0.0
1070
    44
1040
1.0
1070
    73
1070
     0
1070
    74
1070
     0
1070
    75
1070
     1
1070
    78
1070
     8
1070
   140
1040
3.0
1070
   141
1040
0.5
1070
   143
1040
0.0394
1070
   147
1040
1.0
1070
   171
1070
     4
1070
   172
1070
     1
1070
   173
1070
     1
1070
   174
1070
     1
1070
   178
1070
     4
1070
   273
1070
     8
1070
   274
1070
     4
1070
   277
1070
     6
1070
   279
1070
     1
1070
   284
1070
     8
1070
     6
1000
DOT
1070
     7
1000
DOT
1002
}
  0
DIMENSION
  5
287
  8
SUNPOU
  2
*D81
 10
126.6184768990294
 20
139.04476198520661
 30
0.0
 11
123.3684768990294
 21
132.04476198520661
 31
0.0
 70
     0
 13
120.1184768990295
 23
148.5
 33
0.0
 14
126.6184768990294
 24
148.5
 34
0.0
1001
ACAD
1000
DSTYLE
1002
{
1070
   270
1070
     8
1070
   270
1070
     8
1070
   270
1070
     8
1070
   270
1070
     8
1070
   270
1070
     8
1070
    41
1040
1.0
1070
    42
1040
1.0
1070
    43
1040
0.0
1070
    44
1040
1.0
1070
    73
1070
     0
1070
    74
1070
     0
1070
    78
1070
     8
1070
   140
1040
3.0
1070
   141
1040
0.5
1070
   143
1040
0.0394
1070
   147
1040
1.0
1070
   171
1070
     4
1070
   172
1070
     1
1070
   173
1070
     1
1070
   178
1070
     4
1070
   273
1070
     8
1070
   274
1070
     4
1070
   277
1070
     6
1070
   280
1070
     1
1070
   284
1070
     8
1070
     6
1000
DOT
1070
     7
1000
DOT
1002
}
  0
DIMENSION
  5
294
  8
SUNPOU
  2
*D83
 10
70.120470166545374
 20
255.0
 30
0.0
 11
70.120470166545331
 21
211.0
 31
0.0
 70
     0
 13
90.118476899029474
 23
167.0
 33
0.0
 14
90.118476899029474
 24
255.0
 34
0.0
 50
90.0
1001
ACAD
1000
DSTYLE
1002
{
1070
   270
1070
     8
1070
   270
1070
     8
1070
   270
1070
     8
1070
   270
1070
     8
1070
   270
1070
     8
1070
    41
1040
1.0
1070
    42
1040
1.0
1070
    43
1040
0.0
1070
    44
1040
1.0
1070
    73
1070
     0
1070
    74
1070
     0
1070
    78
1070
     8
1070
   140
1040
3.0
1070
   141
1040
0.5
1070
   143
1040
0.0394
1070
   147
1040
1.0
1070
   171
1070
     4
1070
   172
1070
     1
1070
   173
1070
     1
1070
   174
1070
     1
1070
   178
1070
     4
1070
   273
1070
     8
1070
   274
1070
     4
1070
   277
1070
     6
1070
   284
1070
     8
1070
     6
1000
DOT
1070
     7
1000
DOT
1002
}
  0
DIMENSION
  5
2A2
  8
SUNPOU
  2
*D85
 10
80.121202343534321
 20
255.0
 30
0.0
 11
80.121202343534279
 21
250.5
 31
0.0
 70
     0
 13
90.118476899029474
 23
246.0
 33
0.0
 14
90.118476899029474
 24
255.0
 34
0.0
 50
90.0
1001
ACAD
1000
DSTYLE
1002
{
1070
   287
1070
     4
1070
   270
1070
     8
1070
   287
1070
     4
1070
   270
1070
     8
1070
   287
1070
     4
1070
   270
1070
     8
1070
   287
1070
     4
1070
   270
1070
     8
1070
   287
1070
     4
1070
   270
1070
     8
1070
    41
1040
1.0
1070
    42
1040
1.0
1070
    43
1040
0.0
1070
    44
1040
1.0
1070
    73
1070
     0
1070
    74
1070
     0
1070
    75
1070
     1
1070
    78
1070
     8
1070
   140
1040
3.0
1070
   141
1040
0.5
1070
   143
1040
0.0394
1070
   147
1040
1.0
1070
   171
1070
     4
1070
   172
1070
     1
1070
   173
1070
     1
1070
   174
1070
     1
1070
   178
1070
     4
1070
   273
1070
     8
1070
   274
1070
     4
1070
   277
1070
     6
1070
   279
1070
     1
1070
   284
1070
     8
1070
     6
1000
DOT
1070
     7
1000
DOT
1002
}
  0
DIMENSION
  5
2AF
  8
SUNPOU
  2
*D87
 10
80.121202343534321
 20
246.0
 30
0.0
 11
80.121202343534279
 21
236.0
 31
0.0
 70
     0
 13
90.118476899029474
 23
226.0
 33
0.0
 14
90.118476899029474
 24
246.0
 34
0.0
 50
90.0
1001
ACAD
1000
DSTYLE
1002
{
1070
   287
1070
     4
1070
   270
1070
     8
1070
   287
1070
     4
1070
   270
1070
     8
1070
   287
1070
     4
1070
   270
1070
     8
1070
   287
1070
     4
1070
   270
1070
     8
1070
   287
1070
     4
1070
   270
1070
     8
1070
    41
1040
1.0
1070
    42
1040
1.0
1070
    43
1040
0.0
1070
    44
1040
1.0
1070
    73
1070
     0
1070
    74
1070
     0
1070
    75
1070
     1
1070
    78
1070
     8
1070
   140
1040
3.0
1070
   141
1040
0.5
1070
   143
1040
0.0394
1070
   147
1040
1.0
1070
   171
1070
     4
1070
   172
1070
     1
1070
   173
1070
     1
1070
   174
1070
     1
1070
   178
1070
     4
1070
   273
1070
     8
1070
   274
1070
     4
1070
   277
1070
     6
1070
   279
1070
     1
1070
   284
1070
     8
1070
     6
1000
DOT
1070
     7
1000
DOT
1002
}
  0
DIMENSION
  5
2BC
  8
SUNPOU
  2
*D89
 10
80.121202343534264
 20
226.0
 30
0.0
 11
80.121202343534236
 21
211.0
 31
0.0
 70
     0
 13
90.118476899029474
 23
196.0
 33
0.0
 14
90.118476899029474
 24
226.0
 34
0.0
 50
90.0
1001
ACAD
1000
DSTYLE
1002
{
1070
   287
1070
     4
1070
   270
1070
     8
1070
   287
1070
     4
1070
   270
1070
     8
1070
   287
1070
     4
1070
   270
1070
     8
1070
   287
1070
     4
1070
   270
1070
     8
1070
   287
1070
     4
1070
   270
1070
     8
1070
    41
1040
1.0
1070
    42
1040
1.0
1070
    43
1040
0.0
1070
    44
1040
1.0
1070
    73
1070
     0
1070
    74
1070
     0
1070
    75
1070
     1
1070
    78
1070
     8
1070
   140
1040
3.0
1070
   141
1040
0.5
1070
   143
1040
0.0394
1070
   147
1040
1.0
1070
   171
1070
     4
1070
   172
1070
     1
1070
   173
1070
     1
1070
   174
1070
     1
1070
   178
1070
     4
1070
   273
1070
     8
1070
   274
1070
     4
1070
   277
1070
     6
1070
   279
1070
     1
1070
   284
1070
     8
1070
     6
1000
DOT
1070
     7
1000
DOT
1002
}
  0
DIMENSION
  5
2C9
  8
SUNPOU
  2
*D91
 10
80.121202343534264
 20
196.0
 30
0.0
 11
80.121202343534236
 21
186.0
 31
0.0
 70
     0
 13
90.118476899029474
 23
176.0
 33
0.0
 14
90.118476899029474
 24
196.0
 34
0.0
 50
90.0
1001
ACAD
1000
DSTYLE
1002
{
1070
   287
1070
     4
1070
   270
1070
     8
1070
   287
1070
     4
1070
   270
1070
     8
1070
   287
1070
     4
1070
   270
1070
     8
1070
   287
1070
     4
1070
   270
1070
     8
1070
   287
1070
     4
1070
   270
1070
     8
1070
    41
1040
1.0
1070
    42
1040
1.0
1070
    43
1040
0.0
1070
    44
1040
1.0
1070
    73
1070
     0
1070
    74
1070
     0
1070
    75
1070
     1
1070
    78
1070
     8
1070
   140
1040
3.0
1070
   141
1040
0.5
1070
   143
1040
0.0394
1070
   147
1040
1.0
1070
   171
1070
     4
1070
   172
1070
     1
1070
   173
1070
     1
1070
   174
1070
     1
1070
   178
1070
     4
1070
   273
1070
     8
1070
   274
1070
     4
1070
   277
1070
     6
1070
   279
1070
     1
1070
   284
1070
     8
1070
     6
1000
DOT
1070
     7
1000
DOT
1002
}
  0
DIMENSION
  5
2D6
  8
SUNPOU
  2
*D93
 10
80.121202343534264
 20
176.0
 30
0.0
 11
80.121202343534236
 21
171.5
 31
0.0
 70
     0
 13
90.118476899029474
 23
167.0
 33
0.0
 14
90.118476899029474
 24
176.0
 34
0.0
 50
90.0
1001
ACAD
1000
DSTYLE
1002
{
1070
   270
1070
     8
1070
   270
1070
     8
1070
   270
1070
     8
1070
   270
1070
     8
1070
   270
1070
     8
1070
    41
1040
1.0
1070
    42
1040
1.0
1070
    43
1040
0.0
1070
    44
1040
1.0
1070
    73
1070
     0
1070
    74
1070
     0
1070
    78
1070
     8
1070
   140
1040
3.0
1070
   141
1040
0.5
1070
   143
1040
0.0394
1070
   147
1040
1.0
1070
   171
1070
     4
1070
   172
1070
     1
1070
   173
1070
     1
1070
   174
1070
     1
1070
   178
1070
     4
1070
   273
1070
     8
1070
   274
1070
     4
1070
   277
1070
     6
1070
   284
1070
     8
1070
     6
1000
DOT
1070
     7
1000
DOT
1002
}
  0
DIMENSION
  5
2E4
  8
SUNPOU
  2
*D95
 10
163.60107330119229
 20
273.5
 30
0.0
 11
163.6010733011922
 21
211.00000000000011
 31
0.0
 70
     0
 13
145.1184768990295
 23
148.5
 33
0.0
 14
145.1184768990295
 24
273.5
 34
0.0
 50
90.0
1001
ACAD
1000
DSTYLE
1002
{
1070
   270
1070
     8
1070
   270
1070
     8
1070
   270
1070
     8
1070
   270
1070
     8
1070
   270
1070
     8
1070
    41
1040
1.0
1070
    42
1040
1.0
1070
    43
1040
0.0
1070
    44
1040
1.0
1070
    73
1070
     0
1070
    74
1070
     0
1070
    78
1070
     8
1070
   140
1040
3.0
1070
   141
1040
0.5
1070
   143
1040
0.0394
1070
   147
1040
1.0
1070
   171
1070
     4
1070
   172
1070
     1
1070
   173
1070
     1
1070
   174
1070
     1
1070
   178
1070
     4
1070
   273
1070
     8
1070
   274
1070
     4
1070
   277
1070
     6
1070
   284
1070
     8
1070
     6
1000
DOT
1070
     7
1000
DOT
1002
}
  0
DIMENSION
  5
2F2
  8
SUNPOU
  2
*D97
 10
155.02835553854879
 20
273.5
 30
0.0
 11
152.52835553854879
 21
269.75000000000011
 31
0.0
 70
     0
 13
145.1184768990295
 23
266.0
 33
0.0
 14
145.1184768990295
 24
273.5
 34
0.0
 50
90.0
1001
ACAD
1000
DSTYLE
1002
{
1070
   270
1070
     8
1070
   270
1070
     8
1070
   270
1070
     8
1070
   270
1070
     8
1070
   270
1070
     8
1070
    41
1040
1.0
1070
    42
1040
1.0
1070
    43
1040
0.0
1070
    44
1040
1.0
1070
    73
1070
     0
1070
    74
1070
     0
1070
    75
1070
     1
1070
    77
1070
     1
1070
    78
1070
     8
1070
   140
1040
3.0
1070
   141
1040
0.5
1070
   143
1040
0.0394
1070
   147
1040
1.0
1070
   171
1070
     4
1070
   172
1070
     1
1070
   173
1070
     1
1070
   174
1070
     1
1070
   178
1070
     4
1070
   273
1070
     8
1070
   274
1070
     4
1070
   277
1070
     6
1070
   284
1070
     8
1070
     6
1000
DOT
1070
     7
1000
DOT
1002
}
  0
DIMENSION
  5
300
  8
SUNPOU
  2
*D99
 10
155.02835553854879
 20
266.0
 30
0.0
 11
155.02835553854879
 21
211.0
 31
0.0
 70
     0
 13
145.1184768990295
 23
156.0
 33
0.0
 14
145.1184768990295
 24
266.0
 34
0.0
 50
90.0
1001
ACAD
1000
DSTYLE
1002
{
1070
   287
1070
     4
1070
   270
1070
     8
1070
   287
1070
     4
1070
   270
1070
     8
1070
   287
1070
     4
1070
   270
1070
     8
1070
   287
1070
     4
1070
   270
1070
     8
1070
   287
1070
     4
1070
   270
1070
     8
1070
    41
1040
1.0
1070
    42
1040
1.0
1070
    43
1040
0.0
1070
    44
1040
1.0
1070
    73
1070
     0
1070
    74
1070
     0
1070
    75
1070
     1
1070
    78
1070
     8
1070
   140
1040
3.0
1070
   141
1040
0.5
1070
   143
1040
0.0394
1070
   147
1040
1.0
1070
   171
1070
     4
1070
   172
1070
     1
1070
   173
1070
     1
1070
   174
1070
     1
1070
   178
1070
     4
1070
   273
1070
     8
1070
   274
1070
     4
1070
   277
1070
     6
1070
   279
1070
     1
1070
   284
1070
     8
1070
     6
1000
DOT
1070
     7
1000
DOT
1002
}
  0
DIMENSION
  5
30D
  8
SUNPOU
  2
*D101
 10
155.02835553854879
 20
156.0
 30
0.0
 11
152.52835553854879
 21
152.25
 31
0.0
 70
     0
 13
145.1184768990295
 23
148.5
 33
0.0
 14
145.1184768990295
 24
156.0
 34
0.0
 50
90.0
1001
ACAD
1000
DSTYLE
1002
{
1070
   270
1070
     8
1070
   270
1070
     8
1070
   270
1070
     8
1070
   270
1070
     8
1070
   270
1070
     8
1070
    41
1040
1.0
1070
    42
1040
1.0
1070
    43
1040
0.0
1070
    44
1040
1.0
1070
    73
1070
     0
1070
    74
1070
     0
1070
    77
1070
     1
1070
    78
1070
     8
1070
   140
1040
3.0
1070
   141
1040
0.5
1070
   143
1040
0.0394
1070
   147
1040
1.0
1070
   171
1070
     4
1070
   172
1070
     1
1070
   173
1070
     1
1070
   174
1070
     1
1070
   178
1070
     4
1070
   273
1070
     8
1070
   274
1070
     4
1070
   277
1070
     6
1070
   284
1070
     8
1070
     6
1000
DOT
1070
     7
1000
DOT
1002
}
  0
LINE
  5
31C
  8
CENTER
 10
257.85657193144237
 20
263.50000000000011
 30
0.0
 11
257.85657193144237
 21
158.5
 31
0.0
  0
POLYLINE
  5
31D
  8
DEFPOINTS
 66
     1
 10
0.0
 20
0.0
 30
0.0
 70
     1
  0
VERTEX
  5
B34
  8
DEFPOINTS
 10
0.0
 20
297.00000000000023
 30
0.0
  0
VERTEX
  5
B35
  8
DEFPOINTS
 10
419.99999999999977
 20
297.00000000000023
 30
0.0
  0
VERTEX
  5
B36
  8
DEFPOINTS
 10
420.0
 20
0.0000000000001705
 30
0.0
  0
VERTEX
  5
B37
  8
DEFPOINTS
 10
0.0
 20
0.0
 30
0.0
  0
SEQEND
  5
B38
  8
DEFPOINTS
  0
TEXT
  5
320
  8
TEXT
 10
394.13499999999999
 20
41.69999999999996
 30
0.0
 40
2.9249999999999989
  1
〃
 72
     1
 11
395.5
 21
41.69999999999996
 31
0.0
  0
TEXT
  5
321
  8
TEXT
 10
394.13499999999999
 20
35.69999999999996
 30
0.0
 40
2.9249999999999989
  1
〃
 72
     1
 11
395.5
 21
35.69999999999996
 31
0.0
  0
POLYLINE
  5
322
  8
ZUWAKU
 66
     1
 10
0.0
 20
0.0
 30
0.0
 40
0.3
 41
0.3
  0
VERTEX
  5
B39
  8
ZUWAKU
 10
408.0
 20
57.999999999999943
 30
0.0
  0
VERTEX
  5
B3A
  8
ZUWAKU
 10
303.0
 20
57.99999999999995
 30
0.0
  0
VERTEX
  5
B3B
  8
ZUWAKU
 10
303.0
 20
33.99999999999995
 30
0.0
  0
SEQEND
  5
B3C
  8
ZUWAKU
  0
POLYLINE
  5
324
  8
ZUWAKU
 66
     1
 10
0.0
 20
0.0
 30
0.0
 40
0.3
 41
0.3
  0
VERTEX
  5
B3D
  8
ZUWAKU
 10
353.0
 20
57.99999999999995
 30
0.0
  0
VERTEX
  5
B3E
  8
ZUWAKU
 10
353.0
 20
33.99999999999995
 30
0.0
  0
SEQEND
  5
B3F
  8
ZUWAKU
  0
POLYLINE
  5
325
  8
ZUWAKU
 66
     1
 10
0.0
 20
0.0
 30
0.0
 40
0.3
 41
0.3
  0
VERTEX
  5
B40
  8
ZUWAKU
 10
383.0
 20
57.999999999999943
 30
0.0
  0
VERTEX
  5
B41
  8
ZUWAKU
 10
383.0
 20
33.99999999999995
 30
0.0
  0
SEQEND
  5
B42
  8
ZUWAKU
  0
POLYLINE
  5
326
  8
ZUWAKU
 66
     1
 10
0.0
 20
0.0
 30
0.0
 40
0.3
 41
0.3
  0
VERTEX
  5
B43
  8
ZUWAKU
 10
363.0
 20
57.999999999999943
 30
0.0
  0
VERTEX
  5
B44
  8
ZUWAKU
 10
363.0
 20
33.99999999999995
 30
0.0
  0
SEQEND
  5
B45
  8
ZUWAKU
  0
POLYLINE
  5
327
  8
ZUWAKU
 66
     1
 10
0.0
 20
0.0
 30
0.0
 40
0.3
 41
0.3
  0
VERTEX
  5
B46
  8
ZUWAKU
 10
313.0
 20
57.99999999999995
 30
0.0
  0
VERTEX
  5
B47
  8
ZUWAKU
 10
313.0
 20
33.99999999999995
 30
0.0
  0
SEQEND
  5
B48
  8
ZUWAKU
  0
POLYLINE
  5
328
  8
ZUWAKU
 66
     1
 10
0.0
 20
0.0
 30
0.0
 40
0.3
 41
0.3
  0
VERTEX
  5
B49
  8
ZUWAKU
 10
408.0
 20
39.999999999999943
 30
0.0
  0
VERTEX
  5
B4A
  8
ZUWAKU
 10
303.0
 20
39.999999999999943
 30
0.0
  0
SEQEND
  5
B4B
  8
ZUWAKU
  0
TEXT
  5
32A
  8
TEXT
 10
367.14999999999998
 20
47.699999999999953
 30
0.0
 40
2.9249999999999989
  1
SWCH
 72
     1
 11
373.0
 21
47.699999999999953
 31
0.0
  0
TEXT
  5
32B
  8
TEXT
 10
357.51249999999999
 20
47.699999999999953
 30
0.0
 40
2.9249999999999989
  1
1
 72
     1
 11
358.0
 21
47.699999999999953
 31
0.0
  0
TEXT
  5
32C
  8
TEXT
 10
367.63749999999999
 20
41.699999999999939
 30
0.0
 40
2.9249999999999989
  1
SPHC
 72
     1
 11
373.0
 21
41.699999999999939
 31
0.0
  0
TEXT
  5
32D
  8
TEXT
 10
371.63499999999999
 20
35.699999999999953
 30
0.0
 40
2.9249999999999989
  1
〃
 72
     1
 11
373.0
 21
35.699999999999953
 31
0.0
  0
TEXT
  5
32F
  8
TEXT
 10
384.61000000000001
 20
47.499999999999943
 30
0.0
 40
3.0
  1
ジンクロメート
 41
0.9
 72
     1
 11
395.5
 21
47.499999999999943
 31
0.0
  0
TEXT
  5
331
  8
TEXT
 10
314.5
 20
41.699999999999939
 30
0.0
 40
2.9249999999999989
  1
扉側羽根
  0
TEXT
  5
332
  8
TEXT
 10
314.5
 20
35.699999999999953
 30
0.0
 40
2.9249999999999989
  1
枠側羽根
  0
TEXT
  5
333
  8
TEXT
 10
314.5
 20
47.699999999999953
 30
0.0
 40
2.9249999999999989
  1
軸芯
  0
POLYLINE
  5
334
  8
ZUWAKU
 66
     1
 10
0.0
 20
0.0
 30
0.0
 40
0.3
 41
0.3
  0
VERTEX
  5
B4C
  8
ZUWAKU
 10
408.0
 20
51.999999999999943
 30
0.0
  0
VERTEX
  5
B4D
  8
ZUWAKU
 10
303.0
 20
51.99999999999995
 30
0.0
  0
SEQEND
  5
B4E
  8
ZUWAKU
  0
POLYLINE
  5
335
  8
ZUWAKU
 66
     1
 10
0.0
 20
0.0
 30
0.0
 40
0.3
 41
0.3
  0
VERTEX
  5
B4F
  8
ZUWAKU
 10
408.0
 20
45.999999999999943
 30
0.0
  0
VERTEX
  5
B50
  8
ZUWAKU
 10
303.0
 20
45.999999999999943
 30
0.0
  0
SEQEND
  5
B51
  8
ZUWAKU
  0
TEXT
  5
336
  8
TEXT
 10
357.51249999999999
 20
35.699999999999953
 30
0.0
 40
2.9249999999999989
  1
1
 72
     1
 11
358.0
 21
35.699999999999953
 31
0.0
  0
TEXT
  5
337
  8
TEXT
 10
357.51249999999999
 20
41.699999999999939
 30
0.0
 40
2.9249999999999989
  1
1
 72
     1
 11
358.0
 21
41.699999999999939
 31
0.0
  0
TEXT
  5
338
  8
TEXT
 10
334.22500000000002
 20
13.87500000000002
 30
0.0
 40
3.25
  1
スプリングヒンジ
 72
     1
 11
349.5
 21
13.87500000000002
 31
0.0
  0
TEXT
  5
339
  8
TEXT
 10
215.42500000000001
 20
22.375000000000021
 30
0.0
 40
3.25
  1
1：1
 72
     1
 11
219.0
 21
22.375000000000021
 31
0.0
  0
TEXT
  5
33A
  8
TEXT
 10
348.0
 20
280.03750000000019
 30
0.0
 40
3.25
  1
File_No.
  0
INSERT
  5
33B
  8
ZUWAKU
  2
WAKU
 10
0.0
 20
0.0
 30
0.0
  0
TEXT
  5
6DC
  8
TEXT
 10
260.04166666666669
 20
13.87500000000002
 30
0.0
 40
3.25
  1
図示による
 72
     1
 11
269.25
 21
13.87500000000002
 31
0.0
  0
TEXT
  5
6DD
  8
TEXT
 10
260.04166666666669
 20
22.375000000000021
 30
0.0
 40
3.25
  1
図示による
 72
     1
 11
269.25
 21
22.375000000000021
 31
0.0
  0
TEXT
  5
6DE
  8
TEXT
 10
211.5
 20
13.875000000000149
 30
0.0
 40
2.5
  1
2017/1/24
  0
ARC
  5
6ED
  8
HONTAI
 10
144.1184768990295
 20
272.5
 30
0.0
 40
1.0
 50
0.0
 51
90.0
  0
ARC
  5
6EF
  8
HONTAI
 10
121.1184768990295
 20
272.5
 30
0.0
 40
1.0
 50
90.0
 51
180.0
  0
ARC
  5
6F0
  8
HONTAI
 10
121.1184768990295
 20
149.5
 30
0.0
 40
1.0
 50
180.0
 51
270.0
  0
ARC
  5
6F1
  8
HONTAI
 10
144.1184768990295
 20
149.5
 30
0.0
 40
1.0
 50
270.0
 51
0.0
  0
ARC
  5
6F2
  8
HONTAI
 10
92.118476899029474
 20
169.0
 30
0.0
 40
2.0
 50
180.0
 51
270.0
  0
ARC
  5
6F3
  8
HONTAI
 10
92.118476899029474
 20
253.0
 30
0.0
 40
2.0
 50
90.0
 51
180.0
  0
TEXT
  5
729
  8
TEXT
 10
26.99999999999984
 20
38.000000000000163
 30
0.0
 40
3.25
  1
※取付ビスは別途ご用意ください
  0
POLYLINE
  5
757
  8
DEFPOINTS
 66
     1
 10
0.0
 20
0.0
 30
0.0
 70
     1
  0
VERTEX
  5
E06
  8
DEFPOINTS
 10
419.99999999999977
 20
297.00000000000023
 30
0.0
  0
VERTEX
  5
E07
  8
DEFPOINTS
 10
439.99999999999977
 20
297.00000000000023
 30
0.0
  0
VERTEX
  5
E08
  8
DEFPOINTS
 10
419.99999999999977
 20
297.00000000000023
 30
0.0
  0
VERTEX
  5
E09
  8
DEFPOINTS
 10
419.99999999999977
 20
317.00000000000023
 30
0.0
  0
SEQEND
  5
E0A
  8
DEFPOINTS
  0
POLYLINE
  5
758
  8
DEFPOINTS
 66
     1
 10
0.0
 20
0.0
 30
0.0
 70
     1
  0
VERTEX
  5
E0B
  8
DEFPOINTS
 10
0.0
 20
0.0
 30
0.0
  0
VERTEX
  5
E0C
  8
DEFPOINTS
 10
-20.0
 20
0.0
 30
0.0
  0
VERTEX
  5
E0D
  8
DEFPOINTS
 10
0.0
 20
0.0
 30
0.0
  0
VERTEX
  5
E0E
  8
DEFPOINTS
 10
0.0
 20
-20.0
 30
0.0
  0
SEQEND
  5
E0F
  8
DEFPOINTS
  0
TEXT
  5
7A7
  8
TEXT
 10
372.5
 20
280.03750000000019
 30
0.0
 40
3.25
  1
H01-006-11
  0
LINE
  5
871
  8
HONTAIFUKASIBU
 10
260.85657193144237
 20
230.0
 30
0.0
 11
260.85657193144237
 21
258.7000000000001
 31
0.0
  0
LINE
  5
872
  8
HONTAIFUKASIBU
 10
254.8565719314424
 20
230.0
 30
0.0
 11
254.8565719314424
 21
258.7000000000001
 31
0.0
  0
LINE
  5
873
  8
HONTAI
 10
260.85657193144237
 20
192.0
 30
0.0
 11
260.85657193144237
 21
230.0
 31
0.0
  0
LINE
  5
874
  8
HONTAI
 10
254.8565719314424
 20
192.0
 30
0.0
 11
254.8565719314424
 21
230.0
 31
0.0
  0
DIMENSION
  5
875
  8
SUNPOU
  2
*D37
 10
260.85657193144237
 20
211.0
 30
0.0
 11
257.85657193144237
 21
213.5
 31
0.0
 70
     0
  1
<>\U+03C6
 13
254.8565719314424
 23
211.0
 33
0.0
 14
260.85657193144237
 24
211.0
 34
0.0
1001
ACAD
1000
DSTYLE
1002
{
1070
   287
1070
     3
1070
   174
1070
     1
1070
    77
1070
     1
1070
    73
1070
     0
1070
    41
1040
1.0
1070
    42
1040
1.0
1070
    43
1040
0.0
1070
    44
1040
1.0
1070
    78
1070
     8
1070
   140
1040
3.0
1070
   141
1040
0.5
1070
   143
1040
0.0394
1070
   147
1040
1.0
1070
   171
1070
     4
1070
   172
1070
     1
1070
   173
1070
     1
1070
   178
1070
     4
1070
   279
1070
     0
1070
     6
1000
DOT
1070
     7
1000
DOT
1002
}
  0
ENDSEC
  0
EOF
