  0
SECTION
  2
HEADER
  9
$ACADVER
  1
AC1015
  9
$ACADMAINTVER
 70
    20
  9
$DWGCODEPAGE
  3
ANSI_932
  9
$INSBASE
 10
0.0
 20
0.0
 30
0.0
  9
$EXTMIN
 10
-20.02195434956832
 20
-20.00483832787972
 30
-0.0000000000000053
  9
$EXTMAX
 10
440.0219791243864
 20
317.0048562293083
 30
0.0000000000000099
  9
$LIMMIN
 10
0.0
 20
0.0
  9
$LIMMAX
 10
420.0
 20
297.0
  9
$ORTHOMODE
 70
     0
  9
$REGENMODE
 70
     1
  9
$FILLMODE
 70
     1
  9
$QTEXTMODE
 70
     0
  9
$MIRRTEXT
 70
     0
  9
$LTSCALE
 40
5.0
  9
$ATTMODE
 70
     1
  9
$TEXTSIZE
 40
3.25
  9
$TRACEWID
 40
1.0
  9
$TEXTSTYLE
  7
STANDARD
  9
$CLAYER
  8
DEFPOINTS
  9
$CELTYPE
  6
BYLAYER
  9
$CECOLOR
 62
   256
  9
$CELTSCALE
 40
1.0
  9
$DISPSILH
 70
     0
  9
$DIMSCALE
 40
1.0
  9
$DIMASZ
 40
1.0
  9
$DIMEXO
 40
1.0
  9
$DIMDLI
 40
0.0
  9
$DIMRND
 40
0.0
  9
$DIMDLE
 40
0.0
  9
$DIMEXE
 40
1.0
  9
$DIMTP
 40
0.0
  9
$DIMTM
 40
0.0
  9
$DIMTXT
 40
3.0
  9
$DIMCEN
 40
0.5
  9
$DIMTSZ
 40
0.0
  9
$DIMTOL
 70
     0
  9
$DIMLIM
 70
     0
  9
$DIMTIH
 70
     0
  9
$DIMTOH
 70
     0
  9
$DIMSE1
 70
     0
  9
$DIMSE2
 70
     0
  9
$DIMTAD
 70
     0
  9
$DIMZIN
 70
     8
  9
$DIMBLK
  1

  9
$DIMASO
 70
     1
  9
$DIMSHO
 70
     1
  9
$DIMPOST
  1

  9
$DIMAPOST
  1

  9
$DIMALT
 70
     0
  9
$DIMALTD
 70
     4
  9
$DIMALTF
 40
0.0394
  9
$DIMLFAC
 40
1.0
  9
$DIMTOFL
 70
     1
  9
$DIMTVP
 40
0.0
  9
$DIMTIX
 70
     0
  9
$DIMSOXD
 70
     0
  9
$DIMSAH
 70
     1
  9
$DIMBLK1
  1
DOT
  9
$DIMBLK2
  1
DOT
  9
$DIMSTYLE
  2
STANDARD
  9
$DIMCLRD
 70
     0
  9
$DIMCLRE
 70
     0
  9
$DIMCLRT
 70
     4
  9
$DIMTFAC
 40
1.0
  9
$DIMGAP
 40
1.0
  9
$DIMJUST
 70
     0
  9
$DIMSD1
 70
     0
  9
$DIMSD2
 70
     0
  9
$DIMTOLJ
 70
     1
  9
$DIMTZIN
 70
     0
  9
$DIMALTZ
 70
     0
  9
$DIMALTTZ
 70
     0
  9
$DIMUPT
 70
     0
  9
$DIMDEC
 70
     4
  9
$DIMTDEC
 70
     4
  9
$DIMALTU
 70
     2
  9
$DIMALTTD
 70
     2
  9
$DIMTXSTY
  7
STANDARD
  9
$DIMAUNIT
 70
     0
  9
$DIMADEC
 70
     0
  9
$DIMALTRND
 40
0.0
  9
$DIMAZIN
 70
     0
  9
$DIMDSEP
 70
    46
  9
$DIMATFIT
 70
     3
  9
$DIMFRAC
 70
     0
  9
$DIMLDRBLK
  1

  9
$DIMLUNIT
 70
     2
  9
$DIMLWD
 70
    -2
  9
$DIMLWE
 70
    -2
  9
$DIMTMOVE
 70
     0
  9
$LUNITS
 70
     2
  9
$LUPREC
 70
     4
  9
$SKETCHINC
 40
1.0
  9
$FILLETRAD
 40
0.0
  9
$AUNITS
 70
     0
  9
$AUPREC
 70
     0
  9
$MENU
  1
.
  9
$ELEVATION
 40
0.0
  9
$PELEVATION
 40
0.0
  9
$THICKNESS
 40
0.0
  9
$LIMCHECK
 70
     0
  9
$CHAMFERA
 40
1.0
  9
$CHAMFERB
 40
1.0
  9
$CHAMFERC
 40
0.0
  9
$CHAMFERD
 40
0.0
  9
$SKPOLY
 70
     0
  9
$TDCREATE
 40
2451064.518711921
  9
$TDUCREATE
 40
2451064.143711921
  9
$TDUPDATE
 40
2457842.358332593
  9
$TDUUPDATE
 40
2457841.983332593
  9
$TDINDWG
 40
0.4903024769
  9
$TDUSRTIMER
 40
0.4903024769
  9
$USRTIMER
 70
     1
  9
$ANGBASE
 50
0.0
  9
$ANGDIR
 70
     0
  9
$PDMODE
 70
     0
  9
$PDSIZE
 40
0.0
  9
$PLINEWID
 40
0.0
  9
$SPLFRAME
 70
     0
  9
$SPLINETYPE
 70
     6
  9
$SPLINESEGS
 70
     8
  9
$HANDSEED
  5
92E
  9
$SURFTAB1
 70
     6
  9
$SURFTAB2
 70
     6
  9
$SURFTYPE
 70
     6
  9
$SURFU
 70
     6
  9
$SURFV
 70
     6
  9
$UCSBASE
  2

  9
$UCSNAME
  2

  9
$UCSORG
 10
0.0
 20
0.0
 30
0.0
  9
$UCSXDIR
 10
1.0
 20
0.0
 30
0.0
  9
$UCSYDIR
 10
0.0
 20
1.0
 30
0.0
  9
$UCSORTHOREF
  2

  9
$UCSORTHOVIEW
 70
     0
  9
$UCSORGTOP
 10
0.0
 20
0.0
 30
0.0
  9
$UCSORGBOTTOM
 10
0.0
 20
0.0
 30
0.0
  9
$UCSORGLEFT
 10
0.0
 20
0.0
 30
0.0
  9
$UCSORGRIGHT
 10
0.0
 20
0.0
 30
0.0
  9
$UCSORGFRONT
 10
0.0
 20
0.0
 30
0.0
  9
$UCSORGBACK
 10
0.0
 20
0.0
 30
0.0
  9
$PUCSBASE
  2

  9
$PUCSNAME
  2

  9
$PUCSORG
 10
0.0
 20
0.0
 30
0.0
  9
$PUCSXDIR
 10
1.0
 20
0.0
 30
0.0
  9
$PUCSYDIR
 10
0.0
 20
1.0
 30
0.0
  9
$PUCSORTHOREF
  2

  9
$PUCSORTHOVIEW
 70
     0
  9
$PUCSORGTOP
 10
0.0
 20
0.0
 30
0.0
  9
$PUCSORGBOTTOM
 10
0.0
 20
0.0
 30
0.0
  9
$PUCSORGLEFT
 10
0.0
 20
0.0
 30
0.0
  9
$PUCSORGRIGHT
 10
0.0
 20
0.0
 30
0.0
  9
$PUCSORGFRONT
 10
0.0
 20
0.0
 30
0.0
  9
$PUCSORGBACK
 10
0.0
 20
0.0
 30
0.0
  9
$USERI1
 70
     0
  9
$USERI2
 70
     0
  9
$USERI3
 70
     0
  9
$USERI4
 70
     0
  9
$USERI5
 70
     0
  9
$USERR1
 40
0.0
  9
$USERR2
 40
0.0
  9
$USERR3
 40
0.0
  9
$USERR4
 40
0.0
  9
$USERR5
 40
0.0
  9
$WORLDVIEW
 70
     1
  9
$SHADEDGE
 70
     3
  9
$SHADEDIF
 70
    70
  9
$TILEMODE
 70
     1
  9
$MAXACTVP
 70
    48
  9
$PINSBASE
 10
0.0
 20
0.0
 30
0.0
  9
$PLIMCHECK
 70
     0
  9
$PEXTMIN
 10
1.000000000000000E+20
 20
1.000000000000000E+20
 30
1.000000000000000E+20
  9
$PEXTMAX
 10
-1.000000000000000E+20
 20
-1.000000000000000E+20
 30
-1.000000000000000E+20
  9
$PLIMMIN
 10
0.0
 20
0.0
  9
$PLIMMAX
 10
420.0
 20
297.0
  9
$UNITMODE
 70
     0
  9
$VISRETAIN
 70
     1
  9
$PLINEGEN
 70
     0
  9
$PSLTSCALE
 70
     1
  9
$TREEDEPTH
 70
  3020
  9
$CMLSTYLE
  2
STANDARD
  9
$CMLJUST
 70
     0
  9
$CMLSCALE
 40
1.0
  9
$PROXYGRAPHICS
 70
     1
  9
$MEASUREMENT
 70
     0
  9
$CELWEIGHT
370
    -1
  9
$ENDCAPS
280
     0
  9
$JOINSTYLE
280
     0
  9
$LWDISPLAY
290
     0
  9
$INSUNITS
 70
     0
  9
$HYPERLINKBASE
  1

  9
$STYLESHEET
  1
monochrome.ctb
  9
$XEDIT
290
     1
  9
$CEPSNTYPE
380
     0
  9
$PSTYLEMODE
290
     1
  9
$FINGERPRINTGUID
  2
{CE351EC6-AB7C-4601-876C-92C47A56424C}
  9
$VERSIONGUID
  2
{12E6CF50-F0C7-4A67-B621-5E22AB9FC584}
  9
$EXTNAMES
290
     1
  9
$PSVPSCALE
 40
0.0
  9
$OLESTARTUP
290
     0
  0
ENDSEC
  0
SECTION
  2
CLASSES
  0
CLASS
  1
ACDBDICTIONARYWDFLT
  2
AcDbDictionaryWithDefault
  3
ObjectDBX Classes
 90
        0
280
     1
281
     0
  0
CLASS
  1
ACDBPLACEHOLDER
  2
AcDbPlaceHolder
  3
ObjectDBX Classes
 90
        0
280
     0
281
     0
  0
CLASS
  1
LAYOUT
  2
AcDbLayout
  3
ObjectDBX Classes
 90
        0
280
     0
281
     0
  0
CLASS
  1
MATERIAL
  2
AcDbMaterial
  3
ObjectDBX Classes
 90
     1153
280
     0
281
     0
  0
CLASS
  1
VISUALSTYLE
  2
AcDbVisualStyle
  3
ObjectDBX Classes
 90
     4095
280
     0
281
     0
  0
CLASS
  1
TABLESTYLE
  2
AcDbTableStyle
  3
ObjectDBX Classes
 90
     4095
280
     0
281
     0
  0
CLASS
  1
SCALE
  2
AcDbScale
  3
ObjectDBX Classes
 90
     1153
280
     0
281
     0
  0
CLASS
  1
MLEADERSTYLE
  2
AcDbMLeaderStyle
  3
ACDB_MLEADERSTYLE_CLASS
 90
     4095
280
     0
281
     0
  0
CLASS
  1
DICTIONARYVAR
  2
AcDbDictionaryVar
  3
ObjectDBX Classes
 90
        0
280
     0
281
     0
  0
CLASS
  1
SORTENTSTABLE
  2
AcDbSortentsTable
  3
ObjectDBX Classes
 90
    32768
280
     0
281
     0
  0
CLASS
  1
CELLSTYLEMAP
  2
AcDbCellStyleMap
  3
ObjectDBX Classes
 90
     1152
280
     0
281
     0
  0
ENDSEC
  0
SECTION
  2
TABLES
  0
TABLE
  2
VPORT
  5
16
330
0
100
AcDbSymbolTable
 70
     1
  0
VPORT
  5
514
330
16
100
AcDbSymbolTableRecord
100
AcDbViewportTableRecord
  2
*ACTIVE
 70
     0
 10
0.0
 20
0.0
 11
1.0
 21
1.0
 12
228.879103739222
 22
148.5000081659806
 13
0.0
 23
0.0
 14
10.0
 24
10.0
 15
10.0
 25
10.0
 16
0.0
 26
0.0
 36
1.0
 17
0.0
 27
0.0
 37
0.0
 40
340.1937028900681
 41
1.933977455716585
 42
50.0
 43
0.0
 44
0.0
 50
0.0
 51
0.0
 71
     0
 72
   100
 73
     1
 74
     0
 75
     0
 76
     0
 77
     0
 78
     0
281
     0
 65
     1
110
0.0
120
0.0
130
0.0
111
1.0
121
0.0
131
0.0
112
0.0
122
1.0
132
0.0
 79
     0
146
0.0
  0
ENDTAB
  0
TABLE
  2
LTYPE
  5
11
330
0
100
AcDbSymbolTable
 70
     3
  0
LTYPE
  5
12
330
11
100
AcDbSymbolTableRecord
100
AcDbLinetypeTableRecord
  2
BYBLOCK
 70
     0
  3

 72
    65
 73
     0
 40
0.0
  0
LTYPE
  5
13
330
11
100
AcDbSymbolTableRecord
100
AcDbLinetypeTableRecord
  2
BYLAYER
 70
     0
  3

 72
    65
 73
     0
 40
0.0
  0
LTYPE
  5
7
330
11
100
AcDbSymbolTableRecord
100
AcDbLinetypeTableRecord
  2
CONTINUOUS
 70
     0
  3
Solid line
 72
    65
 73
     0
 40
0.0
  0
LTYPE
  5
57
330
11
100
AcDbSymbolTableRecord
100
AcDbLinetypeTableRecord
  2
CENTER
 70
     0
  3
Center ____ _ ____ _ ____ _ ____ _ ____ _ ____
 72
    65
 73
     4
 40
2.0
 49
1.25
 74
     0
 49
-0.25
 74
     0
 49
0.25
 74
     0
 49
-0.25
 74
     0
  0
LTYPE
  5
5D
330
11
100
AcDbSymbolTableRecord
100
AcDbLinetypeTableRecord
  2
DASHED
 70
     0
  3
Dashed __ __ __ __ __ __ __ __ __ __ __ __ __ _
 72
    65
 73
     2
 40
0.75
 49
0.5
 74
     0
 49
-0.25
 74
     0
  0
ENDTAB
  0
TABLE
  2
LAYER
  5
E
102
{ACAD_XDICTIONARY
360
568
102
}
330
0
100
AcDbSymbolTable
 70
     8
  0
LAYER
  5
6
102
{ACAD_XDICTIONARY
360
577
102
}
330
E
100
AcDbSymbolTableRecord
100
AcDbLayerTableRecord
  2
0
 70
     0
 62
     7
  6
CONTINUOUS
370
    -3
390
517
  0
LAYER
  5
1F
102
{ACAD_XDICTIONARY
360
57B
102
}
330
E
100
AcDbSymbolTableRecord
100
AcDbLayerTableRecord
  2
TEXT
 70
     0
 62
     4
  6
CONTINUOUS
370
    -3
390
517
  0
LAYER
  5
21D
102
{ACAD_XDICTIONARY
360
57D
102
}
330
E
100
AcDbSymbolTableRecord
100
AcDbLayerTableRecord
  2
ZUWAKU
 70
     0
 62
     5
  6
CONTINUOUS
370
    -3
390
517
  0
LAYER
  5
56
102
{ACAD_XDICTIONARY
360
57F
102
}
330
E
100
AcDbSymbolTableRecord
100
AcDbLayerTableRecord
  2
CENTER
 70
     0
 62
     6
  6
CENTER
370
     5
390
517
  0
LAYER
  5
4B
102
{ACAD_XDICTIONARY
360
581
102
}
330
E
100
AcDbSymbolTableRecord
100
AcDbLayerTableRecord
  2
HONTAI
 70
     0
 62
     7
  6
CONTINUOUS
370
    40
390
517
  0
LAYER
  5
5C
102
{ACAD_XDICTIONARY
360
583
102
}
330
E
100
AcDbSymbolTableRecord
100
AcDbLayerTableRecord
  2
HONTAIFUKASIBU
 70
     0
 62
     2
  6
DASHED
370
    -3
390
517
  0
LAYER
  5
26
102
{ACAD_XDICTIONARY
360
585
102
}
330
E
100
AcDbSymbolTableRecord
100
AcDbLayerTableRecord
  2
SUNPOU
 70
     0
 62
    11
  6
CONTINUOUS
370
    -3
390
517
  0
LAYER
  5
35
330
E
100
AcDbSymbolTableRecord
100
AcDbLayerTableRecord
  2
DEFPOINTS
 70
     0
 62
   252
  6
CONTINUOUS
290
     0
370
    -3
390
517
  0
ENDTAB
  0
TABLE
  2
STYLE
  5
F
330
0
100
AcDbSymbolTable
 70
     3
  0
STYLE
  5
10
330
F
100
AcDbSymbolTableRecord
100
AcDbTextStyleTableRecord
  2
STANDARD
 70
     0
 40
0.0
 41
1.0
 50
0.0
 71
     0
 42
3.25
  3
txt.shx
  4
extfont.shx
  0
STYLE
  5
4F7
330
F
100
AcDbSymbolTableRecord
100
AcDbTextStyleTableRecord
  2
TATE
 70
     4
 40
0.0
 41
1.0
 50
0.0
 71
     0
 42
0.2
  3
txt.shx
  4
extfont.shx
  0
ENDTAB
  0
TABLE
  2
VIEW
  5
14
330
0
100
AcDbSymbolTable
 70
     0
  0
ENDTAB
  0
TABLE
  2
UCS
  5
15
330
0
100
AcDbSymbolTable
 70
     0
  0
ENDTAB
  0
TABLE
  2
APPID
  5
18
330
0
100
AcDbSymbolTable
 70
     6
  0
APPID
  5
19
330
18
100
AcDbSymbolTableRecord
100
AcDbRegAppTableRecord
  2
ACAD
 70
     0
  0
APPID
  5
575
330
18
100
AcDbSymbolTableRecord
100
AcDbRegAppTableRecord
  2
ACAD_EXEMPT_FROM_CAD_STANDARDS
 70
     0
  0
APPID
  5
876
330
18
100
AcDbSymbolTableRecord
100
AcDbRegAppTableRecord
  2
ACAD_DSTYLE_DIMJAG
 70
     0
  0
APPID
  5
877
330
18
100
AcDbSymbolTableRecord
100
AcDbRegAppTableRecord
  2
ACAD_DSTYLE_DIMTALN
 70
     0
  0
APPID
  5
88F
330
18
100
AcDbSymbolTableRecord
100
AcDbRegAppTableRecord
  2
ACAD_PSEXT
 70
     0
  0
APPID
  5
92A
330
18
100
AcDbSymbolTableRecord
100
AcDbRegAppTableRecord
  2
ACAD_MLEADERVER
 70
     0
  0
ENDTAB
  0
TABLE
  2
DIMSTYLE
  5
1A
330
0
100
AcDbSymbolTable
 70
     2
100
AcDbDimStyleTable
 71
     1
340
21
  0
DIMSTYLE
105
21
102
{ACAD_REACTORS
330
1C4
330
1B6
330
1A6
330
198
330
18A
330
17C
330
16E
330
160
330
150
330
142
330
133
330
3C
102
}
330
1A
100
AcDbSymbolTableRecord
100
AcDbDimStyleTableRecord
  2
STANDARD
 70
     0
279
     2
340
10
  0
ENDTAB
  0
TABLE
  2
BLOCK_RECORD
  5
1
330
0
100
AcDbSymbolTable
 70
    17
  0
BLOCK_RECORD
  5
2
102
{ACAD_XDICTIONARY
360
3
102
}
330
1
100
AcDbSymbolTableRecord
100
AcDbBlockTableRecord
  2
*MODEL_SPACE
340
563
  0
BLOCK_RECORD
  5
9
102
{ACAD_XDICTIONARY
360
A
102
}
330
1
100
AcDbSymbolTableRecord
100
AcDbBlockTableRecord
  2
*PAPER_SPACE
340
564
  0
BLOCK_RECORD
  5
220
330
1
100
AcDbSymbolTableRecord
100
AcDbBlockTableRecord
  2
LOGO
340
0
102
{BLKREFS
331
21F
102
}
  0
BLOCK_RECORD
  5
222
330
1
100
AcDbSymbolTableRecord
100
AcDbBlockTableRecord
  2
*X1
340
0
102
{BLKREFS
331
221
102
}
  0
BLOCK_RECORD
  5
21E
330
1
100
AcDbSymbolTableRecord
100
AcDbBlockTableRecord
  2
WAKU
340
0
102
{BLKREFS
331
21C
102
}
  0
BLOCK_RECORD
  5
2D
330
1
100
AcDbSymbolTableRecord
100
AcDbBlockTableRecord
  2
_DOT
340
0
102
{BLKREFS
331
7A8
331
7A9
331
7B3
331
7B4
331
7BD
331
7BE
331
7C9
331
7CA
331
7D3
331
7D4
331
7DD
331
7DE
331
7E7
331
7E8
331
7F1
331
7F2
331
7FB
331
7FC
331
807
331
808
331
811
331
812
331
81D
331
81E
102
}
  0
BLOCK_RECORD
  5
5C2
330
1
100
AcDbSymbolTableRecord
100
AcDbBlockTableRecord
  2
*D4
340
0
  0
BLOCK_RECORD
  5
5F9
330
1
100
AcDbSymbolTableRecord
100
AcDbBlockTableRecord
  2
*D5
340
0
  0
BLOCK_RECORD
  5
606
330
1
100
AcDbSymbolTableRecord
100
AcDbBlockTableRecord
  2
*D6
340
0
  0
BLOCK_RECORD
  5
614
330
1
100
AcDbSymbolTableRecord
100
AcDbBlockTableRecord
  2
*D7
340
0
  0
BLOCK_RECORD
  5
621
330
1
100
AcDbSymbolTableRecord
100
AcDbBlockTableRecord
  2
*D8
340
0
  0
BLOCK_RECORD
  5
630
330
1
100
AcDbSymbolTableRecord
100
AcDbBlockTableRecord
  2
*D9
340
0
  0
BLOCK_RECORD
  5
647
330
1
100
AcDbSymbolTableRecord
100
AcDbBlockTableRecord
  2
*D10
340
0
  0
BLOCK_RECORD
  5
656
330
1
100
AcDbSymbolTableRecord
100
AcDbBlockTableRecord
  2
*D11
340
0
  0
BLOCK_RECORD
  5
663
330
1
100
AcDbSymbolTableRecord
100
AcDbBlockTableRecord
  2
*D12
340
0
  0
BLOCK_RECORD
  5
735
330
1
100
AcDbSymbolTableRecord
100
AcDbBlockTableRecord
  2
*D13
340
0
  0
BLOCK_RECORD
  5
742
330
1
100
AcDbSymbolTableRecord
100
AcDbBlockTableRecord
  2
*D14
340
0
  0
BLOCK_RECORD
  5
74F
330
1
100
AcDbSymbolTableRecord
100
AcDbBlockTableRecord
  2
*D15
340
0
  0
ENDTAB
  0
ENDSEC
  0
SECTION
  2
BLOCKS
  0
BLOCK
  5
5
330
2
100
AcDbEntity
  8
0
100
AcDbBlockBegin
  2
*MODEL_SPACE
 70
     0
 10
0.0
 20
0.0
 30
0.0
  3
*MODEL_SPACE
  1

  0
ENDBLK
  5
8
330
2
100
AcDbEntity
  8
0
100
AcDbBlockEnd
  0
BLOCK
  5
C
330
9
100
AcDbEntity
 67
     1
  8
0
100
AcDbBlockBegin
  2
*PAPER_SPACE
 70
     0
 10
0.0
 20
0.0
 30
0.0
  3
*PAPER_SPACE
  1

  0
ENDBLK
  5
D
330
9
100
AcDbEntity
 67
     1
  8
0
100
AcDbBlockEnd
  0
BLOCK
  5
4DB
330
220
100
AcDbEntity
  8
0
100
AcDbBlockBegin
  2
LOGO
 70
     0
 10
0.0
 20
0.0
 30
0.0
  3
LOGO
  1

  0
INSERT
  5
221
330
220
100
AcDbEntity
  8
0
  6
Continuous
100
AcDbBlockReference
  2
*X1
 10
0.0
 20
0.0
 30
0.0
1001
ACAD
1000
HATCH
1002
{
1070
    19
1000
ANSI31
1040
1.0
1040
0.0
1000
ASC_BOUNDS
1070
    13
1070
     2
1070
     1
1005
4CE
1070
     2
1070
     1
1005
4CF
1070
     2
1070
     1
1005
4D0
1070
     2
1070
     1
1005
4D1
1070
     2
1070
     1
1005
4D2
1070
     2
1070
     1
1005
4D3
1070
     2
1070
     1
1005
4D4
1070
     2
1070
     1
1005
4D5
1070
     2
1070
     1
1005
4D6
1070
     2
1070
     1
1005
4D7
1070
     2
1070
     1
1005
4D8
1070
     2
1070
     1
1005
4D9
1070
     2
1070
     1
1005
4DA
1000
ASC_SEEDPOINT
1011
0.0
1021
0.0
1031
0.0
1002
}
  0
LWPOLYLINE
  5
4CE
330
220
100
AcDbEntity
  8
0
100
AcDbPolyline
 90
       46
 70
     1
 43
0.0
 10
20.50219422580844
 20
5.234352513186905
 10
20.77273379390574
 20
5.234352513186905
 10
21.58435249819763
 20
5.03438848459325
 10
21.76079134695675
 20
4.975575535006868
 10
21.97251796546769
 20
4.94028776525505
 10
22.53712228149682
 20
4.787374096330495
 10
23.50165465471329
 20
4.469784168564075
 10
23.8545323522315
 20
4.352158269391338
 10
25.1719424229662
 20
3.787553953362191
 10
25.54834530031894
 20
3.587589924768536
 10
25.67773378940896
 20
3.540539565099436
 10
25.8424100482508
 20
3.434676255843982
 10
26.12471220626537
 20
3.305287766753963
 10
26.7010791122118
 20
2.964172659153035
 10
26.93633091055728
 20
2.881834529732117
 10
27.65384889551098
 20
2.423093522958424
 10
28.00672659302918
 20
2.176079134695669
 10
28.34784170063014
 20
1.964352516184732
 10
28.58309349897562
 20
1.776151077508359
 10
28.75953234773474
 20
1.670287768252904
 10
29.61820141169574
 20
0.964532373216457
 10
29.73582731086847
 20
0.8469064740437204
 10
29.81816544028939
 20
0.8233812942091844
 10
29.93579133946213
 20
0.6587050353673476
 10
29.93579133946213
 20
0.564604316029147
 10
29.73582731086847
 20
0.4822661866082285
 10
28.5948560888929
 20
0.4940287765255107
 10
28.40665465021653
 20
0.5881294958636829
 10
27.84205033418738
 20
1.023345322802839
 10
26.77165465171544
 20
1.764388487591077
 10
26.13647479618265
 20
2.129028775026569
 10
25.47776976081531
 20
2.528956832213879
 10
24.90140285486888
 20
2.787733810393916
 10
24.06625897074244
 20
3.175899277663944
 10
23.44284170512692
 20
3.411151076009446
 10
23.28992803620236
 20
3.481726615513082
 10
23.05467623785688
 20
3.552302155016718
 10
21.83136688646039
 20
3.940467622286774
 10
20.65510789473299
 20
4.175719420632248
 10
20.09050357870385
 20
4.246294960135884
 10
19.99640285936566
 20
4.305107909722266
 10
19.89053955011019
 20
4.434496398812257
 10
19.90230214002747
 20
5.187302153517805
 10
20.01992803920021
 20
5.316690642607824
 10
20.31399278713205
 20
5.293165462773259
 10
20.50219422580844
 20
5.234352513186905
1001
ACAD
1000
ASC_BOUNDS
1002
{
1070
    19
1005
221
1002
}
  0
LWPOLYLINE
  5
4CF
330
220
100
AcDbEntity
  8
0
100
AcDbPolyline
 90
       47
 70
     1
 43
0.0
 10
20.65510789473299
 20
5.481366901449632
 10
20.84330933340938
 20
5.422553951863278
 10
21.36086328976944
 20
5.316690642607824
 10
21.59611508811491
 20
5.234352513186905
 10
21.81960429654312
 20
5.199064743435059
 10
22.07838127472314
 20
5.11672661401414
 10
22.36068343273772
 20
5.057913664427786
 10
23.32521580595417
 20
4.728561146744112
 10
23.53694242446511
 20
4.646223017323194
 10
23.81924458247969
 20
4.552122297984993
 10
24.30151076908791
 20
4.36392085930862
 10
25.47776976081531
 20
3.858129492865856
 10
26.34820141469357
 20
3.434676255843982
 10
27.11276975931639
 20
2.975935249070289
 10
27.43035968708279
 20
2.799496400311198
 10
27.67737407534554
 20
2.67010791122118
 10
28.46546759980288
 20
2.152553954861133
 10
29.54762587219207
 20
1.329172660651948
 10
30.60625896474673
 20
0.4234532370218745
 10
30.6768345042504
 20
0.3293525176836738
 10
30.61802155466401
 20
0.2940647479318556
 10
29.19474817467386
 20
0.2940647479318556
 10
28.44194241996834
 20
0.3058273378491094
 10
27.97143882327737
 20
0.6704676252846014
 10
27.70089925518008
 20
0.8586690639610026
 10
27.07748198956455
 20
1.317410070734666
 10
26.87751796097089
 20
1.482086329576503
 10
26.67755393237724
 20
1.552661869080168
 10
26.41877695419723
 20
1.729100717839259
 10
25.59539565998804
 20
2.211366904447487
 10
24.70143882627522
 20
2.658345321303897
 10
24.13683451024608
 20
2.893597119649371
 10
23.81924458247969
 20
3.034748198656672
 10
22.3253956629859
 20
3.564064744934
 10
21.79607911670857
 20
3.705215823941273
 10
21.25499998051397
 20
3.846366902948574
 10
21.03151077208577
 20
3.893417262617674
 10
20.8785971031612
 20
3.940467622286774
 10
20.32575537704933
 20
4.022805751707693
 10
20.12579134845566
 20
4.069856111376765
 10
19.85525178035837
 20
4.093381291211329
 10
19.72586329126835
 20
4.140431650880429
 10
19.66705034168198
 20
4.211007190384066
 10
19.67881293159926
 20
5.551942440953297
 10
19.72586329126835
 20
5.587230210705115
 10
20.2081294778766
 20
5.540179851036015
 10
20.65510789473299
 20
5.481366901449632
1001
ACAD
1000
ASC_BOUNDS
1002
{
1070
    19
1005
221
1002
}
  0
LWPOLYLINE
  5
4D0
330
220
100
AcDbEntity
  8
0
100
AcDbPolyline
 90
       45
 70
     1
 43
0.0
 10
14.00924459147323
 20
5.234352513186905
 10
14.0680575410596
 20
5.128489203931422
 10
14.05629495114233
 20
4.352158269391338
 10
13.9386690519696
 20
4.246294960135884
 10
13.42111509560953
 20
4.152194240797683
 10
13.20938847709861
 20
4.152194240797683
 10
12.89179854933221
 20
4.058093521459511
 10
12.23309351396487
 20
3.91694244245221
 10
11.84492804669483
 20
3.822841723114009
 10
11.58615106851481
 20
3.740503593693119
 10
10.90392085331292
 20
3.528776975182182
 10
10.08053955910374
 20
3.234712227250327
 10
9.245395674977302
 20
2.881834529732117
 10
9.010143876631815
 20
2.76420863055938
 10
7.998561143746258
 20
2.258417264116587
 10
7.58687049664168
 20
2.034928055688396
 10
6.904640281439796
 20
1.59971222874924
 10
6.775251792349777
 20
1.540899279162886
 10
6.551762583921572
 20
1.376223020321049
 10
5.351978412359628
 20
0.541079136194611
 10
5.140251793848705
 20
0.4352158269391282
 10
4.587410067736826
 20
0.4116906471045923
 10
3.905179852534942
 20
0.4234532370218745
 10
3.846366902948574
 20
0.4469784168564104
 10
3.799316543279473
 20
0.5057913664427645
 10
3.834604313031292
 20
0.6469424454500654
 10
4.316870499639534
 20
1.070395682471939
 10
5.316690642607809
 20
1.823201437177459
 10
6.351798555327917
 20
2.528956832213879
 10
7.433956827717111
 20
3.140611507912126
 10
8.022086323580808
 20
3.4699640255958
 10
9.068956826218183
 20
3.952230212204028
 10
9.527697832991876
 20
4.140431650880429
 10
9.845287760758267
 20
4.26982013997042
 10
10.11582732885557
 20
4.36392085930862
 10
10.65690646505017
 20
4.552122297984993
 10
10.83334531380927
 20
4.599172657654094
 10
11.1391726516584
 20
4.705035966909576
 10
11.62143883826662
 20
4.857949635834131
 10
12.30366905346852
 20
5.022625894675968
 10
12.64478416106946
 20
5.093201434179604
 10
13.3034891964368
 20
5.234352513186905
 10
13.62107912420319
 20
5.304928052690542
 10
13.91514387213504
 20
5.293165462773259
 10
14.00924459147323
 20
5.234352513186905
1001
ACAD
1000
ASC_BOUNDS
1002
{
1070
    19
1005
221
1002
}
  0
LWPOLYLINE
  5
4D1
330
220
100
AcDbEntity
  8
0
100
AcDbPolyline
 90
       48
 70
     1
 43
0.0
 10
14.26802156965325
 20
5.481366901449632
 10
14.24449638981871
 20
5.304928052690542
 10
14.25625897973599
 20
4.916762585420485
 10
14.24449638981871
 20
4.375683449225903
 10
14.24449638981871
 20
4.187482010549501
 10
14.20920862006689
 20
4.140431650880429
 10
14.0680575410596
 20
4.081618701294047
 10
13.67989207378957
 20
4.034568341624947
 10
12.35071941313761
 20
3.728741003775837
 10
11.56262588868026
 20
3.528776975182182
 10
11.17446042141021
 20
3.375863306257627
 10
10.60985610538107
 20
3.199424457498508
 10
10.43341725662196
 20
3.11708632807759
 10
9.715899271668263
 20
2.846546759980299
 10
8.892517977459078
 20
2.481906472544807
 10
8.41025179085085
 20
2.234892084282051
 10
7.233992799123456
 20
1.587949638831986
 10
6.669388483094309
 20
1.235071941313748
 10
5.657805750208751
 20
0.5293165462773289
 10
5.269640282938709
 20
0.2470143882627553
 10
4.657985607240476
 20
0.2117266185109372
 10
4.093381291211329
 20
0.2470143882627553
 10
3.91694244245221
 20
0.2117266185109372
 10
3.11708632807759
 20
0.2352517983454732
 10
3.09356114824304
 20
0.2470143882627553
 10
3.09356114824304
 20
0.3293525176836738
 10
3.564064744934
 20
0.7410431647882661
 10
3.764028773527655
 20
0.8939568337128207
 10
4.469784168564089
 20
1.482086329576503
 10
5.199064743435073
 20
2.034928055688396
 10
5.646043160291483
 20
2.31723021370297
 10
6.128309346899712
 20
2.646582731386644
 10
7.116366899950719
 20
3.211187047415791
 10
7.363381288213474
 20
3.352338126423063
 10
8.316151071512663
 20
3.834604313031292
 10
8.563165459775404
 20
3.91694244245221
 10
8.951330927045447
 20
4.128669060963147
 10
9.304208624563671
 20
4.246294960135884
 10
9.621798552330062
 20
4.387446039143185
 10
10.44517984653923
 20
4.669748197157758
 10
11.08035970207203
 20
4.893237405585949
 10
11.71553955760483
 20
5.057913664427786
 10
11.9507913559503
 20
5.140251793848705
 10
12.23309351396487
 20
5.199064743435059
 10
13.18586329726406
 20
5.422553951863278
 10
14.0210071813905
 20
5.587230210705115
 10
14.24449638981871
 20
5.563705030870551
 10
14.26802156965325
 20
5.481366901449632
1001
ACAD
1000
ASC_BOUNDS
1002
{
1070
    19
1005
221
1002
}
  0
LWPOLYLINE
  5
4D2
330
220
100
AcDbEntity
  8
0
100
AcDbPolyline
 90
       23
 70
     1
 43
0.0
 10
30.42982011598761
 20
4.952050355172332
 10
31.11205033118952
 20
4.375683449225903
 10
31.41787766903863
 20
3.881654672700392
 10
31.48845320854227
 20
3.528776975182182
 10
31.38258989928682
 20
3.128848917994872
 10
31.28848917994861
 20
2.975935249070289
 10
30.78269781350585
 20
2.481906472544807
 10
30.64154673449855
 20
2.376043163289324
 10
30.28866903698034
 20
2.31723021370297
 10
29.72406472095119
 20
2.470143882627525
 10
29.3123740738466
 20
2.681870501138462
 10
29.05359709566659
 20
2.893597119649371
 10
28.72424457798292
 20
3.258237407084862
 10
28.5007553695547
 20
3.646402874354919
 10
28.40665465021653
 20
3.940467622286774
 10
28.44194241996834
 20
4.199244600466784
 10
28.53604313930651
 20
4.434496398812257
 10
28.78305752756927
 20
4.775611506413213
 10
29.18298558475658
 20
5.11672661401414
 10
29.41823738310205
 20
5.199064743435059
 10
29.66525177136481
 20
5.234352513186905
 10
30.18280572772488
 20
5.081438844262322
 10
30.42982011598761
 20
4.952050355172332
1001
ACAD
1000
ASC_BOUNDS
1002
{
1070
    19
1005
221
1002
}
  0
LWPOLYLINE
  5
4D3
330
220
100
AcDbEntity
  8
0
100
AcDbPolyline
 90
       30
 70
     1
 43
0.0
 10
29.88874097979303
 20
5.78719423929877
 10
30.73564745383675
 20
5.304928052690542
 10
30.87679853284402
 20
5.187302153517805
 10
31.40611507912135
 20
4.740323736661395
 10
31.94719421531596
 20
4.116906471045865
 10
32.14715824390962
 20
3.775791363444938
 10
32.28830932291692
 20
3.387625896174881
 10
32.32359709266873
 20
3.234712227250327
 10
32.31183450275145
 20
2.705395680972998
 10
32.13539565399234
 20
2.305467623785688
 10
31.91190644556414
 20
2.011402875853832
 10
31.55902874804593
 20
1.717338127922005
 10
31.24143882027954
 20
1.59971222874924
 10
30.8885611227613
 20
1.540899279162886
 10
30.35924457648397
 20
1.64676258841834
 10
30.01812946888305
 20
1.764388487591077
 10
29.28884889401206
 20
2.152553954861133
 10
28.58309349897562
 20
2.71715827089028
 10
28.01848918294647
 20
3.293525176836709
 10
27.84205033418738
 20
3.552302155016718
 10
27.54798558625552
 20
4.187482010549501
 10
27.50093522658642
 20
4.422733808895003
 10
27.55974817617278
 20
4.881474815668667
 10
27.7361870249319
 20
5.234352513186905
 10
27.97143882327737
 20
5.551942440953297
 10
28.25374098129194
 20
5.74014387962967
 10
28.58309349897562
 20
5.916582728388789
 10
28.85363306707294
 20
5.975395677975143
 10
29.3123740738466
 20
5.951870498140607
 10
29.88874097979303
 20
5.78719423929877
1001
ACAD
1000
ASC_BOUNDS
1002
{
1070
    19
1005
221
1002
}
  0
LWPOLYLINE
  5
4D4
330
220
100
AcDbEntity
  8
0
100
AcDbPolyline
 90
       19
 70
     1
 43
0.0
 10
24.87787767503434
 20
7.586870496641665
 10
25.83064745833352
 20
7.198705029371637
 10
26.01884889700989
 20
7.081079130198901
 10
26.23057551552083
 20
6.857589921770681
 10
26.26586328527265
 20
6.728201432680691
 10
26.25410069535539
 20
6.469424454500654
 10
26.17176256593447
 20
6.316510785576099
 10
26.01884889700989
 20
6.198884886403362
 10
25.71302155916078
 20
6.175359706568798
 10
25.31309350197347
 20
6.269460425906999
 10
24.20741004974974
 20
6.704676252846127
 10
23.84276976231422
 20
6.845827331853428
 10
23.7604316328933
 20
6.963453231026164
 10
23.79571940264515
 20
7.175179849537101
 10
24.01920861107334
 20
7.716258985731684
 10
24.11330933041154
 20
7.798597115152603
 10
24.14859710016336
 20
7.822122294987167
 10
24.3603237186743
 20
7.798597115152603
 10
24.87787767503434
 20
7.586870496641665
1001
ACAD
1000
ASC_BOUNDS
1002
{
1070
    19
1005
221
1002
}
  0
LWPOLYLINE
  5
4D5
330
220
100
AcDbEntity
  8
0
100
AcDbPolyline
 90
       45
 70
     1
 43
0.0
 10
23.71338127322423
 20
8.527877690023586
 10
23.9015827119006
 20
8.469064740437232
 10
24.14859710016336
 20
8.363201431181749
 10
24.28974817917063
 20
8.292625891678113
 10
24.56028774726795
 20
8.198525172339913
 10
26.66579134245996
 20
7.38690646804801
 10
27.20687047865457
 20
6.975215820943446
 10
27.40683450724822
 20
6.728201432680691
 10
27.54798558625552
 20
6.375323735162453
 10
27.53622299633824
 20
6.128309346899698
 10
27.40683450724822
 20
5.846007188885124
 10
27.18334529882003
 20
5.681330930043316
 10
26.99514386014363
 20
5.587230210705115
 10
26.73636688196362
 20
5.504892081284197
 10
26.12471220626537
 20
5.493129491366914
 10
26.03061148692717
 20
5.38726618211146
 10
26.06589925667899
 20
5.152014383765987
 10
26.41877695419723
 20
4.352158269391338
 10
26.53640285336996
 20
4.022805751707693
 10
26.53640285336996
 20
3.952230212204028
 10
26.43053954411448
 20
3.96399280212131
 10
26.00708630709263
 20
4.152194240797683
 10
25.50129494064987
 20
4.410971218977721
 10
25.36014386164257
 20
4.669748197157758
 10
24.91316544478616
 20
5.881294958636971
 10
24.76025177586161
 20
6.034208627561525
 10
24.20741004974974
 20
6.23417265615518
 10
23.93687048165242
 20
6.363561145245199
 10
23.61928055388603
 20
6.445899274666118
 10
23.48989206479601
 20
6.410611504914299
 10
23.30169062611964
 20
6.022446037644243
 10
23.07820141769142
 20
5.493129491366914
 10
22.99586328827051
 20
5.410791361945996
 10
22.87823738909776
 20
5.410791361945996
 10
22.24305753356498
 20
5.622517980456933
 10
22.14895681422678
 20
5.716618699795134
 10
22.18424458397861
 20
5.846007188885124
 10
22.41949638232409
 20
6.445899274666118
 10
22.66651077058684
 20
7.057553950364336
 10
22.90176256893231
 20
7.61039567647623
 10
23.0899640076087
 20
8.139712222753558
 10
23.28992803620236
 20
8.598453229527223
 10
23.32521580595417
 20
8.657266179113605
 10
23.50165465471329
 20
8.621978409361787
 10
23.71338127322423
 20
8.527877690023586
1001
ACAD
1000
ASC_BOUNDS
1002
{
1070
    19
1005
221
1002
}
  0
LWPOLYLINE
  5
4D6
330
220
100
AcDbEntity
  8
0
100
AcDbPolyline
 90
       20
 70
     1
 43
0.0
 10
21.94899278563312
 20
8.892517977459078
 10
21.91370501588131
 20
8.621978409361787
 10
21.81960429654312
 20
8.374964021099032
 10
21.72550357720493
 20
7.845647474821703
 10
21.70197839737038
 20
7.763309345400784
 10
21.60787767803218
 20
7.233992799123456
 10
21.53730213852854
 20
6.892877691522528
 10
21.49025177885945
 20
6.728201432680691
 10
21.38438846960398
 20
5.998920857809707
 10
21.34910069985216
 20
5.916582728388789
 10
21.30205034018306
 20
5.893057548554224
 10
20.53748199556026
 20
5.998920857809707
 10
20.37280573671842
 20
6.057733807396061
 10
20.32575537704933
 20
6.093021577147879
 10
20.50219422580844
 20
7.022266180612518
 10
20.60805753506389
 20
7.563345316807129
 10
20.91388487291303
 20
9.116007185887298
 10
21.03151077208577
 20
9.151294955639116
 10
21.91370501588131
 20
8.974856106879997
 10
21.94899278563312
 20
8.892517977459078
1001
ACAD
1000
ASC_BOUNDS
1002
{
1070
    19
1005
221
1002
}
  0
LWPOLYLINE
  5
4D7
330
220
100
AcDbEntity
  8
0
100
AcDbPolyline
 90
       51
 70
     1
 43
0.0
 10
15.6442445899743
 20
9.704136681750981
 10
15.65600717989159
 20
6.704676252846127
 10
15.66776976980885
 20
6.175359706568798
 10
15.70305753956067
 20
5.775431649381488
 10
15.83244602865069
 20
5.669568340126033
 10
16.73816545228078
 20
5.669568340126033
 10
17.37334530781358
 20
5.622517980456933
 10
17.56154674648996
 20
5.622517980456933
 10
17.70269782549724
 20
5.669568340126033
 10
17.78503595491816
 20
5.78719423929877
 10
17.83208631458726
 20
6.445899274666118
 10
17.82032372466997
 20
7.034028770529801
 10
17.79679854483544
 20
7.61039567647623
 10
17.79679854483544
 20
7.798597115152603
 10
17.82032372466997
 20
8.716079128699959
 10
17.82032372466997
 20
9.739424451502799
 10
17.84384890450454
 20
9.786474811171899
 10
19.14949638532194
 20
9.786474811171899
 10
19.20830933490831
 20
9.704136681750981
 10
19.23183451474286
 20
6.375323735162453
 10
19.23183451474286
 20
5.069676254345068
 10
19.24359710466012
 20
2.470143882627525
 10
19.24359710466012
 20
0.4940287765255107
 10
19.20830933490831
 20
0.3646402874354919
 10
19.20830933490831
 20
0.3528776975182097
 10
18.90248199705918
 20
0.3058273378491094
 10
17.93794962384273
 20
0.3293525176836738
 10
17.87913667425636
 20
0.4352158269391282
 10
17.8556114944218
 20
1.023345322802839
 10
17.82032372466997
 20
3.199424457498508
 10
17.82032372466997
 20
3.493489205430364
 10
17.79679854483544
 20
3.999280571873129
 10
17.73798559524907
 20
4.116906471045865
 10
17.62035969607633
 20
4.187482010549501
 10
15.82068343873342
 20
4.175719420632248
 10
15.71482012947796
 20
4.034568341624947
 10
15.66776976980885
 20
3.728741003775837
 10
15.67953235972614
 20
3.07003596840849
 10
15.66776976980885
 20
2.187841724612951
 10
15.66776976980885
 20
0.4352158269391282
 10
15.62071941013977
 20
0.3528776975182097
 10
15.15021581344881
 20
0.3175899277663916
 10
14.82086329576513
 20
0.3293525176836738
 10
14.73852516634422
 20
0.4234532370218745
 10
14.72676257642695
 20
2.434856112875706
 10
14.71499998650967
 20
4.563884887902275
 10
14.71499998650967
 20
9.727661861585545
 10
14.72676257642695
 20
9.786474811171899
 10
14.79733811593058
 20
9.821762580923717
 10
15.58543164038794
 20
9.786474811171899
 10
15.6442445899743
 20
9.704136681750981
1001
ACAD
1000
ASC_BOUNDS
1002
{
1070
    19
1005
221
1002
}
  0
LWPOLYLINE
  5
4D8
330
220
100
AcDbEntity
  8
0
100
AcDbPolyline
 90
       63
 70
     1
 43
0.0
 10
13.70341725362411
 20
9.021906466549097
 10
13.70341725362411
 20
8.833705027872724
 10
13.60931653428592
 20
8.786654668203624
 10
13.23291365693316
 20
8.727841718617241
 10
12.56244603164855
 20
8.610215819444505
 10
12.36248200305488
 20
8.586690639609969
 10
11.58615106851481
 20
8.433776970685414
 10
11.3626618600866
 20
8.327913661429931
 10
11.06859711215474
 20
8.127949632836276
 10
10.95097121298201
 20
7.904460424408085
 10
10.89215826339564
 20
7.586870496641665
 10
10.93920862306474
 20
7.445719417634393
 10
11.05683452223748
 20
7.363381288213474
 10
11.25679855083113
 20
7.375143878130757
 10
11.49205034917662
 20
7.422194237799828
 10
12.13899279462669
 20
7.551582726889847
 10
13.62107912420319
 20
7.822122294987167
 10
13.82104315279685
 20
7.845647474821703
 10
13.87985610238323
 20
7.845647474821703
 10
13.95043164188686
 20
7.70449639581443
 10
13.96219423180415
 20
7.539820136972593
 10
13.95043164188686
 20
7.492769777303493
 10
13.83280574271413
 20
7.433956827717111
 10
12.99766185858767
 20
7.292805748709838
 10
12.17428056437851
 20
7.139892079785255
 10
11.85669063661211
 20
7.116366899950719
 10
11.44499998950752
 20
7.022266180612518
 10
11.15093524157567
 20
6.975215820943446
 10
11.05683452223748
 20
6.857589921770681
 10
11.02154675248566
 20
6.728201432680691
 10
11.0921222919893
 20
6.551762583921572
 10
11.44499998950752
 20
6.245935246072463
 10
11.59791365843207
 20
6.175359706568798
 10
11.89197840636393
 20
6.128309346899698
 10
12.93884890900131
 20
6.292985605741534
 10
13.43287768552682
 20
6.375323735162453
 10
13.66812948387229
 20
6.410611504914299
 10
14.03276977130778
 20
6.49294963433519
 10
14.1151079007287
 20
6.469424454500654
 10
14.18568344023234
 20
6.328273375493353
 10
14.20920862006689
 20
6.18712229648608
 10
14.17392085031507
 20
6.093021577147879
 10
13.79751797296231
 20
6.022446037644243
 10
12.96237408883586
 20
5.857769778802406
 10
12.29190646355124
 20
5.775431649381488
 10
12.09194243495758
 20
5.716618699795134
 10
11.9037409962812
 20
5.716618699795134
 10
11.44499998950752
 20
5.669568340126033
 10
10.7745323642229
 20
5.763669059464206
 10
10.5510431557947
 20
5.846007188885124
 10
10.13935250869011
 20
6.175359706568798
 10
9.915863300261918
 20
6.445899274666118
 10
9.762949631337349
 20
7.433956827717111
 10
9.892338120427368
 20
7.833884884904421
 10
10.0570143792692
 20
8.139712222753558
 10
10.49223020620833
 20
8.480827330354486
 10
11.11564747182385
 20
8.774892078286342
 10
12.17428056437851
 20
8.951330927045461
 10
12.5859712114831
 20
9.033669056466379
 10
13.4799280451959
 20
9.198345315308216
 10
13.50345322503045
 20
9.21010790522547
 10
13.62107912420319
 20
9.186582725390934
 10
13.70341725362411
 20
9.021906466549097
1001
ACAD
1000
ASC_BOUNDS
1002
{
1070
    19
1005
221
1002
}
  0
LWPOLYLINE
  5
4D9
330
220
100
AcDbEntity
  8
0
100
AcDbPolyline
 90
       49
 70
     1
 43
0.0
 10
8.83370502787271
 20
7.880935244573521
 10
8.951330927045447
 20
7.586870496641665
 10
9.480647473322775
 20
6.445899274666118
 10
9.621798552330062
 20
6.128309346899698
 10
9.668848911999162
 20
5.822482009050588
 10
9.551223012826426
 20
5.38726618211146
 10
9.304208624563671
 20
5.057913664427786
 10
9.116007185887283
 20
4.881474815668667
 10
8.763129488369074
 20
4.622697837488658
 10
7.845647474821703
 20
4.140431650880429
 10
7.551582726889847
 20
4.034568341624947
 10
7.328093518461656
 20
3.91694244245221
 10
6.58705035367339
 20
3.764028773527655
 10
6.010683447726975
 20
3.799316543279473
 10
5.587230210705115
 20
4.022805751707693
 10
5.422553951863278
 20
4.246294960135884
 10
5.316690642607809
 20
4.469784168564075
 10
5.187302153517791
 20
4.705035966909576
 10
4.893237405585949
 20
5.363741002276896
 10
4.610935247571376
 20
5.881294958636971
 10
4.505071938315907
 20
6.14007193681698
 10
4.552122297985008
 20
6.245935246072463
 10
5.293165462773259
 20
6.58705035367339
 10
5.375503592194178
 20
6.58705035367339
 10
5.587230210705115
 20
6.175359706568798
 10
5.775431649381488
 20
5.728381289712388
 10
5.893057548554239
 20
5.540179851036015
 10
6.128309346899712
 20
5.069676254345068
 10
6.23417265615518
 20
4.822661866082313
 10
6.375323735162467
 20
4.58741006773684
 10
6.598812943590672
 20
4.446258988729539
 10
6.834064741936145
 20
4.422733808895003
 10
7.292805748709824
 20
4.434496398812257
 10
7.469244597468943
 20
4.505071938315921
 10
7.669208626062598
 20
4.552122297984993
 10
8.139712222753558
 20
4.787374096330495
 10
8.551402869858137
 20
5.140251793848705
 10
8.704316538782705
 20
5.469604311532378
 10
8.680791358948155
 20
5.798956829216052
 10
8.445539560602668
 20
6.351798555327917
 10
8.304388481595381
 20
6.681151073011591
 10
7.845647474821703
 20
7.586870496641665
 10
7.822122294987153
 20
7.70449639581443
 10
7.845647474821703
 20
7.775071935318067
 10
8.210287762257195
 20
7.939748194159903
 10
8.445539560602668
 20
8.080899273167176
 10
8.621978409361787
 20
8.151474812670812
 10
8.680791358948155
 20
8.127949632836276
 10
8.83370502787271
 20
7.880935244573521
1001
ACAD
1000
ASC_BOUNDS
1002
{
1070
    19
1005
221
1002
}
  0
LWPOLYLINE
  5
4DA
330
220
100
AcDbEntity
  8
0
100
AcDbPolyline
 90
       57
 70
     1
 43
0.0
 10
3.681690644106737
 20
5.246115103104159
 10
3.669928054189455
 20
5.152014383765987
 10
3.269999997002145
 20
4.799136686247749
 10
2.481906472544793
 20
4.128669060963147
 10
2.258417264116587
 20
3.96399280212131
 10
1.623237408583804
 20
3.422913665926699
 10
1.411510790072867
 20
3.175899277663944
 10
1.364460430403781
 20
2.940647479318471
 10
1.423273379990149
 20
2.728920860807562
 10
1.599712228749254
 20
2.564244601965725
 10
1.905539566598378
 20
2.564244601965725
 10
2.117266185109301
 20
2.67010791122118
 10
3.481726615513082
 20
3.799316543279473
 10
4.116906471045865
 20
4.152194240797683
 10
4.528597118150457
 20
4.234532370218602
 10
4.763848916495931
 20
4.234532370218602
 10
4.975575535006868
 20
4.128669060963147
 10
5.293165462773259
 20
3.775791363444938
 10
5.328453232525077
 20
3.540539565099436
 10
5.316690642607809
 20
3.187661867581226
 10
5.034388484593236
 20
2.705395680972998
 10
4.881474815668681
 20
2.505431652379343
 10
2.764208630559366
 20
0.7410431647882661
 10
2.234892084282037
 20
0.3175899277663916
 10
2.152553954861133
 20
0.3175899277663916
 10
1.940827336350196
 20
0.5528417261118648
 10
1.952589926267464
 20
0.6469424454500654
 10
2.505431652379343
 20
1.129208632058293
 10
2.999460428904853
 20
1.529136689245603
 10
3.58758992476855
 20
2.034928055688396
 10
4.128669060963147
 20
2.49366906246206
 10
4.316870499639534
 20
2.775971220476634
 10
4.316870499639534
 20
3.07003596840849
 10
4.234532370218616
 20
3.211187047415791
 10
4.069856111376779
 20
3.328812946588527
 10
3.764028773527655
 20
3.328812946588527
 10
3.4699640255958
 20
3.175899277663944
 10
2.681870501138448
 20
2.540719422131161
 10
2.328992803620238
 20
2.27017985403387
 10
1.917302156515646
 20
1.91730215651566
 10
1.717338127921991
 20
1.776151077508359
 10
1.29388489090013
 20
1.64676258841834
 10
1.082158272389193
 20
1.64676258841834
 10
0.6822302152018836
 20
1.776151077508359
 10
0.3646402874354919
 20
2.129028775026569
 10
0.3058273378491236
 20
2.27017985403387
 10
0.3058273378491236
 20
2.540719422131161
 10
0.4352158269391282
 20
2.787733810393916
 10
0.5410791361945968
 20
3.011223018822136
 10
1.152733811892844
 20
3.669928054189455
 10
1.329172660651948
 20
3.787553953362191
 10
1.893776976681095
 20
4.258057550053166
 10
2.564244601965711
 20
4.822661866082313
 10
3.175899277663958
 20
5.351978412359642
 10
3.411151076009431
 20
5.504892081284197
 10
3.49348920543035
 20
5.493129491366914
 10
3.681690644106737
 20
5.246115103104159
1001
ACAD
1000
ASC_BOUNDS
1002
{
1070
    19
1005
221
1002
}
  0
ENDBLK
  5
4DC
330
220
100
AcDbEntity
  8
0
100
AcDbBlockEnd
  0
BLOCK
  5
4CC
330
222
100
AcDbEntity
  8
0
100
AcDbBlockBegin
  2
*X1
 70
     1
 10
0.0
 20
0.0
 30
0.0
  3
*X1
  1

  0
LINE
  5
223
330
222
100
AcDbEntity
  8
0
 62
     0
100
AcDbLine
 10
30.52287964365676
 20
0.2940647479318485
 30
0.0
 11
30.6259771796039
 21
0.3971622838789823
 31
0.0
  0
LINE
  5
224
330
222
100
AcDbEntity
  8
0
 62
     0
100
AcDbLine
 10
30.34610294836012
 20
0.2940647479318485
 30
0.0
 11
30.53578544704198
 21
0.4837472466137083
 31
0.0
  0
LINE
  5
225
330
222
100
AcDbEntity
  8
0
 62
     0
100
AcDbLine
 10
31.76045405809217
 20
1.88519255296053
 30
0.0
 11
31.99183965006323
 21
2.116578144931592
 31
0.0
  0
LINE
  5
226
330
222
100
AcDbEntity
  8
0
 62
     0
100
AcDbLine
 10
30.16932625306348
 20
0.294064747931845
 30
0.0
 11
30.4405165693372
 21
0.5652550642055659
 31
0.0
  0
LINE
  5
227
330
222
100
AcDbEntity
  8
0
 62
     0
100
AcDbLine
 10
31.33158422582233
 20
1.633099415987325
 30
0.0
 11
32.23916661744365
 21
2.540681807608654
 31
0.0
  0
LINE
  5
228
330
222
100
AcDbEntity
  8
0
 62
     0
100
AcDbLine
 10
29.99254955776685
 20
0.2940647479318485
 30
0.0
 11
30.34524769163243
 21
0.6467628817974323
 31
0.0
  0
LINE
  5
229
330
222
100
AcDbEntity
  8
0
 62
     0
100
AcDbLine
 10
31.09741664788923
 20
1.575708533350871
 30
0.0
 11
32.31376020064328
 21
2.792052086104915
 31
0.0
  0
LINE
  5
22A
330
222
100
AcDbEntity
  8
0
 62
     0
100
AcDbLine
 10
29.81577286247021
 20
0.2940647479318485
 30
0.0
 11
30.24997881392766
 21
0.7282706993892952
 31
0.0
  0
LINE
  5
22B
330
222
100
AcDbEntity
  8
0
 62
     0
100
AcDbLine
 10
29.93579133946212
 20
0.5908599202203959
 30
0.0
 11
30.15470993622288
 21
0.8097785169811562
 31
0.0
  0
LINE
  5
22C
330
222
100
AcDbEntity
  8
0
 62
     0
100
AcDbLine
 10
30.88628576913072
 20
1.541354349888997
 30
0.0
 11
32.31777785280911
 21
2.972846433567383
 31
0.0
  0
LINE
  5
22D
330
222
100
AcDbEntity
  8
0
 62
     0
100
AcDbLine
 10
29.63899616717358
 20
0.2940647479318485
 30
0.0
 11
29.891156812337
 21
0.5462253930952717
 31
0.0
  0
LINE
  5
22E
330
222
100
AcDbEntity
  8
0
 62
     0
100
AcDbLine
 10
29.89040318106642
 20
0.7222484571213279
 30
0.0
 11
30.0594410585181
 21
0.891286334573019
 31
0.0
  0
LINE
  5
22F
330
222
100
AcDbEntity
  8
0
 62
     0
100
AcDbLine
 10
30.73897185638352
 20
1.570817132438438
 30
0.0
 11
32.32179550497495
 21
3.153640781029853
 31
0.0
  0
LINE
  5
230
330
222
100
AcDbEntity
  8
0
 62
     0
100
AcDbLine
 10
29.46221947187694
 20
0.2940647479318485
 30
0.0
 11
29.65129240443408
 21
0.483137680488996
 31
0.0
  0
LINE
  5
231
330
222
100
AcDbEntity
  8
0
 62
     0
100
AcDbLine
 10
29.81551623784246
 20
0.8241382091940074
 30
0.0
 11
29.96417218081333
 21
0.9727941521648801
 31
0.0
  0
LINE
  5
232
330
222
100
AcDbEntity
  8
0
 62
     0
100
AcDbLine
 10
30.59165794363633
 20
1.600279914987877
 30
0.0
 11
32.30531456077436
 21
3.313936532125913
 31
0.0
  0
LINE
  5
233
330
222
100
AcDbEntity
  8
0
 62
     0
100
AcDbLine
 10
29.2854427765803
 20
0.294064747931845
 30
0.0
 11
29.47631955296701
 21
0.484941524318554
 31
0.0
  0
LINE
  5
234
330
222
100
AcDbEntity
  8
0
 62
     0
100
AcDbLine
 10
29.698667559132
 20
0.8840662257801845
 30
0.0
 11
29.86890330310856
 21
1.054301969756743
 31
0.0
  0
LINE
  5
235
330
222
100
AcDbEntity
  8
0
 62
     0
100
AcDbLine
 10
30.44434403088914
 20
1.629742697537318
 30
0.0
 11
32.26535409801285
 21
3.450752764661038
 31
0.0
  0
LINE
  5
236
330
222
100
AcDbEntity
  8
0
 62
     0
100
AcDbLine
 10
29.10999042118197
 20
0.2953890878301575
 30
0.0
 11
29.30134670149993
 21
0.4867453681481138
 31
0.0
  0
LINE
  5
237
330
222
100
AcDbEntity
  8
0
 62
     0
100
AcDbLine
 10
29.60950486108701
 20
0.9716802230318375
 30
0.0
 11
29.77363442540378
 21
1.135809787348605
 31
0.0
  0
LINE
  5
238
330
222
100
AcDbEntity
  8
0
 62
     0
100
AcDbLine
 10
30.30373013673262
 20
1.665905498677442
 30
0.0
 11
32.21821364593374
 21
3.58038900787857
 31
0.0
  0
LINE
  5
239
330
222
100
AcDbEntity
  8
0
 62
     0
100
AcDbLine
 10
28.93593336735144
 20
0.2981087292962616
 30
0.0
 11
29.12637385003285
 21
0.4885492119776718
 31
0.0
  0
LINE
  5
23A
330
222
100
AcDbEntity
  8
0
 62
     0
100
AcDbLine
 10
29.51247705088661
 20
1.051429108128067
 30
0.0
 11
29.67836554769901
 21
1.21731760494047
 31
0.0
  0
LINE
  5
23B
330
222
100
AcDbEntity
  8
0
 62
     0
100
AcDbLine
 10
30.17228079920435
 20
1.711232856445809
 30
0.0
 11
32.17107319385465
 21
3.710025251096102
 31
0.0
  0
LINE
  5
23C
330
222
100
AcDbEntity
  8
0
 62
     0
100
AcDbLine
 10
28.7618763135209
 20
0.3008283707623622
 30
0.0
 11
28.95140099856577
 21
0.490353055807228
 31
0.0
  0
LINE
  5
23D
330
222
100
AcDbEntity
  8
0
 62
     0
100
AcDbLine
 10
30.04083146167608
 20
1.756560214214179
 30
0.0
 11
30.71661743950928
 21
2.432346192047376
 31
0.0
  0
LINE
  5
23E
330
222
100
AcDbEntity
  8
0
 62
     0
100
AcDbLine
 10
29.4154492406862
 20
1.131177993224294
 30
0.0
 11
29.58309666999424
 21
1.298825422532333
 31
0.0
  0
LINE
  5
23F
330
222
100
AcDbEntity
  8
0
 62
     0
100
AcDbLine
 10
31.33374147341488
 20
3.04947022595298
 30
0.0
 11
32.11497072736511
 21
3.830699479903206
 31
0.0
  0
LINE
  5
240
330
222
100
AcDbEntity
  8
0
 62
     0
100
AcDbLine
 10
28.58781925969037
 20
0.3035480122284664
 30
0.0
 11
28.77642814709869
 21
0.492156899636786
 31
0.0
  0
LINE
  5
241
330
222
100
AcDbEntity
  8
0
 62
     0
100
AcDbLine
 10
29.92268443092667
 20
1.815189878761406
 30
0.0
 11
30.45193591164581
 21
2.344441359480535
 31
0.0
  0
LINE
  5
242
330
222
100
AcDbEntity
  8
0
 62
     0
100
AcDbLine
 10
29.31842143048579
 20
1.210926878320517
 30
0.0
 11
29.48461231254709
 21
1.37711776038183
 31
0.0
  0
LINE
  5
243
330
222
100
AcDbEntity
  8
0
 62
     0
100
AcDbLine
 10
31.43523861377242
 20
3.32774406160715
 30
0.0
 11
32.04964020953809
 21
3.942145657372821
 31
0.0
  0
LINE
  5
244
330
222
100
AcDbEntity
  8
0
 62
     0
100
AcDbLine
 10
28.42581817774076
 20
0.3183236255754931
 30
0.0
 11
28.60145529563161
 21
0.493960743466344
 31
0.0
  0
LINE
  5
245
330
222
100
AcDbEntity
  8
0
 62
     0
100
AcDbLine
 10
29.80731437715414
 20
1.876596520285504
 30
0.0
 11
30.25662630931444
 21
2.32590845244581
 31
0.0
  0
LINE
  5
246
330
222
100
AcDbEntity
  8
0
 62
     0
100
AcDbLine
 10
29.22139362028538
 20
1.290675763416746
 30
0.0
 11
29.3842206090453
 21
1.453502752176673
 31
0.0
  0
LINE
  5
247
330
222
100
AcDbEntity
  8
0
 62
     0
100
AcDbLine
 10
31.48362681246037
 20
3.552908955591737
 30
0.0
 11
31.98430969171108
 21
4.053591834842444
 31
0.0
  0
LINE
  5
248
330
222
100
AcDbEntity
  8
0
 62
     0
100
AcDbLine
 10
28.32622567334829
 20
0.3955078164796593
 30
0.0
 11
28.48144978522706
 21
0.5507319283584256
 31
0.0
  0
LINE
  5
249
330
222
100
AcDbEntity
  8
0
 62
     0
100
AcDbLine
 10
29.69194432338159
 20
1.9380031618096
 30
0.0
 11
30.11752333596627
 21
2.363582174394275
 31
0.0
  0
LINE
  5
24A
330
222
100
AcDbEntity
  8
0
 62
     0
100
AcDbLine
 10
29.12436581008497
 20
1.370424648512976
 30
0.0
 11
29.28382890554351
 21
1.529887743971519
 31
0.0
  0
LINE
  5
24B
330
222
100
AcDbEntity
  8
0
 62
     0
100
AcDbLine
 10
31.45416402991092
 20
3.700222868338935
 30
0.0
 11
31.91172004557746
 21
4.157778884005461
 31
0.0
  0
LINE
  5
24C
330
222
100
AcDbEntity
  8
0
 62
     0
100
AcDbLine
 10
28.22663316895582
 20
0.4726920073838237
 30
0.0
 11
28.37018368958734
 21
0.6162425280153486
 31
0.0
  0
LINE
  5
24D
330
222
100
AcDbEntity
  8
0
 62
     0
100
AcDbLine
 10
29.57657426960905
 20
1.999409803333694
 30
0.0
 11
29.97842036261809
 21
2.401255896342732
 31
0.0
  0
LINE
  5
24E
330
222
100
AcDbEntity
  8
0
 62
     0
100
AcDbLine
 10
29.02733799988456
 20
1.4501735336092
 30
0.0
 11
29.18343720204172
 21
1.606272735766358
 31
0.0
  0
LINE
  5
24F
330
222
100
AcDbEntity
  8
0
 62
     0
100
AcDbLine
 10
31.42470124736148
 20
3.84753678108613
 30
0.0
 11
31.82958137907598
 21
4.252416912800629
 31
0.0
  0
LINE
  5
250
330
222
100
AcDbEntity
  8
0
 62
     0
100
AcDbLine
 10
28.12704066456335
 20
0.5498761982879881
 30
0.0
 11
28.27035684989042
 21
0.6931923836150613
 31
0.0
  0
LINE
  5
251
330
222
100
AcDbEntity
  8
0
 62
     0
100
AcDbLine
 10
29.46120421583651
 20
2.060816444857788
 30
0.0
 11
29.83931738926992
 21
2.438929618291201
 31
0.0
  0
LINE
  5
252
330
222
100
AcDbEntity
  8
0
 62
     0
100
AcDbLine
 10
28.93031018968414
 20
1.529922418705426
 30
0.0
 11
29.08304549853993
 21
1.682657727561203
 31
0.0
  0
LINE
  5
253
330
222
100
AcDbEntity
  8
0
 62
     0
100
AcDbLine
 10
31.36594067110705
 20
3.965552900128333
 30
0.0
 11
31.74744271257452
 21
4.3470549415958
 31
0.0
  0
LINE
  5
254
330
222
100
AcDbEntity
  8
0
 62
     0
100
AcDbLine
 10
28.02744816017087
 20
0.6270603891921543
 30
0.0
 11
28.17053001019349
 21
0.7701422392147741
 31
0.0
  0
LINE
  5
255
330
222
100
AcDbEntity
  8
0
 62
     0
100
AcDbLine
 10
29.34583416206397
 20
2.122223086381886
 30
0.0
 11
29.70404883996146
 21
2.480437764279381
 31
0.0
  0
LINE
  5
256
330
222
100
AcDbEntity
  8
0
 62
     0
100
AcDbLine
 10
28.83328237948374
 20
1.609671303801652
 30
0.0
 11
28.98265379503813
 21
1.759042719356045
 31
0.0
  0
LINE
  5
257
330
222
100
AcDbEntity
  8
0
 62
     0
100
AcDbLine
 10
31.29834958172893
 20
4.074738506046843
 30
0.0
 11
31.66530404607305
 21
4.441692970390965
 31
0.0
  0
LINE
  5
258
330
222
100
AcDbEntity
  8
0
 62
     0
100
AcDbLine
 10
27.92581618704288
 20
0.7022051113607902
 30
0.0
 11
28.07070317049657
 21
0.8470920948144868
 31
0.0
  0
LINE
  5
259
330
222
100
AcDbEntity
  8
0
 62
     0
100
AcDbLine
 10
29.23914858358679
 20
2.192314203201343
 30
0.0
 11
29.58730951287878
 21
2.540475132493332
 31
0.0
  0
LINE
  5
25A
330
222
100
AcDbEntity
  8
0
 62
     0
100
AcDbLine
 10
28.73302597329948
 20
1.68619159291404
 30
0.0
 11
28.88226209153634
 21
1.83542771115089
 31
0.0
  0
LINE
  5
25B
330
222
100
AcDbEntity
  8
0
 62
     0
100
AcDbLine
 10
31.2307584923508
 20
4.183924111965351
 30
0.0
 11
31.58316537957158
 21
4.536330999186136
 31
0.0
  0
LINE
  5
25C
330
222
100
AcDbEntity
  8
0
 62
     0
100
AcDbLine
 10
27.82156326417562
 20
0.7747288837901803
 30
0.0
 11
27.97087633079965
 21
0.9240419504141996
 31
0.0
  0
LINE
  5
25D
330
222
100
AcDbEntity
  8
0
 62
     0
100
AcDbLine
 10
29.14093930842199
 20
2.270881623333179
 30
0.0
 11
29.47057018579609
 21
2.600512500707283
 31
0.0
  0
LINE
  5
25E
330
222
100
AcDbEntity
  8
0
 62
     0
100
AcDbLine
 10
28.62254053873909
 20
1.752482853650279
 30
0.0
 11
28.78187038803454
 21
1.911812702945734
 31
0.0
  0
LINE
  5
25F
330
222
100
AcDbEntity
  8
0
 62
     0
100
AcDbLine
 10
31.16316740297267
 20
4.293109717883867
 30
0.0
 11
31.50102671307011
 21
4.630969027981306
 31
0.0
  0
LINE
  5
260
330
222
100
AcDbEntity
  8
0
 62
     0
100
AcDbLine
 10
27.71731034130838
 20
0.8472526562195703
 30
0.0
 11
27.87104949110272
 21
1.00099180601391
 31
0.0
  0
LINE
  5
261
330
222
100
AcDbEntity
  8
0
 62
     0
100
AcDbLine
 10
29.0427300332572
 20
2.349449043465019
 30
0.0
 11
29.35383085871341
 21
2.660549868921236
 31
0.0
  0
LINE
  5
262
330
222
100
AcDbEntity
  8
0
 62
     0
100
AcDbLine
 10
28.51994825915613
 20
1.826667269363955
 30
0.0
 11
28.68147868453274
 21
1.988197694740572
 31
0.0
  0
LINE
  5
263
330
222
100
AcDbEntity
  8
0
 62
     0
100
AcDbLine
 10
31.08869536160125
 20
4.395414371809078
 30
0.0
 11
31.41888804656865
 21
4.725607056776471
 31
0.0
  0
LINE
  5
264
330
222
100
AcDbEntity
  8
0
 62
     0
100
AcDbLine
 10
27.61509156305371
 20
0.9218105732615331
 30
0.0
 11
27.76793613961006
 21
1.074655149817884
 31
0.0
  0
LINE
  5
265
330
222
100
AcDbEntity
  8
0
 62
     0
100
AcDbLine
 10
28.9445207580924
 20
2.428016463596858
 30
0.0
 11
29.24967447082967
 21
2.73317017633413
 31
0.0
  0
LINE
  5
266
330
222
100
AcDbEntity
  8
0
 62
     0
100
AcDbLine
 10
28.42173898399133
 20
1.905234689495795
 30
0.0
 11
28.58108698103095
 21
2.064582686535416
 31
0.0
  0
LINE
  5
267
330
222
100
AcDbEntity
  8
0
 62
     0
100
AcDbLine
 10
30.9928724800386
 20
4.476368185543055
 30
0.0
 11
31.32517631817679
 21
4.80867202368125
 31
0.0
  0
LINE
  5
268
330
222
100
AcDbEntity
  8
0
 62
     0
100
AcDbLine
 10
27.51325281467629
 20
0.9967485201807591
 30
0.0
 11
27.66347718329841
 21
1.146972888802878
 31
0.0
  0
LINE
  5
269
330
222
100
AcDbEntity
  8
0
 62
     0
100
AcDbLine
 10
28.8463114829276
 20
2.506583883728696
 30
0.0
 11
29.15244728841651
 21
2.812719689217615
 31
0.0
  0
LINE
  5
26A
330
222
100
AcDbEntity
  8
0
 62
     0
100
AcDbLine
 10
28.32083987143549
 20
1.981112272236593
 30
0.0
 11
28.48069527752916
 21
2.140967678330259
 31
0.0
  0
LINE
  5
26B
330
222
100
AcDbEntity
  8
0
 62
     0
100
AcDbLine
 10
30.89704959847593
 20
4.557321999277027
 30
0.0
 11
31.22933353157017
 21
4.889605932371276
 31
0.0
  0
LINE
  5
26C
330
222
100
AcDbEntity
  8
0
 62
     0
100
AcDbLine
 10
27.41141406629888
 20
1.071686467099985
 30
0.0
 11
27.55901822698676
 21
1.219290627787863
 31
0.0
  0
LINE
  5
26D
330
222
100
AcDbEntity
  8
0
 62
     0
100
AcDbLine
 10
28.7481022077628
 20
2.585151303860534
 30
0.0
 11
29.05522010600336
 21
2.892269202101104
 31
0.0
  0
LINE
  5
26E
330
222
100
AcDbEntity
  8
0
 62
     0
100
AcDbLine
 10
28.21176488923118
 20
2.048813985328923
 30
0.0
 11
28.37494954890517
 21
2.211998645002907
 31
0.0
  0
LINE
  5
26F
330
222
100
AcDbEntity
  8
0
 62
     0
100
AcDbLine
 10
30.80122671691326
 20
4.638275813011004
 30
0.0
 11
31.13349074496357
 21
4.970539841061304
 31
0.0
  0
LINE
  5
270
330
222
100
AcDbEntity
  8
0
 62
     0
100
AcDbLine
 10
27.30957531792147
 20
1.146624414019211
 30
0.0
 11
27.45455927067511
 21
1.291608366772852
 31
0.0
  0
LINE
  5
271
330
222
100
AcDbEntity
  8
0
 62
     0
100
AcDbLine
 10
28.649892932598
 20
2.663718723992376
 30
0.0
 11
28.97110351113227
 21
2.98492930252665
 31
0.0
  0
LINE
  5
272
330
222
100
AcDbEntity
  8
0
 62
     0
100
AcDbLine
 10
28.10268990702688
 20
2.116515698421252
 30
0.0
 11
28.26824649859098
 21
2.282072289985359
 31
0.0
  0
LINE
  5
273
330
222
100
AcDbEntity
  8
0
 62
     0
100
AcDbLine
 10
30.7054038353506
 20
4.719229626744978
 30
0.0
 11
31.03764795835696
 21
5.051473749751332
 31
0.0
  0
LINE
  5
274
330
222
100
AcDbEntity
  8
0
 62
     0
100
AcDbLine
 10
27.20773656954406
 20
1.221562360938438
 30
0.0
 11
27.35010031436346
 21
1.36392610575784
 31
0.0
  0
LINE
  5
275
330
222
100
AcDbEntity
  8
0
 62
     0
100
AcDbLine
 10
28.55511607310691
 20
2.74571855979792
 30
0.0
 11
28.88720948624573
 21
3.077811972936745
 31
0.0
  0
LINE
  5
276
330
222
100
AcDbEntity
  8
0
 62
     0
100
AcDbLine
 10
27.99422662536771
 20
2.184829112058718
 30
0.0
 11
28.1615434482768
 21
2.352145934967809
 31
0.0
  0
LINE
  5
277
330
222
100
AcDbEntity
  8
0
 62
     0
100
AcDbLine
 10
30.60958095378794
 20
4.800183440478946
 30
0.0
 11
30.94180517175035
 21
5.132407658441355
 31
0.0
  0
LINE
  5
278
330
222
100
AcDbEntity
  8
0
 62
     0
100
AcDbLine
 10
27.10589782116665
 20
1.296500307857662
 30
0.0
 11
27.24564135805181
 21
1.436243844742826
 31
0.0
  0
LINE
  5
279
330
222
100
AcDbEntity
  8
0
 62
     0
100
AcDbLine
 10
28.46763894553744
 20
2.835018127525085
 30
0.0
 11
28.80331546135919
 21
3.170694643346841
 31
0.0
  0
LINE
  5
27A
330
222
100
AcDbEntity
  8
0
 62
     0
100
AcDbLine
 10
27.89024033401674
 20
2.257619516004391
 30
0.0
 11
28.05484039796261
 21
2.42221957995026
 31
0.0
  0
LINE
  5
27B
330
222
100
AcDbEntity
  8
0
 62
     0
100
AcDbLine
 10
30.51375807222527
 20
4.881137254212923
 30
0.0
 11
30.8457754994001
 21
5.213154681387745
 31
0.0
  0
LINE
  5
27C
330
222
100
AcDbEntity
  8
0
 62
     0
100
AcDbLine
 10
27.00758945040656
 20
1.374968632394207
 30
0.0
 11
27.14118240174017
 21
1.508561583727814
 31
0.0
  0
LINE
  5
27D
330
222
100
AcDbEntity
  8
0
 62
     0
100
AcDbLine
 10
28.38016181796797
 20
2.924317695252252
 30
0.0
 11
28.72053115653167
 21
3.264687033815958
 31
0.0
  0
LINE
  5
27E
330
222
100
AcDbEntity
  8
0
 62
     0
100
AcDbLine
 10
27.78625404266578
 20
2.330409919950065
 30
0.0
 11
27.94813734764843
 21
2.49229322493271
 31
0.0
  0
LINE
  5
27F
330
222
100
AcDbEntity
  8
0
 62
     0
100
AcDbLine
 10
30.41543141598477
 20
4.95958729326905
 30
0.0
 11
30.74935184742011
 21
5.293507724704396
 31
0.0
  0
LINE
  5
280
330
222
100
AcDbEntity
  8
0
 62
     0
100
AcDbLine
 10
26.9106473916955
 20
1.454803268979786
 30
0.0
 11
27.03672344542852
 21
1.580879322712799
 31
0.0
  0
LINE
  5
281
330
222
100
AcDbEntity
  8
0
 62
     0
100
AcDbLine
 10
28.29268469039849
 20
3.013617262979419
 30
0.0
 11
28.65593967171175
 21
3.376872244292671
 31
0.0
  0
LINE
  5
282
330
222
100
AcDbEntity
  8
0
 62
     0
100
AcDbLine
 10
27.68226775131482
 20
2.403200323895742
 30
0.0
 11
27.84143429733424
 21
2.562366869915162
 31
0.0
  0
LINE
  5
283
330
222
100
AcDbEntity
  8
0
 62
     0
100
AcDbLine
 10
30.29942170969635
 20
5.020354282277272
 30
0.0
 11
30.63901964756813
 21
5.359952220149052
 31
0.0
  0
LINE
  5
284
330
222
100
AcDbEntity
  8
0
 62
     0
100
AcDbLine
 10
26.7915096362935
 20
1.512442208874421
 30
0.0
 11
26.93226448911687
 21
1.653197061697788
 31
0.0
  0
LINE
  5
285
330
222
100
AcDbEntity
  8
0
 62
     0
100
AcDbLine
 10
28.20520756282903
 20
3.102916830706586
 30
0.0
 11
28.59134818689183
 21
3.489057454769385
 31
0.0
  0
LINE
  5
286
330
222
100
AcDbEntity
  8
0
 62
     0
100
AcDbLine
 10
27.57548546484861
 20
2.473194732726168
 30
0.0
 11
27.73473124702005
 21
2.632440514897611
 31
0.0
  0
LINE
  5
287
330
222
100
AcDbEntity
  8
0
 62
     0
100
AcDbLine
 10
30.18341200340794
 20
5.081121271285494
 30
0.0
 11
30.52638316914903
 21
5.424092437026596
 31
0.0
  0
LINE
  5
288
330
222
100
AcDbEntity
  8
0
 62
     0
100
AcDbLine
 10
26.66411530303016
 20
1.561824570907718
 30
0.0
 11
26.82780553280522
 21
1.725514800682777
 31
0.0
  0
LINE
  5
289
330
222
100
AcDbEntity
  8
0
 62
     0
100
AcDbLine
 10
28.11773043525956
 20
3.192216398433755
 30
0.0
 11
28.5267567020719
 21
3.601242665246097
 31
0.0
  0
LINE
  5
28A
330
222
100
AcDbEntity
  8
0
 62
     0
100
AcDbLine
 10
27.46765168071767
 20
2.542137643891859
 30
0.0
 11
27.62372424180586
 21
2.698210204980053
 31
0.0
  0
LINE
  5
28B
330
222
100
AcDbEntity
  8
0
 62
     0
100
AcDbLine
 10
30.04705967067196
 20
5.12154563384615
 30
0.0
 11
30.41374669072994
 21
5.488232653904137
 31
0.0
  0
LINE
  5
28C
330
222
100
AcDbEntity
  8
0
 62
     0
100
AcDbLine
 10
26.55900483555649
 20
1.633490798730681
 30
0.0
 11
26.71971800613754
 21
1.794203969311734
 31
0.0
  0
LINE
  5
28D
330
222
100
AcDbEntity
  8
0
 62
     0
100
AcDbLine
 10
28.03025330769008
 20
3.28151596616092
 30
0.0
 11
28.47515169593759
 21
3.726414354408415
 31
0.0
  0
LINE
  5
28E
330
222
100
AcDbEntity
  8
0
 62
     0
100
AcDbLine
 10
27.35981789658672
 20
2.611080555057545
 30
0.0
 11
27.50771453551744
 21
2.758977193988275
 31
0.0
  0
LINE
  5
28F
330
222
100
AcDbEntity
  8
0
 62
     0
100
AcDbLine
 10
29.91060046728507
 20
5.16186312575591
 30
0.0
 11
30.30111021231084
 21
5.552372870781674
 31
0.0
  0
LINE
  5
290
330
222
100
AcDbEntity
  8
0
 62
     0
100
AcDbLine
 10
26.45389436808281
 20
1.705157026553639
 30
0.0
 11
26.6074128114785
 21
1.85867546994933
 31
0.0
  0
LINE
  5
291
330
222
100
AcDbEntity
  8
0
 62
     0
100
AcDbLine
 10
27.95646079380705
 20
3.384500147574518
 30
0.0
 11
28.43229673950203
 21
3.8603360932695
 31
0.0
  0
LINE
  5
292
330
222
100
AcDbEntity
  8
0
 62
     0
100
AcDbLine
 10
27.25198411245577
 20
2.680023466223234
 30
0.0
 11
27.3924937038791
 21
2.820533057646569
 31
0.0
  0
LINE
  5
293
330
222
100
AcDbEntity
  8
0
 62
     0
100
AcDbLine
 10
29.7741412638982
 20
5.202180617665666
 30
0.0
 11
30.18847373389175
 21
5.616513087659216
 31
0.0
  0
LINE
  5
294
330
222
100
AcDbEntity
  8
0
 62
     0
100
AcDbLine
 10
26.34454189736137
 20
1.772581251128835
 30
0.0
 11
26.49510761681946
 21
1.923146970586925
 31
0.0
  0
LINE
  5
295
330
222
100
AcDbEntity
  8
0
 62
     0
100
AcDbLine
 10
27.88479456598409
 20
3.489610615048192
 30
0.0
 11
28.41786566237344
 21
4.02268171143754
 31
0.0
  0
LINE
  5
296
330
222
100
AcDbEntity
  8
0
 62
     0
100
AcDbLine
 10
27.14415032832482
 20
2.748966377388924
 30
0.0
 11
27.27885154261697
 21
2.88366759168108
 31
0.0
  0
LINE
  5
297
330
222
100
AcDbEntity
  8
0
 62
     0
100
AcDbLine
 10
29.62358391291578
 20
5.228399961979887
 30
0.0
 11
30.07583725547265
 21
5.680653304536759
 31
0.0
  0
LINE
  5
298
330
222
100
AcDbEntity
  8
0
 62
     0
100
AcDbLine
 10
26.23306109852565
 20
1.837877147589754
 30
0.0
 11
26.38280242216042
 21
1.987618471224525
 31
0.0
  0
LINE
  5
299
330
222
100
AcDbEntity
  8
0
 62
     0
100
AcDbLine
 10
27.81947409256351
 20
3.601066836924253
 30
0.0
 11
28.45813612920986
 21
4.239728873570603
 31
0.0
  0
LINE
  5
29A
330
222
100
AcDbEntity
  8
0
 62
     0
100
AcDbLine
 10
27.03631654419387
 20
2.817909288554611
 30
0.0
 11
27.16520938135485
 21
2.946802125715597
 31
0.0
  0
LINE
  5
29B
330
222
100
AcDbEntity
  8
0
 62
     0
100
AcDbLine
 10
29.41705986921324
 20
5.198652613573985
 30
0.0
 11
29.96320077705356
 21
5.744793521414299
 31
0.0
  0
LINE
  5
29C
330
222
100
AcDbEntity
  8
0
 62
     0
100
AcDbLine
 10
26.12158029968993
 20
1.903173044050678
 30
0.0
 11
26.27049722750137
 21
2.052089971862121
 31
0.0
  0
LINE
  5
29D
330
222
100
AcDbEntity
  8
0
 62
     0
100
AcDbLine
 10
27.76353210038103
 20
3.721901540038407
 30
0.0
 11
28.69332311220457
 21
4.651692551861955
 31
0.0
  0
LINE
  5
29E
330
222
100
AcDbEntity
  8
0
 62
     0
100
AcDbLine
 10
26.9268006731628
 20
2.885170112820176
 30
0.0
 11
27.05326729062672
 21
3.0116367302841
 31
0.0
  0
LINE
  5
29F
330
222
100
AcDbEntity
  8
0
 62
     0
100
AcDbLine
 10
29.01551239403785
 20
4.97388183369523
 30
0.0
 11
29.84213950634175
 21
5.80050894599913
 31
0.0
  0
LINE
  5
2A0
330
222
100
AcDbEntity
  8
0
 62
     0
100
AcDbLine
 10
26.01009950085422
 20
1.968468940511595
 30
0.0
 11
26.15819203284234
 21
2.116561472499716
 31
0.0
  0
LINE
  5
2A1
330
222
100
AcDbEntity
  8
0
 62
     0
100
AcDbLine
 10
26.79585497294306
 20
2.931001107897085
 30
0.0
 11
26.94278185606632
 21
3.077927991020338
 31
0.0
  0
LINE
  5
2A2
330
222
100
AcDbEntity
  8
0
 62
     0
100
AcDbLine
 10
27.70759010819855
 20
3.842736243152566
 30
0.0
 11
29.70464652111103
 21
5.83979265606505
 31
0.0
  0
LINE
  5
2A3
330
222
100
AcDbEntity
  8
0
 62
     0
100
AcDbLine
 10
25.8986187020185
 20
2.033764836972519
 30
0.0
 11
26.04775078793637
 21
2.182896922890387
 31
0.0
  0
LINE
  5
2A4
330
222
100
AcDbEntity
  8
0
 62
     0
100
AcDbLine
 10
26.67040430603023
 20
2.982327136280886
 30
0.0
 11
26.83229642150593
 21
3.144219251756577
 31
0.0
  0
LINE
  5
2A5
330
222
100
AcDbEntity
  8
0
 62
     0
100
AcDbLine
 10
27.65164811601607
 20
3.96357094626672
 30
0.0
 11
29.56715353588031
 21
5.879076366130968
 31
0.0
  0
LINE
  5
2A6
330
222
100
AcDbEntity
  8
0
 62
     0
100
AcDbLine
 10
25.78713790318278
 20
2.099060733433436
 30
0.0
 11
25.9377563997518
 21
2.249679230002449
 31
0.0
  0
LINE
  5
2A7
330
222
100
AcDbEntity
  8
0
 62
     0
100
AcDbLine
 10
26.55935227949773
 20
3.048051805045023
 30
0.0
 11
26.72181098694553
 21
3.210510512492817
 31
0.0
  0
LINE
  5
2A8
330
222
100
AcDbEntity
  8
0
 62
     0
100
AcDbLine
 10
27.59570612383359
 20
4.08440564938088
 30
0.0
 11
29.42966055064959
 21
5.918360076196885
 31
0.0
  0
LINE
  5
2A9
330
222
100
AcDbEntity
  8
0
 62
     0
100
AcDbLine
 10
25.67565710434707
 20
2.164356629894356
 30
0.0
 11
25.82776201156722
 21
2.316461537114511
 31
0.0
  0
LINE
  5
2AA
330
222
100
AcDbEntity
  8
0
 62
     0
100
AcDbLine
 10
26.44830025296523
 20
3.11377647380916
 30
0.0
 11
26.61132555238513
 21
3.276801773229056
 31
0.0
  0
LINE
  5
2AB
330
222
100
AcDbEntity
  8
0
 62
     0
100
AcDbLine
 10
27.54365562016386
 20
4.20913184100779
 30
0.0
 11
29.28766158444545
 21
5.953137805289378
 31
0.0
  0
LINE
  5
2AC
330
222
100
AcDbEntity
  8
0
 62
     0
100
AcDbLine
 10
25.5623923423984
 20
2.227868563242324
 30
0.0
 11
25.71776762338265
 21
2.383243844226578
 31
0.0
  0
LINE
  5
2AD
330
222
100
AcDbEntity
  8
0
 62
     0
100
AcDbLine
 10
26.33724822643273
 20
3.17950114257329
 30
0.0
 11
26.50084011782473
 21
3.343093033965292
 31
0.0
  0
LINE
  5
2AE
330
222
100
AcDbEntity
  8
0
 62
     0
100
AcDbLine
 10
27.51419283761442
 20
4.356445753754986
 30
0.0
 11
29.11950814257792
 21
5.961761058718483
 31
0.0
  0
LINE
  5
2AF
330
222
100
AcDbEntity
  8
0
 62
     0
100
AcDbLine
 10
25.44454121220064
 20
2.286794128341201
 30
0.0
 11
25.60777323519808
 21
2.450026151338636
 31
0.0
  0
LINE
  5
2B0
330
222
100
AcDbEntity
  8
0
 62
     0
100
AcDbLine
 10
26.22619619990022
 20
3.245225811337425
 30
0.0
 11
26.39035468326433
 21
3.409384294701533
 31
0.0
  0
LINE
  5
2B1
330
222
100
AcDbEntity
  8
0
 62
     0
100
AcDbLine
 10
27.51523390734063
 20
4.534263518777834
 30
0.0
 11
28.95135470071038
 21
5.970384312147587
 31
0.0
  0
LINE
  5
2B2
330
222
100
AcDbEntity
  8
0
 62
     0
100
AcDbLine
 10
25.32669008200288
 20
2.345719693440081
 30
0.0
 11
25.4977788470135
 21
2.516808458450702
 31
0.0
  0
LINE
  5
2B3
330
222
100
AcDbEntity
  8
0
 62
     0
100
AcDbLine
 10
26.11426826598292
 20
3.310074572716757
 30
0.0
 11
26.27465115602837
 21
3.470457462762199
 31
0.0
  0
LINE
  5
2B4
330
222
100
AcDbEntity
  8
0
 62
     0
100
AcDbLine
 10
27.54123048017837
 20
4.737036786912211
 30
0.0
 11
28.75902167795475
 21
5.954827984688593
 31
0.0
  0
LINE
  5
2B5
330
222
100
AcDbEntity
  8
0
 62
     0
100
AcDbLine
 10
25.20883895180512
 20
2.404645258538961
 30
0.0
 11
25.37796211952759
 21
2.573768426261432
 31
0.0
  0
LINE
  5
2B6
330
222
100
AcDbEntity
  8
0
 62
     0
100
AcDbLine
 10
25.99304996063665
 20
3.365632962667131
 30
0.0
 11
26.15572865191971
 21
3.528311653950188
 31
0.0
  0
LINE
  5
2B7
330
222
100
AcDbEntity
  8
0
 62
     0
100
AcDbLine
 10
27.61060453870738
 20
4.983187540737857
 30
0.0
 11
28.49889152718448
 21
5.871474529214955
 31
0.0
  0
LINE
  5
2B8
330
222
100
AcDbEntity
  8
0
 62
     0
100
AcDbLine
 10
25.09098782160736
 20
2.463570823637839
 30
0.0
 11
25.25596130164682
 21
2.628544303677294
 31
0.0
  0
LINE
  5
2B9
330
222
100
AcDbEntity
  8
0
 62
     0
100
AcDbLine
 10
26.41952739381583
 20
3.96888709114294
 30
0.0
 11
26.51983527468854
 21
4.069194972015655
 31
0.0
  0
LINE
  5
2BA
330
222
100
AcDbEntity
  8
0
 62
     0
100
AcDbLine
 10
25.87183165529039
 20
3.421191352617503
 30
0.0
 11
26.03680614781107
 21
3.586165845138179
 31
0.0
  0
LINE
  5
2BB
330
222
100
AcDbEntity
  8
0
 62
     0
100
AcDbLine
 10
27.88245619370938
 20
5.431815891036498
 30
0.0
 11
28.06487058432377
 21
5.614230281650884
 31
0.0
  0
LINE
  5
2BC
330
222
100
AcDbEntity
  8
0
 62
     0
100
AcDbLine
 10
24.9731366914096
 20
2.522496388736717
 30
0.0
 11
25.13396048376604
 21
2.683320181093154
 31
0.0
  0
LINE
  5
2BD
330
222
100
AcDbEntity
  8
0
 62
     0
100
AcDbLine
 10
25.76092384866698
 20
3.487060241290725
 30
0.0
 11
25.91788364370242
 21
3.644020036326168
 31
0.0
  0
LINE
  5
2BE
330
222
100
AcDbEntity
  8
0
 62
     0
100
AcDbLine
 10
26.29714352784124
 20
4.023279920464981
 30
0.0
 11
26.47331509171574
 21
4.199451484339489
 31
0.0
  0
LINE
  5
2BF
330
222
100
AcDbEntity
  8
0
 62
     0
100
AcDbLine
 10
24.85528556121185
 20
2.581421953835597
 30
0.0
 11
25.01195966588527
 21
2.738096058509013
 31
0.0
  0
LINE
  5
2C0
330
222
100
AcDbEntity
  8
0
 62
     0
100
AcDbLine
 10
25.64832176044037
 20
3.551234848360758
 30
0.0
 11
25.79896113959377
 21
3.701874227514156
 31
0.0
  0
LINE
  5
2C1
330
222
100
AcDbEntity
  8
0
 62
     0
100
AcDbLine
 10
26.17475966186664
 20
4.077672749787025
 30
0.0
 11
26.42679490874294
 21
4.329707996663328
 31
0.0
  0
LINE
  5
2C2
330
222
100
AcDbEntity
  8
0
 62
     0
100
AcDbLine
 10
24.73743443101409
 20
2.640347518934474
 30
0.0
 11
24.89008236063744
 21
2.792995448557826
 31
0.0
  0
LINE
  5
2C3
330
222
100
AcDbEntity
  8
0
 62
     0
100
AcDbLine
 10
25.52193213540961
 20
3.601621918626632
 30
0.0
 11
25.68003863548513
 21
3.759728418702149
 31
0.0
  0
LINE
  5
2C4
330
222
100
AcDbEntity
  8
0
 62
     0
100
AcDbLine
 10
26.05237579589204
 20
4.132065579109065
 30
0.0
 11
26.3739886476596
 21
4.453678430876621
 31
0.0
  0
LINE
  5
2C5
330
222
100
AcDbEntity
  8
0
 62
     0
100
AcDbLine
 10
24.61476826990698
 20
2.694458053124007
 30
0.0
 11
24.76939827057916
 21
2.849088053796181
 31
0.0
  0
LINE
  5
2C6
330
222
100
AcDbEntity
  8
0
 62
     0
100
AcDbLine
 10
25.40648613031793
 20
3.662952608831588
 30
0.0
 11
25.56111613137648
 21
3.817582609890139
 31
0.0
  0
LINE
  5
2C7
330
222
100
AcDbEntity
  8
0
 62
     0
100
AcDbLine
 10
25.93341834668079
 20
4.18988482519445
 30
0.0
 11
26.31987333277287
 21
4.576339811286532
 31
0.0
  0
LINE
  5
2C8
330
222
100
AcDbEntity
  8
0
 62
     0
100
AcDbLine
 10
24.48998472028583
 20
2.746451198799487
 30
0.0
 11
24.64871418052088
 21
2.905180659034542
 31
0.0
  0
LINE
  5
2C9
330
222
100
AcDbEntity
  8
0
 62
     0
100
AcDbLine
 10
25.29104012522625
 20
3.724283299036546
 30
0.0
 11
25.44078833301128
 21
3.874031506821578
 31
0.0
  0
LINE
  5
2CA
330
222
100
AcDbEntity
  8
0
 62
     0
100
AcDbLine
 10
25.8164737636384
 20
4.249716937448697
 30
0.0
 11
26.26575801788614
 21
4.699001191696444
 31
0.0
  0
LINE
  5
2CB
330
222
100
AcDbEntity
  8
0
 62
     0
100
AcDbLine
 10
24.36520117066467
 20
2.798444344474972
 30
0.0
 11
24.5280300904626
 21
2.961273264272895
 31
0.0
  0
LINE
  5
2CC
330
222
100
AcDbEntity
  8
0
 62
     0
100
AcDbLine
 10
25.69952918059601
 20
4.309549049702942
 30
0.0
 11
26.21164270299942
 21
4.821662572106355
 31
0.0
  0
LINE
  5
2CD
330
222
100
AcDbEntity
  8
0
 62
     0
100
AcDbLine
 10
25.17559412013457
 20
3.785613989241499
 30
0.0
 11
25.31716826637028
 21
3.927188135477207
 31
0.0
  0
LINE
  5
2CE
330
222
100
AcDbEntity
  8
0
 62
     0
100
AcDbLine
 10
26.96884136627696
 20
5.578861235383893
 30
0.0
 11
27.53711967226551
 21
6.147139541372446
 31
0.0
  0
LINE
  5
2CF
330
222
100
AcDbEntity
  8
0
 62
     0
100
AcDbLine
 10
24.24041762104352
 20
2.850437490150453
 30
0.0
 11
24.40734600040432
 21
3.017365869511252
 31
0.0
  0
LINE
  5
2D0
330
222
100
AcDbEntity
  8
0
 62
     0
100
AcDbLine
 10
25.58258459755362
 20
4.369381161957189
 30
0.0
 11
26.1575273881127
 21
4.944323952516265
 31
0.0
  0
LINE
  5
2D1
330
222
100
AcDbEntity
  8
0
 62
     0
100
AcDbLine
 10
25.0521128991609
 20
3.838909463564467
 30
0.0
 11
25.19354819972927
 21
3.980344764132841
 31
0.0
  0
LINE
  5
2D2
330
222
100
AcDbEntity
  8
0
 62
     0
100
AcDbLine
 10
26.71773725482017
 20
5.504533819223741
 30
0.0
 11
27.54595850703034
 21
6.332755071433915
 31
0.0
  0
LINE
  5
2D3
330
222
100
AcDbEntity
  8
0
 62
     0
100
AcDbLine
 10
24.11604177216897
 20
2.902838336572543
 30
0.0
 11
24.28666191034603
 21
3.073458474749608
 31
0.0
  0
LINE
  5
2D4
330
222
100
AcDbEntity
  8
0
 62
     0
100
AcDbLine
 10
25.48227247663609
 20
4.445845736336295
 30
0.0
 11
26.10341207322597
 21
5.066985332926176
 31
0.0
  0
LINE
  5
2D5
330
222
100
AcDbEntity
  8
0
 62
     0
100
AcDbLine
 10
24.92836921245325
 20
3.891942472153457
 30
0.0
 11
25.06992813308826
 21
4.033501392788471
 31
0.0
  0
LINE
  5
2D6
330
222
100
AcDbEntity
  8
0
 62
     0
100
AcDbLine
 10
26.53749434981184
 20
5.501067609512043
 30
0.0
 11
27.50906126888601
 21
6.472634528586217
 31
0.0
  0
LINE
  5
2D7
330
222
100
AcDbEntity
  8
0
 62
     0
100
AcDbLine
 10
23.99365790619438
 20
2.957231165894587
 30
0.0
 11
24.16597782028775
 21
3.12955107998796
 31
0.0
  0
LINE
  5
2D8
330
222
100
AcDbEntity
  8
0
 62
     0
100
AcDbLine
 10
25.41988070182551
 20
4.560230656822353
 30
0.0
 11
26.05882514869076
 21
5.199175103687601
 31
0.0
  0
LINE
  5
2D9
330
222
100
AcDbEntity
  8
0
 62
     0
100
AcDbLine
 10
24.8046255257456
 20
3.944975480742449
 30
0.0
 11
24.94630806644726
 21
4.086658021444103
 31
0.0
  0
LINE
  5
2DA
330
222
100
AcDbEntity
  8
0
 62
     0
100
AcDbLine
 10
26.3572514448035
 20
5.497601399800345
 30
0.0
 11
27.4585536416584
 21
6.598903596655246
 31
0.0
  0
LINE
  5
2DB
330
222
100
AcDbEntity
  8
0
 62
     0
100
AcDbLine
 10
23.87127404021978
 20
3.011623995216625
 30
0.0
 11
24.04396292487953
 21
3.184312879876374
 31
0.0
  0
LINE
  5
2DC
330
222
100
AcDbEntity
  8
0
 62
     0
100
AcDbLine
 10
25.35811657113494
 20
4.67524322142842
 30
0.0
 11
26.03576731886946
 21
5.35289396916294
 31
0.0
  0
LINE
  5
2DD
330
222
100
AcDbEntity
  8
0
 62
     0
100
AcDbLine
 10
24.68088183903796
 20
3.998008489331439
 30
0.0
 11
24.82268799980625
 21
4.139814650099737
 31
0.0
  0
LINE
  5
2DE
330
222
100
AcDbEntity
  8
0
 62
     0
100
AcDbLine
 10
26.17700853979517
 20
5.494135190088648
 30
0.0
 11
27.40804601443079
 21
6.725172664724274
 31
0.0
  0
LINE
  5
2DF
330
222
100
AcDbEntity
  8
0
 62
     0
100
AcDbLine
 10
23.74420897007971
 20
3.061335620373196
 30
0.0
 11
23.91561820089703
 21
3.232744851190521
 31
0.0
  0
LINE
  5
2E0
330
222
100
AcDbEntity
  8
0
 62
     0
100
AcDbLine
 10
24.55713815233032
 20
4.051041497920431
 30
0.0
 11
24.69906793316525
 21
4.192971278755369
 31
0.0
  0
LINE
  5
2E1
330
222
100
AcDbEntity
  8
0
 62
     0
100
AcDbLine
 10
25.31047462488479
 20
4.804377970474899
 30
0.0
 11
27.32964716138822
 21
6.823550506978335
 31
0.0
  0
LINE
  5
2E2
330
222
100
AcDbEntity
  8
0
 62
     0
100
AcDbLine
 10
23.6136819915758
 20
3.107585337165922
 30
0.0
 11
23.78727347691455
 21
3.281176822504669
 31
0.0
  0
LINE
  5
2E3
330
222
100
AcDbEntity
  8
0
 62
     0
100
AcDbLine
 10
24.43339446562267
 20
4.104074506509423
 30
0.0
 11
24.57544786652424
 21
4.246127907411
 31
0.0
  0
LINE
  5
2E4
330
222
100
AcDbEntity
  8
0
 62
     0
100
AcDbLine
 10
25.26283267863462
 20
4.933512719521379
 30
0.0
 11
27.25056285033446
 21
6.921242891221215
 31
0.0
  0
LINE
  5
2E5
330
222
100
AcDbEntity
  8
0
 62
     0
100
AcDbLine
 10
23.48315501307189
 20
3.153835053958648
 30
0.0
 11
23.65892875293206
 21
3.329608793818817
 31
0.0
  0
LINE
  5
2E6
330
222
100
AcDbEntity
  8
0
 62
     0
100
AcDbLine
 10
24.30965077891502
 20
4.157107515098413
 30
0.0
 11
24.45182779988324
 21
4.299284536066632
 31
0.0
  0
LINE
  5
2E7
330
222
100
AcDbEntity
  8
0
 62
     0
100
AcDbLine
 10
25.21519073238447
 20
5.06264746856786
 30
0.0
 11
27.16194302039348
 21
7.009399756576874
 31
0.0
  0
LINE
  5
2E8
330
222
100
AcDbEntity
  8
0
 62
     0
100
AcDbLine
 10
23.35262803456798
 20
3.20008477075137
 30
0.0
 11
23.53058402894957
 21
3.378040765132961
 31
0.0
  0
LINE
  5
2E9
330
222
100
AcDbEntity
  8
0
 62
     0
100
AcDbLine
 10
24.18590709220738
 20
4.210140523687407
 30
0.0
 11
24.32820773324224
 21
4.352441164722263
 31
0.0
  0
LINE
  5
2EA
330
222
100
AcDbEntity
  8
0
 62
     0
100
AcDbLine
 10
25.16754878613431
 20
5.191782217614337
 30
0.0
 11
27.06155131689169
 21
7.085784748371713
 31
0.0
  0
LINE
  5
2EB
330
222
100
AcDbEntity
  8
0
 62
     0
100
AcDbLine
 10
23.22210105606407
 20
3.246334487544094
 30
0.0
 11
23.40457787419178
 21
3.428811305671811
 31
0.0
  0
LINE
  5
2EC
330
222
100
AcDbEntity
  8
0
 62
     0
100
AcDbLine
 10
25.11990683988415
 20
5.320916966660819
 30
0.0
 11
25.99612691484475
 21
6.197137041621418
 31
0.0
  0
LINE
  5
2ED
330
222
100
AcDbEntity
  8
0
 62
     0
100
AcDbLine
 10
24.06216340549973
 20
4.263173532276399
 30
0.0
 11
24.20181600595117
 21
4.402826132727842
 31
0.0
  0
LINE
  5
2EE
330
222
100
AcDbEntity
  8
0
 62
     0
100
AcDbLine
 10
26.237401457592
 20
6.438411584368671
 30
0.0
 11
26.96115961338989
 21
7.162169740166556
 31
0.0
  0
LINE
  5
2EF
330
222
100
AcDbEntity
  8
0
 62
     0
100
AcDbLine
 10
23.09157407756015
 20
3.29258420433682
 30
0.0
 11
23.28284223045932
 21
3.48385235723599
 31
0.0
  0
LINE
  5
2F0
330
222
100
AcDbEntity
  8
0
 62
     0
100
AcDbLine
 10
25.07226489363399
 20
5.450051715707298
 30
0.0
 11
25.8046188282734
 21
6.1824056503467
 31
0.0
  0
LINE
  5
2F1
330
222
100
AcDbEntity
  8
0
 62
     0
100
AcDbLine
 10
23.93841971879208
 20
4.316206540865387
 30
0.0
 11
24.07466083915886
 21
4.452447661232158
 31
0.0
  0
LINE
  5
2F2
330
222
100
AcDbEntity
  8
0
 62
     0
100
AcDbLine
 10
26.26183703168529
 20
6.639623853758589
 30
0.0
 11
26.8607679098881
 21
7.2385547319614
 31
0.0
  0
LINE
  5
2F3
330
222
100
AcDbEntity
  8
0
 62
     0
100
AcDbLine
 10
22.96104709905624
 20
3.338833921129543
 30
0.0
 11
23.14686015715422
 21
3.524646979227522
 31
0.0
  0
LINE
  5
2F4
330
222
100
AcDbEntity
  8
0
 62
     0
100
AcDbLine
 10
25.02462294738383
 20
5.579186464753776
 30
0.0
 11
25.63836292633447
 21
6.19292644370441
 31
0.0
  0
LINE
  5
2F5
330
222
100
AcDbEntity
  8
0
 62
     0
100
AcDbLine
 10
23.81182915207393
 20
4.366392669443872
 30
0.0
 11
23.94750567236654
 21
4.502069189736477
 31
0.0
  0
LINE
  5
2F6
330
222
100
AcDbEntity
  8
0
 62
     0
100
AcDbLine
 10
26.24610070599511
 20
6.800664223365043
 30
0.0
 11
26.76037620638631
 21
7.314939723756243
 31
0.0
  0
LINE
  5
2F7
330
222
100
AcDbEntity
  8
0
 62
     0
100
AcDbLine
 10
22.83052012055233
 20
3.385083637922269
 30
0.0
 11
23.01145353404775
 21
3.566017051417693
 31
0.0
  0
LINE
  5
2F8
330
222
100
AcDbEntity
  8
0
 62
     0
100
AcDbLine
 10
24.97698100113368
 20
5.708321213800255
 30
0.0
 11
25.49525798252291
 21
6.226598195189483
 31
0.0
  0
LINE
  5
2F9
330
222
100
AcDbEntity
  8
0
 62
     0
100
AcDbLine
 10
23.67924663060145
 20
4.410586843268029
 30
0.0
 11
23.82035050557422
 21
4.551690718240797
 31
0.0
  0
LINE
  5
2FA
330
222
100
AcDbEntity
  8
0
 62
     0
100
AcDbLine
 10
26.17982242050729
 20
6.911162633173871
 30
0.0
 11
26.65841113847991
 21
7.389751351146481
 31
0.0
  0
LINE
  5
2FB
330
222
100
AcDbEntity
  8
0
 62
     0
100
AcDbLine
 10
22.69999314204842
 20
3.431333354714992
 30
0.0
 11
22.8772580865233
 21
3.608598299189877
 31
0.0
  0
LINE
  5
2FC
330
222
100
AcDbEntity
  8
0
 62
     0
100
AcDbLine
 10
24.92933905488352
 20
5.837455962846735
 30
0.0
 11
25.35215303871134
 21
6.260269946674554
 31
0.0
  0
LINE
  5
2FD
330
222
100
AcDbEntity
  8
0
 62
     0
100
AcDbLine
 10
23.54666410912898
 20
4.454781017092193
 30
0.0
 11
23.68781518813626
 21
4.595932096099479
 31
0.0
  0
LINE
  5
2FE
330
222
100
AcDbEntity
  8
0
 62
     0
100
AcDbLine
 10
26.09382294711974
 20
7.001939855082953
 30
0.0
 11
26.53081828179403
 21
7.438935189757239
 31
0.0
  0
LINE
  5
2FF
330
222
100
AcDbEntity
  8
0
 62
     0
100
AcDbLine
 10
22.56946616354451
 20
3.477583071507718
 30
0.0
 11
22.74306263899884
 21
3.651179546962058
 31
0.0
  0
LINE
  5
300
330
222
100
AcDbEntity
  8
0
 62
     0
100
AcDbLine
 10
24.85478340008163
 20
5.939677003341484
 30
0.0
 11
25.22086825115916
 21
6.30576185441901
 31
0.0
  0
LINE
  5
301
330
222
100
AcDbEntity
  8
0
 62
     0
100
AcDbLine
 10
23.41381378011198
 20
4.498707383371835
 30
0.0
 11
23.55523266666379
 21
4.640126269923635
 31
0.0
  0
LINE
  5
302
330
222
100
AcDbEntity
  8
0
 62
     0
100
AcDbLine
 10
26.00490220773553
 20
7.089795810995381
 30
0.0
 11
26.40322542510815
 21
7.488119028367995
 31
0.0
  0
LINE
  5
303
330
222
100
AcDbEntity
  8
0
 62
     0
100
AcDbLine
 10
22.4389391850406
 20
3.523832788300444
 30
0.0
 11
22.60886719147439
 21
3.693760794734243
 31
0.0
  0
LINE
  5
304
330
222
100
AcDbEntity
  8
0
 62
     0
100
AcDbLine
 10
23.28082580750351
 20
4.542496106059992
 30
0.0
 11
23.42722183636226
 21
4.688892134918749
 31
0.0
  0
LINE
  5
305
330
222
100
AcDbEntity
  8
0
 62
     0
100
AcDbLine
 10
24.76639505243332
 20
6.028065350989802
 30
0.0
 11
25.09402085148066
 21
6.355691150037145
 31
0.0
  0
LINE
  5
306
330
222
100
AcDbEntity
  8
0
 62
     0
100
AcDbLine
 10
22.30723680776875
 20
3.568907106325236
 30
0.0
 11
22.47467174394994
 21
3.736342042506425
 31
0.0
  0
LINE
  5
307
330
222
100
AcDbEntity
  8
0
 62
     0
100
AcDbLine
 10
25.89611654909145
 20
7.157786847647933
 30
0.0
 11
26.27563256842227
 21
7.537302866978755
 31
0.0
  0
LINE
  5
308
330
222
100
AcDbEntity
  8
0
 62
     0
100
AcDbLine
 10
19.06991613788053
 20
0.3315864364370213
 30
0.0
 11
19.24359710466013
 21
0.5052674032166174
 31
0.0
  0
LINE
  5
309
330
222
100
AcDbEntity
  8
0
 62
     0
100
AcDbLine
 10
23.14783783489502
 20
4.586284828748151
 30
0.0
 11
23.29904911912525
 21
4.73749611297838
 31
0.0
  0
LINE
  5
30A
330
222
100
AcDbEntity
  8
0
 62
     0
100
AcDbLine
 10
24.63945432771784
 20
6.077901321570964
 30
0.0
 11
24.96717345180215
 21
6.40562044565528
 31
0.0
  0
LINE
  5
30B
330
222
100
AcDbEntity
  8
0
 62
     0
100
AcDbLine
 10
22.16767625885035
 20
3.606123252703474
 30
0.0
 11
22.34047629642548
 21
3.778923290278607
 31
0.0
  0
LINE
  5
30C
330
222
100
AcDbEntity
  8
0
 62
     0
100
AcDbLine
 10
25.78063392107023
 20
7.219080914923349
 30
0.0
 11
26.14803971173639
 21
7.586486705589514
 31
0.0
  0
LINE
  5
30D
330
222
100
AcDbEntity
  8
0
 62
     0
100
AcDbLine
 10
18.86821609764036
 20
0.3066630914934834
 30
0.0
 11
19.24359710466012
 21
0.6820440985132539
 31
0.0
  0
LINE
  5
30E
330
222
100
AcDbEntity
  8
0
 62
     0
100
AcDbLine
 10
23.01484986228655
 20
4.630073551436309
 30
0.0
 11
23.16727012808595
 21
4.782493817235705
 31
0.0
  0
LINE
  5
30F
330
222
100
AcDbEntity
  8
0
 62
     0
100
AcDbLine
 10
24.50963394210937
 20
6.124857631259132
 30
0.0
 11
24.84032605212365
 21
6.455549741273413
 31
0.0
  0
LINE
  5
310
330
222
100
AcDbEntity
  8
0
 62
     0
100
AcDbLine
 10
22.02811570993195
 20
3.643339399081714
 30
0.0
 11
22.20628084890103
 21
3.821504538050792
 31
0.0
  0
LINE
  5
311
330
222
100
AcDbEntity
  8
0
 62
     0
100
AcDbLine
 10
25.65502942704367
 20
7.270253116193428
 30
0.0
 11
26.02044685505051
 21
7.635670544200268
 31
0.0
  0
LINE
  5
312
330
222
100
AcDbEntity
  8
0
 62
     0
100
AcDbLine
 10
18.69564837127935
 20
0.3108720604291157
 30
0.0
 11
19.24359710466012
 21
0.8588207938098886
 31
0.0
  0
LINE
  5
313
330
222
100
AcDbEntity
  8
0
 62
     0
100
AcDbLine
 10
22.88186188967807
 20
4.673862274124465
 30
0.0
 11
23.03549113704663
 21
4.827491521493032
 31
0.0
  0
LINE
  5
314
330
222
100
AcDbEntity
  8
0
 62
     0
100
AcDbLine
 10
24.3798135565009
 20
6.1718139409473
 30
0.0
 11
24.71347865244515
 21
6.505479036891546
 31
0.0
  0
LINE
  5
315
330
222
100
AcDbEntity
  8
0
 62
     0
100
AcDbLine
 10
21.88855516101356
 20
3.680555545459954
 30
0.0
 11
22.07208540137658
 21
3.864085785822975
 31
0.0
  0
LINE
  5
316
330
222
100
AcDbEntity
  8
0
 62
     0
100
AcDbLine
 10
25.52942493301711
 20
7.321425317463509
 30
0.0
 11
25.89285399836463
 21
7.684854382811026
 31
0.0
  0
LINE
  5
317
330
222
100
AcDbEntity
  8
0
 62
     0
100
AcDbLine
 10
18.52308064491835
 20
0.3150810293647517
 30
0.0
 11
19.24359710466012
 21
1.035597489106528
 31
0.0
  0
LINE
  5
318
330
222
100
AcDbEntity
  8
0
 62
     0
100
AcDbLine
 10
22.74887391706959
 20
4.717650996812622
 30
0.0
 11
22.90371214600732
 21
4.872489225750358
 31
0.0
  0
LINE
  5
319
330
222
100
AcDbEntity
  8
0
 62
     0
100
AcDbLine
 10
24.24999317089244
 20
6.21877025063547
 30
0.0
 11
24.58663125276665
 21
6.555408332509683
 31
0.0
  0
LINE
  5
31A
330
222
100
AcDbEntity
  8
0
 62
     0
100
AcDbLine
 10
21.74877813161418
 20
3.717555211357213
 30
0.0
 11
21.93788995385212
 21
3.906667033595157
 31
0.0
  0
LINE
  5
31B
330
222
100
AcDbEntity
  8
0
 62
     0
100
AcDbLine
 10
25.40382043899055
 20
7.37259751873359
 30
0.0
 11
25.76526114167875
 21
7.734038221421785
 31
0.0
  0
LINE
  5
31C
330
222
100
AcDbEntity
  8
0
 62
     0
100
AcDbLine
 10
18.35051291855735
 20
0.3192899983003858
 30
0.0
 11
19.24359710466013
 21
1.212374184403165
 31
0.0
  0
LINE
  5
31D
330
222
100
AcDbEntity
  8
0
 62
     0
100
AcDbLine
 10
22.61588594446111
 20
4.76143971950078
 30
0.0
 11
22.77193315496801
 21
4.917486930007681
 31
0.0
  0
LINE
  5
31E
330
222
100
AcDbEntity
  8
0
 62
     0
100
AcDbLine
 10
24.12705131802657
 20
6.272605093066248
 30
0.0
 11
24.45978385308815
 21
6.605337628127816
 31
0.0
  0
LINE
  5
31F
330
222
100
AcDbEntity
  8
0
 62
     0
100
AcDbLine
 10
21.6085759249996
 20
3.754129700039273
 30
0.0
 11
21.80098935378264
 21
3.946543128822311
 31
0.0
  0
LINE
  5
320
330
222
100
AcDbEntity
  8
0
 62
     0
100
AcDbLine
 10
25.278215944964
 20
7.423769720003669
 30
0.0
 11
25.63766828499287
 21
7.783222060032542
 31
0.0
  0
LINE
  5
321
330
222
100
AcDbEntity
  8
0
 62
     0
100
AcDbLine
 10
18.17794519219635
 20
0.32349896723602
 30
0.0
 11
19.24359710466013
 21
1.389150879699801
 31
0.0
  0
LINE
  5
322
330
222
100
AcDbEntity
  8
0
 62
     0
100
AcDbLine
 10
22.48040465093736
 20
4.802735121273673
 30
0.0
 11
22.6401541639287
 21
4.96248463426501
 31
0.0
  0
LINE
  5
323
330
222
100
AcDbEntity
  8
0
 62
     0
100
AcDbLine
 10
24.00746708297297
 20
6.329797553309276
 30
0.0
 11
24.33293645340964
 21
6.655266923745951
 31
0.0
  0
LINE
  5
324
330
222
100
AcDbEntity
  8
0
 62
     0
100
AcDbLine
 10
21.46837371838502
 20
3.790704188721337
 30
0.0
 11
21.65367544103544
 21
3.976005911371752
 31
0.0
  0
LINE
  5
325
330
222
100
AcDbEntity
  8
0
 62
     0
100
AcDbLine
 10
25.15261145093744
 20
7.474941921273746
 30
0.0
 11
25.51007542830699
 21
7.832405898643301
 31
0.0
  0
LINE
  5
326
330
222
100
AcDbEntity
  8
0
 62
     0
100
AcDbLine
 10
18.00537746583534
 20
0.3277079361716542
 30
0.0
 11
19.24359710466012
 21
1.565927574996438
 31
0.0
  0
LINE
  5
327
330
222
100
AcDbEntity
  8
0
 62
     0
100
AcDbLine
 10
22.91168419631306
 20
5.410791361946003
 30
0.0
 11
23.13971690796802
 21
5.63882407360097
 31
0.0
  0
LINE
  5
328
330
222
100
AcDbEntity
  8
0
 62
     0
100
AcDbLine
 10
22.34130167758919
 20
4.840408843222135
 30
0.0
 11
22.50837517288939
 21
5.007482338522335
 31
0.0
  0
LINE
  5
329
330
222
100
AcDbEntity
  8
0
 62
     0
100
AcDbLine
 10
23.87936325944405
 20
6.37847042507699
 30
0.0
 11
24.20608284420012
 21
6.705190009833073
 31
0.0
  0
LINE
  5
32A
330
222
100
AcDbEntity
  8
0
 62
     0
100
AcDbLine
 10
21.32817151177046
 20
3.8272786774034
 30
0.0
 11
21.50636152828825
 21
4.005468693921191
 31
0.0
  0
LINE
  5
32B
330
222
100
AcDbEntity
  8
0
 62
     0
100
AcDbLine
 10
25.02700695691088
 20
7.526114122543825
 30
0.0
 11
25.38248257162111
 21
7.881589737254058
 31
0.0
  0
LINE
  5
32C
330
222
100
AcDbEntity
  8
0
 62
     0
100
AcDbLine
 10
17.89948381248844
 20
0.3985909781213852
 30
0.0
 11
19.24359710466013
 21
1.742704270293074
 31
0.0
  0
LINE
  5
32D
330
222
100
AcDbEntity
  8
0
 62
     0
100
AcDbLine
 10
22.77073997303675
 20
5.44662383396634
 30
0.0
 11
23.26889987760788
 21
5.944783738537459
 31
0.0
  0
LINE
  5
32E
330
222
100
AcDbEntity
  8
0
 62
     0
100
AcDbLine
 10
22.20219870424101
 20
4.878082565170599
 30
0.0
 11
22.37659618185007
 21
5.052480042779659
 31
0.0
  0
LINE
  5
32F
330
222
100
AcDbEntity
  8
0
 62
     0
100
AcDbLine
 10
23.73898176612025
 20
6.414865627049827
 30
0.0
 11
24.07863918014907
 21
6.754523041078646
 31
0.0
  0
LINE
  5
330
330
222
100
AcDbEntity
  8
0
 62
     0
100
AcDbLine
 10
21.18518164001812
 20
3.861065500947699
 30
0.0
 11
21.35904761554105
 21
4.03493147647063
 31
0.0
  0
LINE
  5
331
330
222
100
AcDbEntity
  8
0
 62
     0
100
AcDbLine
 10
24.90140246288433
 20
7.577286323813906
 30
0.0
 11
25.25488971493524
 21
7.930773575864817
 31
0.0
  0
LINE
  5
332
330
222
100
AcDbEntity
  8
0
 62
     0
100
AcDbLine
 10
17.87452880086224
 20
0.5504126617918317
 30
0.0
 11
19.24359710466012
 21
1.919480965589711
 31
0.0
  0
LINE
  5
333
330
222
100
AcDbEntity
  8
0
 62
     0
100
AcDbLine
 10
22.63815745156428
 20
5.490818007790499
 30
0.0
 11
23.42583664466232
 21
6.278497200888539
 31
0.0
  0
LINE
  5
334
330
222
100
AcDbEntity
  8
0
 62
     0
100
AcDbLine
 10
22.06309573089284
 20
4.915756287119064
 30
0.0
 11
22.23205144001815
 21
5.084711996244363
 31
0.0
  0
LINE
  5
335
330
222
100
AcDbEntity
  8
0
 62
     0
100
AcDbLine
 10
23.58347303014759
 20
6.436133586373804
 30
0.0
 11
23.951195516098
 21
6.803856072324219
 31
0.0
  0
LINE
  5
336
330
222
100
AcDbEntity
  8
0
 62
     0
100
AcDbLine
 10
21.03914871781654
 20
3.891809274042767
 30
0.0
 11
21.21173370279385
 21
4.064394259020071
 31
0.0
  0
LINE
  5
337
330
222
100
AcDbEntity
  8
0
 62
     0
100
AcDbLine
 10
24.77591992788545
 20
7.628580484111674
 30
0.0
 11
25.12729685824936
 21
7.979957414475576
 31
0.0
  0
LINE
  5
338
330
222
100
AcDbEntity
  8
0
 62
     0
100
AcDbLine
 10
17.86772969719699
 20
0.720390253423215
 30
0.0
 11
19.24359710466013
 21
2.096257660886349
 31
0.0
  0
LINE
  5
339
330
222
100
AcDbEntity
  8
0
 62
     0
100
AcDbLine
 10
21.9196601496944
 20
4.949097401217258
 30
0.0
 11
22.08575348528989
 21
5.115190736812747
 31
0.0
  0
LINE
  5
33A
330
222
100
AcDbEntity
  8
0
 62
     0
100
AcDbLine
 10
22.5055749300918
 20
5.535012181614657
 30
0.0
 11
23.83190754032096
 21
6.861344791843812
 31
0.0
  0
LINE
  5
33B
330
222
100
AcDbEntity
  8
0
 62
     0
100
AcDbLine
 10
20.90339901368091
 20
3.932836265203771
 30
0.0
 11
21.06441979004666
 21
4.09385704156951
 31
0.0
  0
LINE
  5
33C
330
222
100
AcDbEntity
  8
0
 62
     0
100
AcDbLine
 10
24.65046549896526
 20
7.679902750488114
 30
0.0
 11
24.99970400156348
 21
8.029141253086333
 31
0.0
  0
LINE
  5
33D
330
222
100
AcDbEntity
  8
0
 62
     0
100
AcDbLine
 10
17.86093059353174
 20
0.8903678450545946
 30
0.0
 11
19.24359710466013
 21
2.273034356182986
 31
0.0
  0
LINE
  5
33E
330
222
100
AcDbEntity
  8
0
 62
     0
100
AcDbLine
 10
21.76813726801157
 20
4.974351214831065
 30
0.0
 11
21.95103267590843
 21
5.157246622727926
 31
0.0
  0
LINE
  5
33F
330
222
100
AcDbEntity
  8
0
 62
     0
100
AcDbLine
 10
22.37299240861933
 20
5.579206355438817
 30
0.0
 11
23.76107010263065
 21
6.967284049450139
 31
0.0
  0
LINE
  5
340
330
222
100
AcDbEntity
  8
0
 62
     0
100
AcDbLine
 10
20.7529648605387
 20
3.959178807358199
 30
0.0
 11
20.91710587729946
 21
4.123319824118947
 31
0.0
  0
LINE
  5
341
330
222
100
AcDbEntity
  8
0
 62
     0
100
AcDbLine
 10
24.52501107004507
 20
7.731225016864559
 30
0.0
 11
24.8721111448776
 21
8.078325091697092
 31
0.0
  0
LINE
  5
342
330
222
100
AcDbEntity
  8
0
 62
     0
100
AcDbLine
 10
17.85499744997864
 20
1.061211396798135
 30
0.0
 11
19.24359710466012
 21
2.449811051479622
 31
0.0
  0
LINE
  5
343
330
222
100
AcDbEntity
  8
0
 62
     0
100
AcDbLine
 10
21.63463650640724
 20
5.017627148523368
 30
0.0
 11
21.81655549157678
 21
5.199546133692912
 31
0.0
  0
LINE
  5
344
330
222
100
AcDbEntity
  8
0
 62
     0
100
AcDbLine
 10
22.24129243595289
 20
5.624283078069019
 30
0.0
 11
23.79820361409919
 21
7.181194256215317
 31
0.0
  0
LINE
  5
345
330
222
100
AcDbEntity
  8
0
 62
     0
100
AcDbLine
 10
20.59910366278052
 20
3.98209430489665
 30
0.0
 11
20.76979196455226
 21
4.152782606668386
 31
0.0
  0
LINE
  5
346
330
222
100
AcDbEntity
  8
0
 62
     0
100
AcDbLine
 10
24.39955664112487
 20
7.782547283240999
 30
0.0
 11
24.74451828819172
 21
8.127508930307849
 31
0.0
  0
LINE
  5
347
330
222
100
AcDbEntity
  8
0
 62
     0
100
AcDbLine
 10
17.85217654526646
 20
1.23516718738259
 30
0.0
 11
19.24289240256937
 21
2.625883044685497
 31
0.0
  0
LINE
  5
348
330
222
100
AcDbEntity
  8
0
 62
     0
100
AcDbLine
 10
21.49631222819549
 20
5.056079565608259
 30
0.0
 11
21.66388470927514
 21
5.223652046687908
 31
0.0
  0
LINE
  5
349
330
222
100
AcDbEntity
  8
0
 62
     0
100
AcDbLine
 10
22.15290408830457
 20
5.712671425717338
 30
0.0
 11
23.92260202930793
 21
7.482369366720698
 31
0.0
  0
LINE
  5
34A
330
222
100
AcDbEntity
  8
0
 62
     0
100
AcDbLine
 10
20.44524246502234
 20
4.005009802435104
 30
0.0
 11
20.6203027289432
 21
4.180070066355964
 31
0.0
  0
LINE
  5
34B
330
222
100
AcDbEntity
  8
0
 62
     0
100
AcDbLine
 10
24.25097917183328
 20
7.810746509246049
 30
0.0
 11
24.61692543150584
 21
8.176692768918607
 31
0.0
  0
LINE
  5
34C
330
222
100
AcDbEntity
  8
0
 62
     0
100
AcDbLine
 10
17.84935564055428
 20
1.409122977967047
 30
0.0
 11
19.24209611114911
 21
2.801863448561881
 31
0.0
  0
LINE
  5
34D
330
222
100
AcDbEntity
  8
0
 62
     0
100
AcDbLine
 10
21.35447976336447
 20
5.091023796073875
 30
0.0
 11
21.52329537875386
 21
5.259839411463262
 31
0.0
  0
LINE
  5
34E
330
222
100
AcDbEntity
  8
0
 62
     0
100
AcDbLine
 10
20.29378432053181
 20
4.030328353241214
 30
0.0
 11
20.46316788867952
 21
4.199711921388926
 31
0.0
  0
LINE
  5
34F
330
222
100
AcDbEntity
  8
0
 62
     0
100
AcDbLine
 10
22.23249066643208
 20
5.969034699141479
 30
0.0
 11
24.48735058676275
 21
8.22389461947216
 31
0.0
  0
LINE
  5
350
330
222
100
AcDbEntity
  8
0
 62
     0
100
AcDbLine
 10
17.8465347358421
 20
1.583078768551503
 30
0.0
 11
19.24129981972886
 21
2.977843852438263
 31
0.0
  0
LINE
  5
351
330
222
100
AcDbEntity
  8
0
 62
     0
100
AcDbLine
 10
21.21264729853344
 20
5.125968026539485
 30
0.0
 11
21.39234967853413
 21
5.305670406540167
 31
0.0
  0
LINE
  5
352
330
222
100
AcDbEntity
  8
0
 62
     0
100
AcDbLine
 10
20.15067937672025
 20
4.064000104726288
 30
0.0
 11
20.30603304841584
 21
4.219353776421883
 31
0.0
  0
LINE
  5
353
330
222
100
AcDbEntity
  8
0
 62
     0
100
AcDbLine
 10
22.34654014726862
 20
6.259860875274657
 30
0.0
 11
24.35619368380073
 21
8.269514411806774
 31
0.0
  0
LINE
  5
354
330
222
100
AcDbEntity
  8
0
 62
     0
100
AcDbLine
 10
17.84371383112992
 20
1.757034559135959
 30
0.0
 11
19.2405035283086
 21
3.153824256314644
 31
0.0
  0
LINE
  5
355
330
222
100
AcDbEntity
  8
0
 62
     0
100
AcDbLine
 10
21.07081483370242
 20
5.160912257005099
 30
0.0
 11
21.24939379730851
 21
5.339491220611185
 31
0.0
  0
LINE
  5
356
330
222
100
AcDbEntity
  8
0
 62
     0
100
AcDbLine
 10
19.99144130090462
 20
4.081538724207302
 30
0.0
 11
20.14889820815216
 21
4.238995631454844
 31
0.0
  0
LINE
  5
357
330
222
100
AcDbEntity
  8
0
 62
     0
100
AcDbLine
 10
22.46264429039421
 20
6.552741713696885
 30
0.0
 11
24.23160170530717
 21
8.321699128609846
 31
0.0
  0
LINE
  5
358
330
222
100
AcDbEntity
  8
0
 62
     0
100
AcDbLine
 10
17.84089292641773
 20
1.930990349720415
 30
0.0
 11
19.23970723688834
 21
3.329804660191026
 31
0.0
  0
LINE
  5
359
330
222
100
AcDbEntity
  8
0
 62
     0
100
AcDbLine
 10
20.9289823688714
 20
5.195856487470714
 30
0.0
 11
21.10263578611884
 21
5.369509904718158
 31
0.0
  0
LINE
  5
35A
330
222
100
AcDbEntity
  8
0
 62
     0
100
AcDbLine
 10
19.83417240134437
 20
4.101046519943685
 30
0.0
 11
20.02214497121629
 21
4.289019089815607
 31
0.0
  0
LINE
  5
35B
330
222
100
AcDbEntity
  8
0
 62
     0
100
AcDbLine
 10
22.58239624527258
 20
6.849270363871888
 30
0.0
 11
24.11200824885671
 21
8.378882367456029
 31
0.0
  0
LINE
  5
35C
330
222
100
AcDbEntity
  8
0
 62
     0
100
AcDbLine
 10
17.83807202170556
 20
2.104946140304872
 30
0.0
 11
19.23891094546809
 21
3.505785064067407
 31
0.0
  0
LINE
  5
35D
330
222
100
AcDbEntity
  8
0
 62
     0
100
AcDbLine
 10
20.78714990404038
 20
5.230800717936331
 30
0.0
 11
20.95587777492918
 21
5.399528588825134
 31
0.0
  0
LINE
  5
35E
330
222
100
AcDbEntity
  8
0
 62
     0
100
AcDbLine
 10
19.71264399386659
 20
4.15629480776254
 30
0.0
 11
19.93567726577295
 21
4.3793280796689
 31
0.0
  0
LINE
  5
35F
330
222
100
AcDbEntity
  8
0
 62
     0
100
AcDbLine
 10
22.70547938845234
 20
7.149130202348295
 30
0.0
 11
23.98826456214907
 21
8.43191537604502
 31
0.0
  0
LINE
  5
360
330
222
100
AcDbEntity
  8
0
 62
     0
100
AcDbLine
 10
17.83525111699337
 20
2.278901930889329
 30
0.0
 11
19.23811465404783
 21
3.68176546794379
 31
0.0
  0
LINE
  5
361
330
222
100
AcDbEntity
  8
0
 62
     0
100
AcDbLine
 10
20.6139250039943
 20
5.23435251318689
 30
0.0
 11
20.81193189284657
 21
5.432359402039154
 31
0.0
  0
LINE
  5
362
330
222
100
AcDbEntity
  8
0
 62
     0
100
AcDbLine
 10
21.27620818405614
 20
5.89663569324873
 30
0.0
 11
21.38538952788477
 21
6.005817037077361
 31
0.0
  0
LINE
  5
363
330
222
100
AcDbEntity
  8
0
 62
     0
100
AcDbLine
 10
19.66772707319075
 20
4.288154582383342
 30
0.0
 11
19.89175337011798
 21
4.512180879310569
 31
0.0
  0
LINE
  5
364
330
222
100
AcDbEntity
  8
0
 62
     0
100
AcDbLine
 10
22.83642508867208
 20
7.456852597864668
 30
0.0
 11
23.86124329806748
 21
8.481670807260069
 31
0.0
  0
LINE
  5
365
330
222
100
AcDbEntity
  8
0
 62
     0
100
AcDbLine
 10
17.83243021228119
 20
2.452857721473784
 30
0.0
 11
19.23731836262758
 21
3.85774587182017
 31
0.0
  0
LINE
  5
366
330
222
100
AcDbEntity
  8
0
 62
     0
100
AcDbLine
 10
20.45263543181928
 20
5.249839636308505
 30
0.0
 11
20.67724488690627
 21
5.474449091395499
 31
0.0
  0
LINE
  5
367
330
222
100
AcDbEntity
  8
0
 62
     0
100
AcDbLine
 10
19.66929146872435
 20
4.466495673213578
 30
0.0
 11
19.8945593494084
 21
4.691763553897629
 31
0.0
  0
LINE
  5
368
330
222
100
AcDbEntity
  8
0
 62
     0
100
AcDbLine
 10
21.12093135710639
 20
5.918135561595618
 30
0.0
 11
21.41540821199175
 21
6.212612416480975
 31
0.0
  0
LINE
  5
369
330
222
100
AcDbEntity
  8
0
 62
     0
100
AcDbLine
 10
17.82960930756901
 20
2.626813512058242
 30
0.0
 11
19.23652207120732
 21
4.033726275696554
 31
0.0
  0
LINE
  5
36A
330
222
100
AcDbEntity
  8
0
 62
     0
100
AcDbLine
 10
22.95062938104008
 20
7.747833585529305
 30
0.0
 11
23.72655629212719
 21
8.523760496616411
 31
0.0
  0
LINE
  5
36B
330
222
100
AcDbEntity
  8
0
 62
     0
100
AcDbLine
 10
15.55039949974974
 20
0.347603704238967
 30
0.0
 11
15.66776976980885
 21
0.4649739742980837
 31
0.0
  0
LINE
  5
36C
330
222
100
AcDbEntity
  8
0
 62
     0
100
AcDbLine
 10
20.31794842587899
 20
5.291929325664847
 30
0.0
 11
20.52456296597416
 21
5.498543865760021
 31
0.0
  0
LINE
  5
36D
330
222
100
AcDbEntity
  8
0
 62
     0
100
AcDbLine
 10
19.67085586425795
 20
4.644836764043814
 30
0.0
 11
19.89736532869882
 21
4.871346228484688
 31
0.0
  0
LINE
  5
36E
330
222
100
AcDbEntity
  8
0
 62
     0
100
AcDbLine
 10
20.96565453015664
 20
5.939635429942507
 30
0.0
 11
21.44542689609872
 21
6.419407795884586
 31
0.0
  0
LINE
  5
36F
330
222
100
AcDbEntity
  8
0
 62
     0
100
AcDbLine
 10
17.82678840285683
 20
2.800769302642699
 30
0.0
 11
19.23572577978707
 21
4.209706679572935
 31
0.0
  0
LINE
  5
370
330
222
100
AcDbEntity
  8
0
 62
     0
100
AcDbLine
 10
23.04816135085891
 20
8.022142250644774
 30
0.0
 11
23.60296893884896
 21
8.576949838634821
 31
0.0
  0
LINE
  5
371
330
222
100
AcDbEntity
  8
0
 62
     0
100
AcDbLine
 10
15.35928955888851
 20
0.3332704586743747
 30
0.0
 11
15.66776976980885
 21
0.6417506695947193
 31
0.0
  0
LINE
  5
372
330
222
100
AcDbEntity
  8
0
 62
     0
100
AcDbLine
 10
20.15511786172345
 20
5.305875456805948
 30
0.0
 11
20.36834170036318
 21
5.519099295445676
 31
0.0
  0
LINE
  5
373
330
222
100
AcDbEntity
  8
0
 62
     0
100
AcDbLine
 10
19.67242025979155
 20
4.82317785487405
 30
0.0
 11
19.90017130798925
 21
5.05092890307175
 31
0.0
  0
LINE
  5
374
330
222
100
AcDbEntity
  8
0
 62
     0
100
AcDbLine
 10
20.8103777032069
 20
5.961135298289394
 30
0.0
 11
21.4754455802057
 21
6.626203175288197
 31
0.0
  0
LINE
  5
375
330
222
100
AcDbEntity
  8
0
 62
     0
100
AcDbLine
 10
17.82396749814465
 20
2.974725093227154
 30
0.0
 11
19.23492948836681
 21
4.385687083449316
 31
0.0
  0
LINE
  5
376
330
222
100
AcDbEntity
  8
0
 62
     0
100
AcDbLine
 10
23.16801671028779
 20
8.31877430537029
 30
0.0
 11
23.47629312101828
 21
8.627050716100782
 31
0.0
  0
LINE
  5
377
330
222
100
AcDbEntity
  8
0
 62
     0
100
AcDbLine
 10
15.16817961802728
 20
0.3189372131097823
 30
0.0
 11
15.66776976980885
 21
0.8185273648913566
 31
0.0
  0
LINE
  5
378
330
222
100
AcDbEntity
  8
0
 62
     0
100
AcDbLine
 10
19.67398465532515
 20
5.001518945704285
 30
0.0
 11
20.2121204347522
 21
5.539654725131333
 31
0.0
  0
LINE
  5
379
330
222
100
AcDbEntity
  8
0
 62
     0
100
AcDbLine
 10
20.65510087625714
 20
5.98263516663628
 30
0.0
 11
21.52608563348261
 21
6.853619923861742
 31
0.0
  0
LINE
  5
37A
330
222
100
AcDbEntity
  8
0
 62
     0
100
AcDbLine
 10
17.82114659343247
 20
3.148680883811609
 30
0.0
 11
19.23413319694656
 21
4.561667487325699
 31
0.0
  0
LINE
  5
37B
330
222
100
AcDbEntity
  8
0
 62
     0
100
AcDbLine
 10
23.31844168178375
 20
8.645975972162887
 30
0.0
 11
23.32897920827109
 21
8.65651349865022
 31
0.0
  0
LINE
  5
37C
330
222
100
AcDbEntity
  8
0
 62
     0
100
AcDbLine
 10
14.99557840207903
 20
0.3231126924581726
 30
0.0
 11
15.66776976980885
 21
0.9953040601879941
 31
0.0
  0
LINE
  5
37D
330
222
100
AcDbEntity
  8
0
 62
     0
100
AcDbLine
 10
19.67554905085875
 20
5.179860036534521
 30
0.0
 11
20.05118091980614
 21
5.555491905481912
 31
0.0
  0
LINE
  5
37E
330
222
100
AcDbEntity
  8
0
 62
     0
100
AcDbLine
 10
17.82032372466998
 20
3.324634710345756
 30
0.0
 11
19.2333369055263
 21
4.737647891202079
 31
0.0
  0
LINE
  5
37F
330
222
100
AcDbEntity
  8
0
 62
     0
100
AcDbLine
 10
20.50589200987769
 20
6.010202995553469
 30
0.0
 11
21.57610268618467
 21
7.080413671860438
 31
0.0
  0
LINE
  5
380
330
222
100
AcDbEntity
  8
0
 62
     0
100
AcDbLine
 10
14.82489745489607
 20
0.3292084405718487
 30
0.0
 11
15.66776976980885
 21
1.172080755484629
 31
0.0
  0
LINE
  5
381
330
222
100
AcDbEntity
  8
0
 62
     0
100
AcDbLine
 10
19.67711344639235
 20
5.358201127364757
 30
0.0
 11
19.89011770853587
 21
5.571205389508279
 31
0.0
  0
LINE
  5
382
330
222
100
AcDbEntity
  8
0
 62
     0
100
AcDbLine
 10
17.81997162688278
 20
3.501059307855192
 30
0.0
 11
19.23254061410605
 21
4.913628295078461
 31
0.0
  0
LINE
  5
383
330
222
100
AcDbEntity
  8
0
 62
     0
100
AcDbLine
 10
20.37563549755386
 20
6.056723178526271
 30
0.0
 11
21.61976363692541
 21
7.300851317897817
 31
0.0
  0
LINE
  5
384
330
222
100
AcDbEntity
  8
0
 62
     0
100
AcDbLine
 10
14.74031734820666
 20
0.4214050291790708
 30
0.0
 11
15.66776976980885
 21
1.348857450781268
 31
0.0
  0
LINE
  5
385
330
222
100
AcDbEntity
  8
0
 62
     0
100
AcDbLine
 10
19.67867784192594
 20
5.536542218194993
 30
0.0
 11
19.7290544972656
 21
5.586918873534648
 31
0.0
  0
LINE
  5
386
330
222
100
AcDbEntity
  8
0
 62
     0
100
AcDbLine
 10
17.8121148848696
 20
3.669979261138646
 30
0.0
 11
19.23183451474285
 21
5.089698891011899
 31
0.0
  0
LINE
  5
387
330
222
100
AcDbEntity
  8
0
 62
     0
100
AcDbLine
 10
20.34698932458929
 20
6.204853700858338
 30
0.0
 11
21.65798562509765
 21
7.515850001366697
 31
0.0
  0
LINE
  5
388
330
222
100
AcDbEntity
  8
0
 62
     0
100
AcDbLine
 10
14.73751972270705
 20
0.5953840989761057
 30
0.0
 11
15.66776976980885
 21
1.525634146077903
 31
0.0
  0
LINE
  5
389
330
222
100
AcDbEntity
  8
0
 62
     0
100
AcDbLine
 10
17.80425814285642
 20
3.838899214422101
 30
0.0
 11
19.23183451474285
 21
5.266475586308536
 31
0.0
  0
LINE
  5
38A
330
222
100
AcDbEntity
  8
0
 62
     0
100
AcDbLine
 10
20.38842136254944
 20
6.423062434115123
 30
0.0
 11
21.6962076132699
 21
7.730848684835582
 31
0.0
  0
LINE
  5
38B
330
222
100
AcDbEntity
  8
0
 62
     0
100
AcDbLine
 10
14.73649195122277
 20
0.7711330227884599
 30
0.0
 11
15.66776976980885
 21
1.702410841374541
 31
0.0
  0
LINE
  5
38C
330
222
100
AcDbEntity
  8
0
 62
     0
100
AcDbLine
 10
17.79381996489389
 20
4.005237731756217
 30
0.0
 11
19.23183451474285
 21
5.443252281605174
 31
0.0
  0
LINE
  5
38D
330
222
100
AcDbEntity
  8
0
 62
     0
100
AcDbLine
 10
20.42985340050959
 20
6.641271167371908
 30
0.0
 11
21.74523846785261
 21
7.956656234714928
 31
0.0
  0
LINE
  5
38E
330
222
100
AcDbEntity
  8
0
 62
     0
100
AcDbLine
 10
14.73546417973849
 20
0.946881946600814
 30
0.0
 11
15.66776976980885
 21
1.879187536671178
 31
0.0
  0
LINE
  5
38F
330
222
100
AcDbEntity
  8
0
 62
     0
100
AcDbLine
 10
17.73218960377272
 20
4.120384065931678
 30
0.0
 11
19.23183451474285
 21
5.620028976901809
 31
0.0
  0
LINE
  5
390
330
222
100
AcDbEntity
  8
0
 62
     0
100
AcDbLine
 10
20.47128543846973
 20
6.859479900628692
 30
0.0
 11
21.78346045602486
 21
8.171654918183811
 31
0.0
  0
LINE
  5
391
330
222
100
AcDbEntity
  8
0
 62
     0
100
AcDbLine
 10
14.7344364082542
 20
1.122630870413167
 30
0.0
 11
15.66776976980885
 21
2.055964231967814
 31
0.0
  0
LINE
  5
392
330
222
100
AcDbEntity
  8
0
 62
     0
100
AcDbLine
 10
17.62170416921232
 20
4.186675326667919
 30
0.0
 11
19.23183451474285
 21
5.796805672198449
 31
0.0
  0
LINE
  5
393
330
222
100
AcDbEntity
  8
0
 62
     0
100
AcDbLine
 10
20.51311565348042
 20
7.078086810936018
 30
0.0
 11
21.82551902448138
 21
8.390490181936975
 31
0.0
  0
LINE
  5
394
330
222
100
AcDbEntity
  8
0
 62
     0
100
AcDbLine
 10
14.73340863676992
 20
1.298379794225524
 30
0.0
 11
15.66837651579063
 21
2.233347673246227
 31
0.0
  0
LINE
  5
395
330
222
100
AcDbEntity
  8
0
 62
     0
100
AcDbLine
 10
17.44458530557176
 20
4.186333158323995
 30
0.0
 11
19.23183451474285
 21
5.973582367495087
 31
0.0
  0
LINE
  5
396
330
222
100
AcDbEntity
  8
0
 62
     0
100
AcDbLine
 10
20.5561153901742
 20
7.297863242926428
 30
0.0
 11
21.91872618477207
 21
8.660474037524304
 31
0.0
  0
LINE
  5
397
330
222
100
AcDbEntity
  8
0
 62
     0
100
AcDbLine
 10
14.73238086528564
 20
1.474128718037876
 30
0.0
 11
15.6707653900514
 21
2.412513242803631
 31
0.0
  0
LINE
  5
398
330
222
100
AcDbEntity
  8
0
 62
     0
100
AcDbLine
 10
17.2666456057008
 20
4.185170153749674
 30
0.0
 11
19.23183451474286
 21
6.150359062791722
 31
0.0
  0
LINE
  5
399
330
222
100
AcDbEntity
  8
0
 62
     0
100
AcDbLine
 10
20.59911512686797
 20
7.517639674916842
 30
0.0
 11
21.94524268906656
 21
8.863767237115432
 31
0.0
  0
LINE
  5
39A
330
222
100
AcDbEntity
  8
0
 62
     0
100
AcDbLine
 10
14.73135309380136
 20
1.64987764185023
 30
0.0
 11
15.67315426431216
 21
2.591678812361034
 31
0.0
  0
LINE
  5
39B
330
222
100
AcDbEntity
  8
0
 62
     0
100
AcDbLine
 10
17.08870590582985
 20
4.184007149175354
 30
0.0
 11
19.23183451474285
 21
6.32713575808836
 31
0.0
  0
LINE
  5
39C
330
222
100
AcDbEntity
  8
0
 62
     0
100
AcDbLine
 10
20.64240045960786
 20
7.737701702953362
 30
0.0
 11
21.8852465555923
 21
8.9805477989378
 31
0.0
  0
LINE
  5
39D
330
222
100
AcDbEntity
  8
0
 62
     0
100
AcDbLine
 10
14.73032532231708
 20
1.825626565662584
 30
0.0
 11
15.67554313857293
 21
2.770844381918438
 31
0.0
  0
LINE
  5
39E
330
222
100
AcDbEntity
  8
0
 62
     0
100
AcDbLine
 10
16.91076620595889
 20
4.182844144601035
 30
0.0
 11
19.23093213777287
 21
6.503010076415013
 31
0.0
  0
LINE
  5
39F
330
222
100
AcDbEntity
  8
0
 62
     0
100
AcDbLine
 10
20.68576078109571
 20
7.957838719737849
 30
0.0
 11
21.7379326428451
 21
9.010010581487239
 31
0.0
  0
LINE
  5
3A0
330
222
100
AcDbEntity
  8
0
 62
     0
100
AcDbLine
 10
14.7292975508328
 20
2.001375489474939
 30
0.0
 11
15.6779320128337
 21
2.95000995147584
 31
0.0
  0
LINE
  5
3A1
330
222
100
AcDbEntity
  8
0
 62
     0
100
AcDbLine
 10
16.73282650608793
 20
4.181681140026713
 30
0.0
 11
19.22969159956026
 21
6.678546233499043
 31
0.0
  0
LINE
  5
3A2
330
222
100
AcDbEntity
  8
0
 62
     0
100
AcDbLine
 10
20.72912110258356
 20
8.177975736522345
 30
0.0
 11
21.5906187300979
 21
9.03947336403668
 31
0.0
  0
LINE
  5
3A3
330
222
100
AcDbEntity
  8
0
 62
     0
100
AcDbLine
 10
14.72826977934851
 20
2.177124413287294
 30
0.0
 11
15.67850865752865
 21
3.127363291467431
 31
0.0
  0
LINE
  5
3A4
330
222
100
AcDbEntity
  8
0
 62
     0
100
AcDbLine
 10
16.55488680621697
 20
4.180518135452393
 30
0.0
 11
19.22845106134765
 21
6.854082390583073
 31
0.0
  0
LINE
  5
3A5
330
222
100
AcDbEntity
  8
0
 62
     0
100
AcDbLine
 10
20.77248142407142
 20
8.398112753306834
 30
0.0
 11
21.44330481735071
 21
9.06893614658612
 31
0.0
  0
LINE
  5
3A6
330
222
100
AcDbEntity
  8
0
 62
     0
100
AcDbLine
 10
14.72724200786423
 20
2.352873337099648
 30
0.0
 11
15.67540731199713
 21
3.301038641232548
 31
0.0
  0
LINE
  5
3A7
330
222
100
AcDbEntity
  8
0
 62
     0
100
AcDbLine
 10
16.37694710634602
 20
4.179355130878076
 30
0.0
 11
19.22721052313504
 21
7.029618547667099
 31
0.0
  0
LINE
  5
3A8
330
222
100
AcDbEntity
  8
0
 62
     0
100
AcDbLine
 10
20.81584174555928
 20
8.618249770091328
 30
0.0
 11
21.29599090460351
 21
9.098398929135559
 31
0.0
  0
LINE
  5
3A9
330
222
100
AcDbEntity
  8
0
 62
     0
100
AcDbLine
 10
14.72624436495396
 20
2.528652389486013
 30
0.0
 11
15.67230596646561
 21
3.474713990997664
 31
0.0
  0
LINE
  5
3AA
330
222
100
AcDbEntity
  8
0
 62
     0
100
AcDbLine
 10
17.73143097096369
 20
5.710615690792382
 30
0.0
 11
19.22596998492244
 21
7.205154704751128
 31
0.0
  0
LINE
  5
3AB
330
222
100
AcDbEntity
  8
0
 62
     0
100
AcDbLine
 10
16.19900740647506
 20
4.178192126303754
 30
0.0
 11
17.68422651769738
 21
5.663411237526075
 31
0.0
  0
LINE
  5
3AC
330
222
100
AcDbEntity
  8
0
 62
     0
100
AcDbLine
 10
20.85920206704713
 20
8.838386786875821
 30
0.0
 11
21.14867699185631
 21
9.127861711684998
 31
0.0
  0
LINE
  5
3AD
330
222
100
AcDbEntity
  8
0
 62
     0
100
AcDbLine
 10
14.72527306443035
 20
2.704457784259041
 30
0.0
 11
15.66920462093409
 21
3.648389340762781
 31
0.0
  0
LINE
  5
3AE
330
222
100
AcDbEntity
  8
0
 62
     0
100
AcDbLine
 10
17.79686696497545
 20
5.952828380100775
 30
0.0
 11
19.22472944670983
 21
7.380690861835158
 31
0.0
  0
LINE
  5
3AF
330
222
100
AcDbEntity
  8
0
 62
     0
100
AcDbLine
 10
16.02106770660411
 20
4.177029121729433
 30
0.0
 11
17.4665565653316
 21
5.62251798045693
 31
0.0
  0
LINE
  5
3B0
330
222
100
AcDbEntity
  8
0
 62
     0
100
AcDbLine
 10
20.90256238853499
 20
9.05852380366031
 30
0.0
 11
20.97982901269721
 21
9.135790427822541
 31
0.0
  0
LINE
  5
3B1
330
222
100
AcDbEntity
  8
0
 62
     0
100
AcDbLine
 10
14.72430176390674
 20
2.880263179032071
 30
0.0
 11
15.68504071183765
 21
3.841002126962973
 31
0.0
  0
LINE
  5
3B2
330
222
100
AcDbEntity
  8
0
 62
     0
100
AcDbLine
 10
15.84312800673315
 20
4.175866117155115
 30
0.0
 11
17.29554300367487
 21
5.628281114096835
 31
0.0
  0
LINE
  5
3B3
330
222
100
AcDbEntity
  8
0
 62
     0
100
AcDbLine
 10
17.81046517230596
 20
6.143203282727925
 30
0.0
 11
19.22348890849722
 21
7.556227018919188
 31
0.0
  0
LINE
  5
3B4
330
222
100
AcDbEntity
  8
0
 62
     0
100
AcDbLine
 10
14.72333046338313
 20
3.056068573805098
 30
0.0
 11
15.75378982430283
 21
4.0865279347248
 31
0.0
  0
LINE
  5
3B5
330
222
100
AcDbEntity
  8
0
 62
     0
100
AcDbLine
 10
17.82406337963647
 20
6.333578185355072
 30
0.0
 11
19.22224837028462
 21
7.731763176003218
 31
0.0
  0
LINE
  5
3B6
330
222
100
AcDbEntity
  8
0
 62
     0
100
AcDbLine
 10
14.72235916285953
 20
3.231873968578129
 30
0.0
 11
17.13095780460559
 21
5.64047261032419
 31
0.0
  0
LINE
  5
3B7
330
222
100
AcDbEntity
  8
0
 62
     0
100
AcDbLine
 10
17.83066516672576
 20
6.516956667740996
 30
0.0
 11
19.221007832072
 21
7.907299333087244
 31
0.0
  0
LINE
  5
3B8
330
222
100
AcDbEntity
  8
0
 62
     0
100
AcDbLine
 10
14.72138786233592
 20
3.407679363351157
 30
0.0
 11
16.96637260553631
 21
5.652664106551545
 31
0.0
  0
LINE
  5
3B9
330
222
100
AcDbEntity
  8
0
 62
     0
100
AcDbLine
 10
17.82719895701406
 20
6.690267153325935
 30
0.0
 11
19.2197672938594
 21
8.082835490171273
 31
0.0
  0
LINE
  5
3BA
330
222
100
AcDbEntity
  8
0
 62
     0
100
AcDbLine
 10
14.72041656181231
 20
3.583484758124185
 30
0.0
 11
16.80178740646702
 21
5.664855602778899
 31
0.0
  0
LINE
  5
3BB
330
222
100
AcDbEntity
  8
0
 62
     0
100
AcDbLine
 10
17.82373274730236
 20
6.863577638910874
 30
0.0
 11
19.21852675564679
 21
8.258371647255302
 31
0.0
  0
LINE
  5
3BC
330
222
100
AcDbEntity
  8
0
 62
     0
100
AcDbLine
 10
14.7194452612887
 20
3.759290152897215
 30
0.0
 11
16.62972344851751
 21
5.669568340126027
 31
0.0
  0
LINE
  5
3BD
330
222
100
AcDbEntity
  8
0
 62
     0
100
AcDbLine
 10
17.82020935051134
 20
7.03683093741649
 30
0.0
 11
19.21728621743418
 21
8.43390780433933
 31
0.0
  0
LINE
  5
3BE
330
222
100
AcDbEntity
  8
0
 62
     0
100
AcDbLine
 10
14.71847396076509
 20
3.935095547670244
 30
0.0
 11
16.45294675322088
 21
5.669568340126029
 31
0.0
  0
LINE
  5
3BF
330
222
100
AcDbEntity
  8
0
 62
     0
100
AcDbLine
 10
17.81327693108794
 20
7.206675213289729
 30
0.0
 11
19.21604567922157
 21
8.609443961423361
 31
0.0
  0
LINE
  5
3C0
330
222
100
AcDbEntity
  8
0
 62
     0
100
AcDbLine
 10
14.71750266024148
 20
4.110900942443272
 30
0.0
 11
16.27617005792424
 21
5.669568340126028
 31
0.0
  0
LINE
  5
3C1
330
222
100
AcDbEntity
  8
0
 62
     0
100
AcDbLine
 10
17.80634451166455
 20
7.376519489162972
 30
0.0
 11
19.21480514100896
 21
8.784980118507391
 31
0.0
  0
LINE
  5
3C2
330
222
100
AcDbEntity
  8
0
 62
     0
100
AcDbLine
 10
14.71653135971788
 20
4.2867063372163
 30
0.0
 11
16.0993933626276
 21
5.669568340126027
 31
0.0
  0
LINE
  5
3C3
330
222
100
AcDbEntity
  8
0
 62
     0
100
AcDbLine
 10
17.79941209224115
 20
7.546363765036213
 30
0.0
 11
19.21356460279636
 21
8.96051627559142
 31
0.0
  0
LINE
  5
3C4
330
222
100
AcDbEntity
  8
0
 62
     0
100
AcDbLine
 10
14.71556005919427
 20
4.46251173198933
 30
0.0
 11
15.92261666733097
 21
5.669568340126028
 31
0.0
  0
LINE
  5
3C5
330
222
100
AcDbEntity
  8
0
 62
     0
100
AcDbLine
 10
17.79679854483544
 20
7.720526912927133
 30
0.0
 11
19.21232406458375
 21
9.136052432675448
 31
0.0
  0
LINE
  5
3C6
330
222
100
AcDbEntity
  8
0
 62
     0
100
AcDbLine
 10
14.71499998650967
 20
4.638728354601364
 30
0.0
 11
15.78481269751169
 21
5.70854106560339
 31
0.0
  0
LINE
  5
3C7
330
222
100
AcDbEntity
  8
0
 62
     0
100
AcDbLine
 10
14.71499998650967
 20
4.815505049898002
 30
0.0
 11
15.70077665143358
 21
5.801281714821915
 31
0.0
  0
LINE
  5
3C8
330
222
100
AcDbEntity
  8
0
 62
     0
100
AcDbLine
 10
17.79939608412678
 20
7.899901147515117
 30
0.0
 11
19.21108352637114
 21
9.311588589759477
 31
0.0
  0
LINE
  5
3C9
330
222
100
AcDbEntity
  8
0
 62
     0
100
AcDbLine
 10
13.96912137540173
 20
4.069626438790066
 30
0.0
 11
14.24449638981871
 21
4.345001453207044
 31
0.0
  0
LINE
  5
3CA
330
222
100
AcDbEntity
  8
0
 62
     0
100
AcDbLine
 10
14.71499998650967
 20
4.992281745194638
 30
0.0
 11
15.68644340586899
 21
5.963725164553959
 31
0.0
  0
LINE
  5
3CB
330
222
100
AcDbEntity
  8
0
 62
     0
100
AcDbLine
 10
17.80404810242406
 20
8.081329861109034
 30
0.0
 11
19.20984298815853
 21
9.487124746843505
 31
0.0
  0
LINE
  5
3CC
330
222
100
AcDbEntity
  8
0
 62
     0
100
AcDbLine
 10
13.76796168765038
 20
4.045243446335357
 30
0.0
 11
14.24774293869155
 21
4.525024697376522
 31
0.0
  0
LINE
  5
3CD
330
222
100
AcDbEntity
  8
0
 62
     0
100
AcDbLine
 10
14.71499998650967
 20
5.169058440491276
 30
0.0
 11
15.67211016030439
 21
6.126168614286004
 31
0.0
  0
LINE
  5
3CE
330
222
100
AcDbEntity
  8
0
 62
     0
100
AcDbLine
 10
14.05872872246129
 20
4.512787176442901
 30
0.0
 11
14.25167130969814
 21
4.705729763679751
 31
0.0
  0
LINE
  5
3CF
330
222
100
AcDbEntity
  8
0
 62
     0
100
AcDbLine
 10
17.80870012072134
 20
8.262758574702949
 30
0.0
 11
19.20860244994593
 21
9.662660903927534
 31
0.0
  0
LINE
  5
3D0
330
222
100
AcDbEntity
  8
0
 62
     0
100
AcDbLine
 10
13.55080946419735
 20
4.004867918178956
 30
0.0
 11
13.75969594041754
 21
4.213754394399146
 31
0.0
  0
LINE
  5
3D1
330
222
100
AcDbEntity
  8
0
 62
     0
100
AcDbLine
 10
14.71499998650967
 20
5.345835135787913
 30
0.0
 11
15.66509052605846
 21
6.295925675336702
 31
0.0
  0
LINE
  5
3D2
330
222
100
AcDbEntity
  8
0
 62
     0
100
AcDbLine
 10
14.0614483639274
 20
4.692283513205639
 30
0.0
 11
14.25559968070474
 21
4.886434829982981
 31
0.0
  0
LINE
  5
3D3
330
222
100
AcDbEntity
  8
0
 62
     0
100
AcDbLine
 10
17.81335213901862
 20
8.444187288296864
 30
0.0
 11
19.15205608389349
 21
9.782891233171731
 31
0.0
  0
LINE
  5
3D4
330
222
100
AcDbEntity
  8
0
 62
     0
100
AcDbLine
 10
13.32120295191551
 20
3.952038101193755
 30
0.0
 11
13.54363553505498
 21
4.174470684333227
 31
0.0
  0
LINE
  5
3D5
330
222
100
AcDbEntity
  8
0
 62
     0
100
AcDbLine
 10
14.71499998650967
 20
5.522611831084549
 30
0.0
 11
15.66124755442157
 21
6.468859398996454
 31
0.0
  0
LINE
  5
3D6
330
222
100
AcDbEntity
  8
0
 62
     0
100
AcDbLine
 10
14.0641680053935
 20
4.871779849968377
 30
0.0
 11
14.25193226682744
 21
5.059544111402327
 31
0.0
  0
LINE
  5
3D7
330
222
100
AcDbEntity
  8
0
 62
     0
100
AcDbLine
 10
17.8180041573159
 20
8.625616001890779
 30
0.0
 11
18.97886296659702
 21
9.786474811171895
 31
0.0
  0
LINE
  5
3D8
330
222
100
AcDbEntity
  8
0
 62
     0
100
AcDbLine
 10
13.09159643963367
 20
3.899208284208552
 30
0.0
 11
13.34458239622281
 21
4.152194240797691
 31
0.0
  0
LINE
  5
3D9
330
222
100
AcDbEntity
  8
0
 62
     0
100
AcDbLine
 10
14.71499998650967
 20
5.699388526381187
 30
0.0
 11
15.65740458278469
 21
6.641793122656209
 31
0.0
  0
LINE
  5
3DA
330
222
100
AcDbEntity
  8
0
 62
     0
100
AcDbLine
 10
14.0668876468596
 20
5.051276186731116
 30
0.0
 11
14.24673295225989
 21
5.231121492131415
 31
0.0
  0
LINE
  5
3DB
330
222
100
AcDbEntity
  8
0
 62
     0
100
AcDbLine
 10
17.82032372466998
 20
8.8047122645415
 30
0.0
 11
18.80208627130038
 21
9.786474811171899
 31
0.0
  0
LINE
  5
3DC
330
222
100
AcDbEntity
  8
0
 62
     0
100
AcDbLine
 10
12.86198992735183
 20
3.846378467223352
 30
0.0
 11
13.15029716359041
 21
4.13468570346193
 31
0.0
  0
LINE
  5
3DD
330
222
100
AcDbEntity
  8
0
 62
     0
100
AcDbLine
 10
14.71499998650967
 20
5.876165221677823
 30
0.0
 11
15.65556774175793
 21
6.816732976926088
 31
0.0
  0
LINE
  5
3DE
330
222
100
AcDbEntity
  8
0
 62
     0
100
AcDbLine
 10
14.03208126523949
 20
5.19324650040764
 30
0.0
 11
14.25999386247968
 21
5.421159097647842
 31
0.0
  0
LINE
  5
3DF
330
222
100
AcDbEntity
  8
0
 62
     0
100
AcDbLine
 10
17.82032372466998
 20
8.981488959838134
 30
0.0
 11
18.62530957600374
 21
9.786474811171897
 31
0.0
  0
LINE
  5
3E0
330
222
100
AcDbEntity
  8
0
 62
     0
100
AcDbLine
 10
12.63238341506999
 20
3.793548650238149
 30
0.0
 11
12.8990881755373
 21
4.060253410705451
 31
0.0
  0
LINE
  5
3E1
330
222
100
AcDbEntity
  8
0
 62
     0
100
AcDbLine
 10
14.71499998650967
 20
6.05294191697446
 30
0.0
 11
15.65487720779193
 21
6.992819138256723
 31
0.0
  0
LINE
  5
3E2
330
222
100
AcDbEntity
  8
0
 62
     0
100
AcDbLine
 10
13.93980827839561
 20
5.277750208860406
 30
0.0
 11
14.227547223207
 21
5.565489153671795
 31
0.0
  0
LINE
  5
3E3
330
222
100
AcDbEntity
  8
0
 62
     0
100
AcDbLine
 10
17.82032372466998
 20
9.158265655134773
 30
0.0
 11
18.44853288070711
 21
9.786474811171899
 31
0.0
  0
LINE
  5
3E4
330
222
100
AcDbEntity
  8
0
 62
     0
100
AcDbLine
 10
12.40277690278815
 20
3.740718833252945
 30
0.0
 11
12.67333878417539
 21
4.01128071464018
 31
0.0
  0
LINE
  5
3E5
330
222
100
AcDbEntity
  8
0
 62
     0
100
AcDbLine
 10
14.71499998650967
 20
6.229718612271097
 30
0.0
 11
15.65418667382593
 21
7.168905299587358
 31
0.0
  0
LINE
  5
3E6
330
222
100
AcDbEntity
  8
0
 62
     0
100
AcDbLine
 10
13.7837044152858
 20
5.298423041047231
 30
0.0
 11
14.0676064036529
 21
5.582325029414331
 31
0.0
  0
LINE
  5
3E7
330
222
100
AcDbEntity
  8
0
 62
     0
100
AcDbLine
 10
17.82032372466998
 20
9.335042350431409
 30
0.0
 11
18.27175618541047
 21
9.786474811171897
 31
0.0
  0
LINE
  5
3E8
330
222
100
AcDbEntity
  8
0
 62
     0
100
AcDbLine
 10
12.16754538607251
 20
3.68226401183394
 30
0.0
 11
12.44835026288876
 21
3.963068888650189
 31
0.0
  0
LINE
  5
3E9
330
222
100
AcDbEntity
  8
0
 62
     0
100
AcDbLine
 10
14.71499998650967
 20
6.406495307567733
 30
0.0
 11
15.65349613985993
 21
7.344991460917991
 31
0.0
  0
LINE
  5
3EA
330
222
100
AcDbEntity
  8
0
 62
     0
100
AcDbLine
 10
13.61124804804083
 20
5.302743369098901
 30
0.0
 11
13.86496625658725
 21
5.55646157764531
 31
0.0
  0
LINE
  5
3EB
330
222
100
AcDbEntity
  8
0
 62
     0
100
AcDbLine
 10
17.82032372466998
 20
9.511819045728046
 30
0.0
 11
18.09497949011383
 21
9.786474811171899
 31
0.0
  0
LINE
  5
3EC
330
222
100
AcDbEntity
  8
0
 62
     0
100
AcDbLine
 10
11.93066461437502
 20
3.622159935433082
 30
0.0
 11
12.22300027577152
 21
3.91449559682958
 31
0.0
  0
LINE
  5
3ED
330
222
100
AcDbEntity
  8
0
 62
     0
100
AcDbLine
 10
14.71499998650967
 20
6.583272002864371
 30
0.0
 11
15.65280560589393
 21
7.521077622248628
 31
0.0
  0
LINE
  5
3EE
330
222
100
AcDbEntity
  8
0
 62
     0
100
AcDbLine
 10
13.38396372551659
 20
5.252235741871291
 30
0.0
 11
13.64477072384933
 21
5.513042740204032
 31
0.0
  0
LINE
  5
3EF
330
222
100
AcDbEntity
  8
0
 62
     0
100
AcDbLine
 10
17.82032372466998
 20
9.688595741024684
 30
0.0
 11
17.9182027948172
 21
9.786474811171899
 31
0.0
  0
LINE
  5
3F0
330
222
100
AcDbEntity
  8
0
 62
     0
100
AcDbLine
 10
11.69378384267752
 20
3.562055859032228
 30
0.0
 11
11.98965503797995
 21
3.857927054334657
 31
0.0
  0
LINE
  5
3F1
330
222
100
AcDbEntity
  8
0
 62
     0
100
AcDbLine
 10
14.01890794592304
 20
6.063956657574383
 30
0.0
 11
14.19961790074801
 21
6.244666612399353
 31
0.0
  0
LINE
  5
3F2
330
222
100
AcDbEntity
  8
0
 62
     0
100
AcDbLine
 10
13.15816233019885
 20
5.20321104185019
 30
0.0
 11
13.42457519111141
 21
5.469623902762753
 31
0.0
  0
LINE
  5
3F3
330
222
100
AcDbEntity
  8
0
 62
     0
100
AcDbLine
 10
14.71499998650967
 20
6.760048698161007
 30
0.0
 11
15.65211507192792
 21
7.697163783579263
 31
0.0
  0
LINE
  5
3F4
330
222
100
AcDbEntity
  8
0
 62
     0
100
AcDbLine
 10
11.43244480718371
 20
3.47749351883505
 30
0.0
 11
11.74646332835434
 21
3.791512040005684
 31
0.0
  0
LINE
  5
3F5
330
222
100
AcDbEntity
  8
0
 62
     0
100
AcDbLine
 10
13.80133662863488
 20
6.023162035582854
 30
0.0
 11
14.15927161633669
 21
6.381097023284667
 31
0.0
  0
LINE
  5
3F6
330
222
100
AcDbEntity
  8
0
 62
     0
100
AcDbLine
 10
12.93317380891222
 20
5.154999215860198
 30
0.0
 11
13.20437965837349
 21
5.426205065321474
 31
0.0
  0
LINE
  5
3F7
330
222
100
AcDbEntity
  8
0
 62
     0
100
AcDbLine
 10
14.71499998650967
 20
6.936825393457644
 30
0.0
 11
15.65142453796192
 21
7.873249944909898
 31
0.0
  0
LINE
  5
3F8
330
222
100
AcDbEntity
  8
0
 62
     0
100
AcDbLine
 10
11.14475493471846
 20
3.36658034166644
 30
0.0
 11
11.48831538994877
 21
3.710140796896749
 31
0.0
  0
LINE
  5
3F9
330
222
100
AcDbEntity
  8
0
 62
     0
100
AcDbLine
 10
13.58118715424389
 20
5.979789256488501
 30
0.0
 11
14.08066358524996
 21
6.479265687494578
 31
0.0
  0
LINE
  5
3FA
330
222
100
AcDbEntity
  8
0
 62
     0
100
AcDbLine
 10
12.70818528762559
 20
5.106787389870204
 30
0.0
 11
12.97433382534023
 21
5.372935927584846
 31
0.0
  0
LINE
  5
3FB
330
222
100
AcDbEntity
  8
0
 62
     0
100
AcDbLine
 10
14.71499998650967
 20
7.113602088754282
 30
0.0
 11
15.65073400399592
 21
8.049336106240531
 31
0.0
  0
LINE
  5
3FC
330
222
100
AcDbEntity
  8
0
 62
     0
100
AcDbLine
 10
10.88762519610517
 20
3.286227298349788
 30
0.0
 11
11.23198918176865
 21
3.630591284013263
 31
0.0
  0
LINE
  5
3FD
330
222
100
AcDbEntity
  8
0
 62
     0
100
AcDbLine
 10
13.36099162150597
 20
5.936370419047223
 30
0.0
 11
13.88397114756075
 21
6.459349945102001
 31
0.0
  0
LINE
  5
3FE
330
222
100
AcDbEntity
  8
0
 62
     0
100
AcDbLine
 10
12.48470223896068
 20
5.060081036501927
 30
0.0
 11
12.74338362664624
 21
5.318762424187491
 31
0.0
  0
LINE
  5
3FF
330
222
100
AcDbEntity
  8
0
 62
     0
100
AcDbLine
 10
14.71499998650967
 20
7.290378784050918
 30
0.0
 11
15.65004347002991
 21
8.225422267571167
 31
0.0
  0
LINE
  5
400
330
222
100
AcDbEntity
  8
0
 62
     0
100
AcDbLine
 10
10.63049545749188
 20
3.205874255033135
 30
0.0
 11
10.97566297358852
 21
3.551041771129777
 31
0.0
  0
LINE
  5
401
330
222
100
AcDbEntity
  8
0
 62
     0
100
AcDbLine
 10
13.14079608876805
 20
5.892951581605942
 30
0.0
 11
13.6567489288183
 21
6.408904421656187
 31
0.0
  0
LINE
  5
402
330
222
100
AcDbEntity
  8
0
 62
     0
100
AcDbLine
 10
12.25990719450112
 20
5.012062687339003
 30
0.0
 11
12.51243342795224
 21
5.264588920790133
 31
0.0
  0
LINE
  5
403
330
222
100
AcDbEntity
  8
0
 62
     0
100
AcDbLine
 10
14.71499998650967
 20
7.467155479347555
 30
0.0
 11
15.64935293606391
 21
8.4015084289018
 31
0.0
  0
LINE
  5
404
330
222
100
AcDbEntity
  8
0
 62
     0
100
AcDbLine
 10
10.32347852756096
 20
3.075634020398849
 30
0.0
 11
10.70589960958393
 21
3.458055102421823
 31
0.0
  0
LINE
  5
405
330
222
100
AcDbEntity
  8
0
 62
     0
100
AcDbLine
 10
12.92414248092437
 20
5.853074669058896
 30
0.0
 11
13.44877634611637
 21
6.377708534250897
 31
0.0
  0
LINE
  5
406
330
222
100
AcDbEntity
  8
0
 62
     0
100
AcDbLine
 10
12.02688336888282
 20
4.955815557017347
 30
0.0
 11
12.28148322925825
 21
5.210415417392777
 31
0.0
  0
LINE
  5
407
330
222
100
AcDbEntity
  8
0
 62
     0
100
AcDbLine
 10
14.71499998650967
 20
7.643932174644191
 30
0.0
 11
15.64866240209791
 21
8.577594590232433
 31
0.0
  0
LINE
  5
408
330
222
100
AcDbEntity
  8
0
 62
     0
100
AcDbLine
 10
10.03970541142688
 20
2.968637599561411
 30
0.0
 11
10.4309136391225
 21
3.359845827257026
 31
0.0
  0
LINE
  5
409
330
222
100
AcDbEntity
  8
0
 62
     0
100
AcDbLine
 10
12.7226170482862
 20
5.828325931717365
 30
0.0
 11
13.2369622849722
 21
6.34267116840336
 31
0.0
  0
LINE
  5
40A
330
222
100
AcDbEntity
  8
0
 62
     0
100
AcDbLine
 10
11.79385954326453
 20
4.899568426695689
 30
0.0
 11
12.05658279317208
 21
5.162291676603238
 31
0.0
  0
LINE
  5
40B
330
222
100
AcDbEntity
  8
0
 62
     0
100
AcDbLine
 10
14.71499998650967
 20
7.820708869940827
 30
0.0
 11
15.64797186813191
 21
8.75368075156307
 31
0.0
  0
LINE
  5
40C
330
222
100
AcDbEntity
  8
0
 62
     0
100
AcDbLine
 10
9.755932295292812
 20
2.861641178723972
 30
0.0
 11
10.15592766866107
 21
3.261636552092228
 31
0.0
  0
LINE
  5
40D
330
222
100
AcDbEntity
  8
0
 62
     0
100
AcDbLine
 10
12.52109161564804
 20
5.803577194375835
 30
0.0
 11
13.02483025061623
 21
6.307315829344032
 31
0.0
  0
LINE
  5
40E
330
222
100
AcDbEntity
  8
0
 62
     0
100
AcDbLine
 10
11.55411862299619
 20
4.836604201723988
 30
0.0
 11
11.8076757546743
 21
5.090161333402102
 31
0.0
  0
LINE
  5
40F
330
222
100
AcDbEntity
  8
0
 62
     0
100
AcDbLine
 10
14.71499998650967
 20
7.997485565237466
 30
0.0
 11
15.64728133416591
 21
8.929766912893704
 31
0.0
  0
LINE
  5
410
330
222
100
AcDbEntity
  8
0
 62
     0
100
AcDbLine
 10
9.443369365793802
 20
2.725854944521601
 30
0.0
 11
9.8583391529753
 21
3.140824731703098
 31
0.0
  0
LINE
  5
411
330
222
100
AcDbEntity
  8
0
 62
     0
100
AcDbLine
 10
12.31956618300987
 20
5.778828457034308
 30
0.0
 11
12.81409989062406
 21
6.273362164648496
 31
0.0
  0
LINE
  5
412
330
222
100
AcDbEntity
  8
0
 62
     0
100
AcDbLine
 10
11.29526703345469
 20
4.754529307479122
 30
0.0
 11
11.55774053188283
 21
5.017002805907269
 31
0.0
  0
LINE
  5
413
330
222
100
AcDbEntity
  8
0
 62
     0
100
AcDbLine
 10
14.71499998650967
 20
8.174262260534103
 30
0.0
 11
15.6465908001999
 21
9.105853074224338
 31
0.0
  0
LINE
  5
414
330
222
100
AcDbEntity
  8
0
 62
     0
100
AcDbLine
 10
9.126077861415225
 20
2.585340135439661
 30
0.0
 11
9.552213656242098
 21
3.011475930266534
 31
0.0
  0
LINE
  5
415
330
222
100
AcDbEntity
  8
0
 62
     0
100
AcDbLine
 10
12.08057973047405
 20
5.716618699795121
 30
0.0
 11
12.60432487887205
 21
6.240363848193123
 31
0.0
  0
LINE
  5
416
330
222
100
AcDbEntity
  8
0
 62
     0
100
AcDbLine
 10
13.79082201751779
 20
7.42686098683886
 30
0.0
 11
13.95830002752729
 21
7.594338996848366
 31
0.0
  0
LINE
  5
417
330
222
100
AcDbEntity
  8
0
 62
     0
100
AcDbLine
 10
11.03184518072796
 20
4.66788415004903
 30
0.0
 11
11.31909199323237
 21
4.955130962553447
 31
0.0
  0
LINE
  5
418
330
222
100
AcDbEntity
  8
0
 62
     0
100
AcDbLine
 10
14.71499998650967
 20
8.351038955830739
 30
0.0
 11
15.6459002662339
 21
9.281939235554972
 31
0.0
  0
LINE
  5
419
330
222
100
AcDbEntity
  8
0
 62
     0
100
AcDbLine
 10
8.796884505276601
 20
2.432923474597672
 30
0.0
 11
9.246088159508897
 21
2.882127128829969
 31
0.0
  0
LINE
  5
41A
330
222
100
AcDbEntity
  8
0
 62
     0
100
AcDbLine
 10
11.90380303517741
 20
5.716618699795123
 30
0.0
 11
12.39454986712004
 21
6.207365531737751
 31
0.0
  0
LINE
  5
41B
330
222
100
AcDbEntity
  8
0
 62
     0
100
AcDbLine
 10
13.57809074012692
 20
7.39090640474463
 30
0.0
 11
13.93084800499014
 21
7.743663669607853
 31
0.0
  0
LINE
  5
41C
330
222
100
AcDbEntity
  8
0
 62
     0
100
AcDbLine
 10
10.76927033093716
 20
4.582085995554871
 30
0.0
 11
11.08044345458191
 21
4.893259119199623
 31
0.0
  0
LINE
  5
41D
330
222
100
AcDbEntity
  8
0
 62
     0
100
AcDbLine
 10
14.71499998650967
 20
8.527815651127376
 30
0.0
 11
15.6452097322679
 21
9.458025396885608
 31
0.0
  0
LINE
  5
41E
330
222
100
AcDbEntity
  8
0
 62
     0
100
AcDbLine
 10
8.434492279918496
 20
2.247307944536204
 30
0.0
 11
8.892642055251506
 21
2.705457719869214
 31
0.0
  0
LINE
  5
41F
330
222
100
AcDbEntity
  8
0
 62
     0
100
AcDbLine
 10
11.7068303791493
 20
5.696422739063646
 30
0.0
 11
12.18477485536803
 21
6.174367215282379
 31
0.0
  0
LINE
  5
420
330
222
100
AcDbEntity
  8
0
 62
     0
100
AcDbLine
 10
13.36535946273605
 20
7.3549518226504
 30
0.0
 11
13.85605511490736
 21
7.845647474821704
 31
0.0
  0
LINE
  5
421
330
222
100
AcDbEntity
  8
0
 62
     0
100
AcDbLine
 10
10.51219579034825
 20
4.501788150262601
 30
0.0
 11
10.80771423219709
 21
4.797306592111433
 31
0.0
  0
LINE
  5
422
330
222
100
AcDbEntity
  8
0
 62
     0
100
AcDbLine
 10
14.71499998650967
 20
8.704592346424011
 30
0.0
 11
15.6445191983019
 21
9.63411155821624
 31
0.0
  0
LINE
  5
423
330
222
100
AcDbEntity
  8
0
 62
     0
100
AcDbLine
 10
8.043691643110514
 20
2.033284003024859
 30
0.0
 11
8.53908866465823
 21
2.528681024572575
 31
0.0
  0
LINE
  5
424
330
222
100
AcDbEntity
  8
0
 62
     0
100
AcDbLine
 10
11.50985063296162
 20
5.676219688172603
 30
0.0
 11
11.97499984361602
 21
6.141368898827007
 31
0.0
  0
LINE
  5
425
330
222
100
AcDbEntity
  8
0
 62
     0
100
AcDbLine
 10
13.15262818534518
 20
7.318997240556168
 30
0.0
 11
13.6603764551859
 21
7.826745510396884
 31
0.0
  0
LINE
  5
426
330
222
100
AcDbEntity
  8
0
 62
     0
100
AcDbLine
 10
10.24113819089341
 20
4.407507246104396
 30
0.0
 11
10.53497304516799
 21
4.701342100378973
 31
0.0
  0
LINE
  5
427
330
222
100
AcDbEntity
  8
0
 62
     0
100
AcDbLine
 10
14.71499998650967
 20
8.881369041720647
 30
0.0
 11
15.59987918854334
 21
9.766248243754326
 31
0.0
  0
LINE
  5
428
330
222
100
AcDbEntity
  8
0
 62
     0
100
AcDbLine
 10
7.65085454245132
 20
1.817223597662303
 30
0.0
 11
8.185535274064955
 21
2.351904329275937
 31
0.0
  0
LINE
  5
429
330
222
100
AcDbEntity
  8
0
 62
     0
100
AcDbLine
 10
11.34101673114322
 20
5.684162481650842
 30
0.0
 11
11.79989667362959
 21
6.143042424137206
 31
0.0
  0
LINE
  5
42A
330
222
100
AcDbEntity
  8
0
 62
     0
100
AcDbLine
 10
12.93871220548272
 20
7.281857955990336
 30
0.0
 11
13.44724490046357
 21
7.790390650971193
 31
0.0
  0
LINE
  5
42B
330
222
100
AcDbEntity
  8
0
 62
     0
100
AcDbLine
 10
9.97008059143857
 20
4.313226341946188
 30
0.0
 11
10.26473597714276
 21
4.607881727650381
 31
0.0
  0
LINE
  5
42C
330
222
100
AcDbEntity
  8
0
 62
     0
100
AcDbLine
 10
14.71499998650967
 20
9.058145737017285
 30
0.0
 11
15.44941917122387
 21
9.792564921731486
 31
0.0
  0
LINE
  5
42D
330
222
100
AcDbEntity
  8
0
 62
     0
100
AcDbLine
 10
7.258017441792127
 20
1.601163192299746
 30
0.0
 11
7.816365077820939
 21
2.159510828328558
 31
0.0
  0
LINE
  5
42E
330
222
100
AcDbEntity
  8
0
 62
     0
100
AcDbLine
 10
11.1859971675754
 20
5.705919613379657
 30
0.0
 11
11.64750297078766
 21
6.167425416591912
 31
0.0
  0
LINE
  5
42F
330
222
100
AcDbEntity
  8
0
 62
     0
100
AcDbLine
 10
12.72161801827632
 20
7.241540464080575
 30
0.0
 11
13.23099379747934
 21
7.750916243283594
 31
0.0
  0
LINE
  5
430
330
222
100
AcDbEntity
  8
0
 62
     0
100
AcDbLine
 10
9.684317023384112
 20
4.204239469188367
 30
0.0
 11
9.995727962560925
 21
4.51565040836518
 31
0.0
  0
LINE
  5
431
330
222
100
AcDbEntity
  8
0
 62
     0
100
AcDbLine
 10
14.71499998650967
 20
9.23492243231392
 30
0.0
 11
15.28021862001137
 21
9.800141065815626
 31
0.0
  0
LINE
  5
432
330
222
100
AcDbEntity
  8
0
 62
     0
100
AcDbLine
 10
6.791417849534829
 20
1.311340295339084
 30
0.0
 11
7.388386523692265
 21
1.90830896949652
 31
0.0
  0
LINE
  5
433
330
222
100
AcDbEntity
  8
0
 62
     0
100
AcDbLine
 10
11.03097760400758
 20
5.727676745108476
 30
0.0
 11
11.51631943693028
 21
6.213018578031174
 31
0.0
  0
LINE
  5
434
330
222
100
AcDbEntity
  8
0
 62
     0
100
AcDbLine
 10
12.50452383106992
 20
7.201222972170816
 30
0.0
 11
13.0147426944951
 21
7.711441835595994
 31
0.0
  0
LINE
  5
435
330
222
100
AcDbEntity
  8
0
 62
     0
100
AcDbLine
 10
9.385321850153546
 20
4.082020991254438
 30
0.0
 11
9.726719947979086
 21
4.423419089079978
 31
0.0
  0
LINE
  5
436
330
222
100
AcDbEntity
  8
0
 62
     0
100
AcDbLine
 10
14.71499998650967
 20
9.411699127610559
 30
0.0
 11
15.11101806879888
 21
9.807717209899768
 31
0.0
  0
LINE
  5
437
330
222
100
AcDbEntity
  8
0
 62
     0
100
AcDbLine
 10
6.236028916640307
 20
0.9327280577412008
 30
0.0
 11
6.901657092822167
 21
1.59835623392306
 31
0.0
  0
LINE
  5
438
330
222
100
AcDbEntity
  8
0
 62
     0
100
AcDbLine
 10
10.87595804043976
 20
5.749433876837291
 30
0.0
 11
11.4061389645972
 21
6.279614800994727
 31
0.0
  0
LINE
  5
439
330
222
100
AcDbEntity
  8
0
 62
     0
100
AcDbLine
 10
12.28742964386352
 20
7.160905480261056
 30
0.0
 11
12.79849159151086
 21
7.671967427908396
 31
0.0
  0
LINE
  5
43A
330
222
100
AcDbEntity
  8
0
 62
     0
100
AcDbLine
 10
9.085570062476641
 20
3.95904589887417
 30
0.0
 11
9.427707523078105
 21
4.301183359475634
 31
0.0
  0
LINE
  5
43B
330
222
100
AcDbEntity
  8
0
 62
     0
100
AcDbLine
 10
14.71499998650967
 20
9.588475822907195
 30
0.0
 11
14.94181751758638
 21
9.815293353983907
 31
0.0
  0
LINE
  5
43C
330
222
100
AcDbEntity
  8
0
 62
     0
100
AcDbLine
 10
5.650600602335907
 20
0.5240764387334372
 30
0.0
 11
6.390486106508621
 21
1.26396194290615
 31
0.0
  0
LINE
  5
43D
330
222
100
AcDbEntity
  8
0
 62
     0
100
AcDbLine
 10
10.72987079143043
 20
5.780123323124602
 30
0.0
 11
11.31143716354543
 21
6.361689695239595
 31
0.0
  0
LINE
  5
43E
330
222
100
AcDbEntity
  8
0
 62
     0
100
AcDbLine
 10
12.08286826678811
 20
7.133120798482275
 30
0.0
 11
12.58224048852663
 21
7.632493020220797
 31
0.0
  0
LINE
  5
43F
330
222
100
AcDbEntity
  8
0
 62
     0
100
AcDbLine
 10
8.759349660217345
 20
3.809602191911513
 30
0.0
 11
9.141959330380743
 21
4.192211862074909
 31
0.0
  0
LINE
  5
440
330
222
100
AcDbEntity
  8
0
 62
     0
100
AcDbLine
 10
14.72439765066425
 20
9.774650182358412
 30
0.0
 11
14.74568198252852
 21
9.795934514222688
 31
0.0
  0
LINE
  5
441
330
222
100
AcDbEntity
  8
0
 62
     0
100
AcDbLine
 10
5.192299912096943
 20
0.2425524437911117
 30
0.0
 11
5.808833754242266
 21
0.8590862859364346
 31
0.0
  0
LINE
  5
442
330
222
100
AcDbEntity
  8
0
 62
     0
100
AcDbLine
 10
10.60068782179059
 20
5.827717048781391
 30
0.0
 11
11.21673536249366
 21
6.443764589484462
 31
0.0
  0
LINE
  5
443
330
222
100
AcDbEntity
  8
0
 62
     0
100
AcDbLine
 10
11.89194943586774
 20
7.118978662858545
 30
0.0
 11
12.36598938554239
 21
7.593018612533198
 31
0.0
  0
LINE
  5
444
330
222
100
AcDbEntity
  8
0
 62
     0
100
AcDbLine
 10
8.431576204354833
 20
3.658605431345635
 30
0.0
 11
8.84201052228461
 21
4.069039749275413
 31
0.0
  0
LINE
  5
445
330
222
100
AcDbEntity
  8
0
 62
     0
100
AcDbLine
 10
13.55042338694001
 20
8.777452613930817
 30
0.0
 11
13.70341725362411
 21
8.930446480614916
 31
0.0
  0
LINE
  5
446
330
222
100
AcDbEntity
  8
0
 62
     0
100
AcDbLine
 10
5.004700153822962
 20
0.2317293808137664
 30
0.0
 11
5.276121406047959
 21
0.5031506330387639
 31
0.0
  0
LINE
  5
447
330
222
100
AcDbEntity
  8
0
 62
     0
100
AcDbLine
 10
10.49057543957415
 20
5.894381361861585
 30
0.0
 11
11.12203356144189
 21
6.525839483729328
 31
0.0
  0
LINE
  5
448
330
222
100
AcDbEntity
  8
0
 62
     0
100
AcDbLine
 10
11.66985589353029
 20
7.073661815817732
 30
0.0
 11
12.14973828255816
 21
7.553544204845598
 31
0.0
  0
LINE
  5
449
330
222
100
AcDbEntity
  8
0
 62
     0
100
AcDbLine
 10
8.103802748492318
 20
3.507608670779758
 30
0.0
 11
8.488122050359454
 21
3.891927972646893
 31
0.0
  0
LINE
  5
44A
330
222
100
AcDbEntity
  8
0
 62
     0
100
AcDbLine
 10
13.34091026658845
 20
8.744716188875885
 30
0.0
 11
13.67497835050329
 21
9.078784272790731
 31
0.0
  0
LINE
  5
44B
330
222
100
AcDbEntity
  8
0
 62
     0
100
AcDbLine
 10
4.81710039554898
 20
0.220906317836421
 30
0.0
 11
5.02657248735405
 21
0.4303784096414903
 31
0.0
  0
LINE
  5
44C
330
222
100
AcDbEntity
  8
0
 62
     0
100
AcDbLine
 10
10.39236616440935
 20
5.972948781993423
 30
0.0
 11
11.05756734180307
 21
6.638149959387149
 31
0.0
  0
LINE
  5
44D
330
222
100
AcDbEntity
  8
0
 62
     0
100
AcDbLine
 10
11.44105186274672
 20
7.021634480330801
 30
0.0
 11
11.92900193797555
 21
7.509584555559628
 31
0.0
  0
LINE
  5
44E
330
222
100
AcDbEntity
  8
0
 62
     0
100
AcDbLine
 10
7.720484242741985
 20
3.301066860326063
 30
0.0
 11
8.190339084980143
 21
3.77092170256422
 31
0.0
  0
LINE
  5
44F
330
222
100
AcDbEntity
  8
0
 62
     0
100
AcDbLine
 10
13.12903472743743
 20
8.709617345021506
 30
0.0
 11
13.60851327720624
 21
9.18909589479032
 31
0.0
  0
LINE
  5
450
330
222
100
AcDbEntity
  8
0
 62
     0
100
AcDbLine
 10
4.632722918945301
 20
0.2133055365293788
 30
0.0
 11
4.841939050044228
 21
0.4225216676283062
 31
0.0
  0
LINE
  5
451
330
222
100
AcDbEntity
  8
0
 62
     0
100
AcDbLine
 10
10.29415688924455
 20
6.051516202125262
 30
0.0
 11
11.04056098974279
 21
6.797920302623508
 31
0.0
  0
LINE
  5
452
330
222
100
AcDbEntity
  8
0
 62
     0
100
AcDbLine
 10
9.245740256298113
 20
5.003099569178826
 30
0.0
 11
9.315171443613458
 21
5.072530756494171
 31
0.0
  0
LINE
  5
453
330
222
100
AcDbEntity
  8
0
 62
     0
100
AcDbLine
 10
11.23060341596501
 20
6.987962728845727
 30
0.0
 11
11.70803106885475
 21
7.465390381735468
 31
0.0
  0
LINE
  5
454
330
222
100
AcDbEntity
  8
0
 62
     0
100
AcDbLine
 10
7.31733617254002
 20
3.074695485420734
 30
0.0
 11
7.832366277004455
 21
3.589725589885168
 31
0.0
  0
LINE
  5
455
330
222
100
AcDbEntity
  8
0
 62
     0
100
AcDbLine
 10
12.91464596931172
 20
8.672005282192433
 30
0.0
 11
13.43219263793139
 21
9.189551950812109
 31
0.0
  0
LINE
  5
456
330
222
100
AcDbEntity
  8
0
 62
     0
100
AcDbLine
 10
4.466344852783761
 20
0.2237041656644751
 30
0.0
 11
4.657305612734408
 21
0.4146649256151225
 31
0.0
  0
LINE
  5
457
330
222
100
AcDbEntity
  8
0
 62
     0
100
AcDbLine
 10
8.605932801706742
 20
4.540068809884093
 30
0.0
 11
9.58755369389765
 21
5.521689702075001
 31
0.0
  0
LINE
  5
458
330
222
100
AcDbEntity
  8
0
 62
     0
100
AcDbLine
 10
10.19594761407975
 20
6.1300836222571
 30
0.0
 11
11.48706019973396
 21
7.421196207911311
 31
0.0
  0
LINE
  5
459
330
222
100
AcDbEntity
  8
0
 62
     0
100
AcDbLine
 10
6.910749773357753
 20
2.844885781535105
 30
0.0
 11
7.474393469028763
 21
3.408529477206114
 31
0.0
  0
LINE
  5
45A
330
222
100
AcDbEntity
  8
0
 62
     0
100
AcDbLine
 10
12.70025721118601
 20
8.63439321936336
 30
0.0
 11
13.21549862434197
 21
9.149634632519321
 31
0.0
  0
LINE
  5
45B
330
222
100
AcDbEntity
  8
0
 62
     0
100
AcDbLine
 10
4.299966786622219
 20
0.2341027947995711
 30
0.0
 11
4.479416595347737
 21
0.4135526035250888
 31
0.0
  0
LINE
  5
45C
330
222
100
AcDbEntity
  8
0
 62
     0
100
AcDbLine
 10
8.233268417027346
 20
4.344181120501334
 30
0.0
 11
9.653026544007516
 21
5.763939247481504
 31
0.0
  0
LINE
  5
45D
330
222
100
AcDbEntity
  8
0
 62
     0
100
AcDbLine
 10
10.10546668473033
 20
6.216379388204325
 30
0.0
 11
11.26608933061316
 21
7.377002034087151
 31
0.0
  0
LINE
  5
45E
330
222
100
AcDbEntity
  8
0
 62
     0
100
AcDbLine
 10
6.504163374175489
 20
2.615076077649477
 30
0.0
 11
7.078817602596553
 21
3.18973030607054
 31
0.0
  0
LINE
  5
45F
330
222
100
AcDbEntity
  8
0
 62
     0
100
AcDbLine
 10
12.49088406054678
 20
8.60179676402077
 30
0.0
 11
12.99880461075254
 21
9.10971731422653
 31
0.0
  0
LINE
  5
460
330
222
100
AcDbEntity
  8
0
 62
     0
100
AcDbLine
 10
4.133588720460679
 20
0.2445014239346674
 30
0.0
 11
4.305636115225619
 21
0.4165488186996083
 31
0.0
  0
LINE
  5
461
330
222
100
AcDbEntity
  8
0
 62
     0
100
AcDbLine
 10
7.86060403234795
 20
4.148293431118575
 30
0.0
 11
9.6509747384366
 21
5.938664137207225
 31
0.0
  0
LINE
  5
462
330
222
100
AcDbEntity
  8
0
 62
     0
100
AcDbLine
 10
10.02549627495328
 20
6.313185673723913
 30
0.0
 11
11.07687047489318
 21
7.364559873663806
 31
0.0
  0
LINE
  5
463
330
222
100
AcDbEntity
  8
0
 62
     0
100
AcDbLine
 10
6.004415029404735
 20
2.292104428175361
 30
0.0
 11
6.666338646904401
 21
2.954028045675026
 31
0.0
  0
LINE
  5
464
330
222
100
AcDbEntity
  8
0
 62
     0
100
AcDbLine
 10
12.28343048784307
 20
8.57111988661369
 30
0.0
 11
12.78211059716312
 21
9.06979999593374
 31
0.0
  0
LINE
  5
465
330
222
100
AcDbEntity
  8
0
 62
     0
100
AcDbLine
 10
3.925810914062327
 20
0.2135003128329533
 30
0.0
 11
4.131855635103502
 21
0.4195450338741271
 31
0.0
  0
LINE
  5
466
330
222
100
AcDbEntity
  8
0
 62
     0
100
AcDbLine
 10
7.58051947793335
 20
4.044985572000611
 30
0.0
 11
9.627404512397049
 21
6.09187060646431
 31
0.0
  0
LINE
  5
467
330
222
100
AcDbEntity
  8
0
 62
     0
100
AcDbLine
 10
9.945525865176238
 20
6.409991959243498
 30
0.0
 11
10.96394079983085
 21
7.428406893898113
 31
0.0
  0
LINE
  5
468
330
222
100
AcDbEntity
  8
0
 62
     0
100
AcDbLine
 10
5.448831129901019
 20
1.91329722396828
 30
0.0
 11
6.253859691212248
 21
2.718325785279509
 31
0.0
  0
LINE
  5
469
330
222
100
AcDbEntity
  8
0
 62
     0
100
AcDbLine
 10
12.06329347105858
 20
8.527759565125837
 30
0.0
 11
12.56501090012811
 21
9.029476994195372
 31
0.0
  0
LINE
  5
46A
330
222
100
AcDbEntity
  8
0
 62
     0
100
AcDbLine
 10
3.752108579243912
 20
0.2165746733111749
 30
0.0
 11
3.958075154981384
 21
0.4225412490486465
 31
0.0
  0
LINE
  5
46B
330
222
100
AcDbEntity
  8
0
 62
     0
100
AcDbLine
 10
8.596810886515026
 20
5.238053675878924
 30
0.0
 11
9.580342553931833
 21
6.221585343295731
 31
0.0
  0
LINE
  5
46C
330
222
100
AcDbEntity
  8
0
 62
     0
100
AcDbLine
 10
7.262077248091248
 20
3.903320037455146
 30
0.0
 11
8.184645812244799
 21
4.825888601608697
 31
0.0
  0
LINE
  5
46D
330
222
100
AcDbEntity
  8
0
 62
     0
100
AcDbLine
 10
9.90095929413329
 20
6.542202083497188
 30
0.0
 11
10.90552562436618
 21
7.546768413730077
 31
0.0
  0
LINE
  5
46E
330
222
100
AcDbEntity
  8
0
 62
     0
100
AcDbLine
 10
4.771346854154883
 20
1.412589643518782
 30
0.0
 11
5.740482762287701
 21
2.381725551651601
 31
0.0
  0
LINE
  5
46F
330
222
100
AcDbEntity
  8
0
 62
     0
100
AcDbLine
 10
11.84315645427409
 20
8.484399243637986
 30
0.0
 11
12.34404003100731
 21
8.985282820371212
 31
0.0
  0
LINE
  5
470
330
222
100
AcDbEntity
  8
0
 62
     0
100
AcDbLine
 10
3.580382646670036
 20
0.2216254360339358
 30
0.0
 11
3.828308558301432
 21
0.4695513476653315
 31
0.0
  0
LINE
  5
471
330
222
100
AcDbEntity
  8
0
 62
     0
100
AcDbLine
 10
8.700801091321974
 20
5.518820575982509
 30
0.0
 11
9.525949724609789
 21
6.343969209270324
 31
0.0
  0
LINE
  5
472
330
222
100
AcDbEntity
  8
0
 62
     0
100
AcDbLine
 10
9.877267572083226
 20
6.69528705674376
 30
0.0
 11
10.92018263871712
 21
7.738202123377659
 31
0.0
  0
LINE
  5
473
330
222
100
AcDbEntity
  8
0
 62
     0
100
AcDbLine
 10
7.039338612017486
 20
3.857358096678021
 30
0.0
 11
7.798997000586346
 21
4.617016485246881
 31
0.0
  0
LINE
  5
474
330
222
100
AcDbEntity
  8
0
 62
     0
100
AcDbLine
 10
11.62301943748959
 20
8.441038922150129
 30
0.0
 11
12.1251176179862
 21
8.943137102646732
 31
0.0
  0
LINE
  5
475
330
222
100
AcDbEntity
  8
0
 62
     0
100
AcDbLine
 10
3.408656714096161
 20
0.2266761987566968
 30
0.0
 11
5.247497989758334
 21
2.065517474418869
 31
0.0
  0
LINE
  5
476
330
222
100
AcDbEntity
  8
0
 62
     0
100
AcDbLine
 10
8.689015978302197
 20
5.683812158259369
 30
0.0
 11
9.471284818128248
 21
6.46608099808542
 31
0.0
  0
LINE
  5
477
330
222
100
AcDbEntity
  8
0
 62
     0
100
AcDbLine
 10
9.853575850033161
 20
6.848372029990333
 30
0.0
 11
10.99686784468325
 21
7.991664024640426
 31
0.0
  0
LINE
  5
478
330
222
100
AcDbEntity
  8
0
 62
     0
100
AcDbLine
 10
6.816599975943723
 20
3.811396155900895
 30
0.0
 11
7.522900730940214
 21
4.517696910897386
 31
0.0
  0
LINE
  5
479
330
222
100
AcDbEntity
  8
0
 62
     0
100
AcDbLine
 10
11.27033567691835
 20
8.265131856875521
 30
0.0
 11
11.91298558363023
 21
8.907781763587404
 31
0.0
  0
LINE
  5
47A
330
222
100
AcDbEntity
  8
0
 62
     0
100
AcDbLine
 10
3.236930781522285
 20
0.2317269614794579
 30
0.0
 11
4.542142223592465
 21
1.536938403549638
 31
0.0
  0
LINE
  5
47B
330
222
100
AcDbEntity
  8
0
 62
     0
100
AcDbLine
 10
8.664848849997129
 20
5.836421725250938
 30
0.0
 11
9.415264034407485
 21
6.586836909661292
 31
0.0
  0
LINE
  5
47C
330
222
100
AcDbEntity
  8
0
 62
     0
100
AcDbLine
 10
6.593861339869961
 20
3.765434215123771
 30
0.0
 11
7.26213714921237
 21
4.433710024466179
 31
0.0
  0
LINE
  5
47D
330
222
100
AcDbEntity
  8
0
 62
     0
100
AcDbLine
 10
9.829884127983095
 20
7.001457003236905
 30
0.0
 11
11.70085354927427
 21
8.872426424528075
 31
0.0
  0
LINE
  5
47E
330
222
100
AcDbEntity
  8
0
 62
     0
100
AcDbLine
 10
3.09356114824304
 20
0.26513402349685
 30
0.0
 11
3.587038309485911
 21
0.7586111847397208
 31
0.0
  0
LINE
  5
47F
330
222
100
AcDbEntity
  8
0
 62
     0
100
AcDbLine
 10
8.612079687222014
 20
5.960429257772459
 30
0.0
 11
9.359243250686718
 21
6.707592821237163
 31
0.0
  0
LINE
  5
480
330
222
100
AcDbEntity
  8
0
 62
     0
100
AcDbLine
 10
9.806192405933032
 20
7.154541976483477
 30
0.0
 11
11.4887215149183
 21
8.837071085468748
 31
0.0
  0
LINE
  5
481
330
222
100
AcDbEntity
  8
0
 62
     0
100
AcDbLine
 10
6.425566000132756
 20
3.773915570683202
 30
0.0
 11
7.080708435618451
 21
4.429058006168897
 31
0.0
  0
LINE
  5
482
330
222
100
AcDbEntity
  8
0
 62
     0
100
AcDbLine
 10
8.559310524446898
 20
6.084436790293981
 30
0.0
 11
9.303222466965953
 21
6.828348732813036
 31
0.0
  0
LINE
  5
483
330
222
100
AcDbEntity
  8
0
 62
     0
100
AcDbLine
 10
9.782500683882966
 20
7.307626949730051
 30
0.0
 11
11.27658948056234
 21
8.801715746409424
 31
0.0
  0
LINE
  5
484
330
222
100
AcDbEntity
  8
0
 62
     0
100
AcDbLine
 10
6.258987960334001
 20
3.784114226181085
 30
0.0
 11
6.899279722024534
 21
4.424405987871617
 31
0.0
  0
LINE
  5
485
330
222
100
AcDbEntity
  8
0
 62
     0
100
AcDbLine
 10
8.506541361671784
 20
6.208444322815503
 30
0.0
 11
9.247201683245188
 21
6.949104644388906
 31
0.0
  0
LINE
  5
486
330
222
100
AcDbEntity
  8
0
 62
     0
100
AcDbLine
 10
6.092409920535247
 20
3.794312881678967
 30
0.0
 11
6.731124838131716
 21
4.433027799275436
 31
0.0
  0
LINE
  5
487
330
222
100
AcDbEntity
  8
0
 62
     0
100
AcDbLine
 10
9.777725866659242
 20
7.47962882780296
 30
0.0
 11
11.03490130046295
 21
8.736804261606671
 31
0.0
  0
LINE
  5
488
330
222
100
AcDbEntity
  8
0
 62
     0
100
AcDbLine
 10
4.413798069070368
 20
2.115701030214089
 30
0.0
 11
5.078006034848231
 21
2.779908995991951
 31
0.0
  0
LINE
  5
489
330
222
100
AcDbEntity
  8
0
 62
     0
100
AcDbLine
 10
8.453772198896668
 20
6.332451855337025
 30
0.0
 11
9.191180899524422
 21
7.06986055596478
 31
0.0
  0
LINE
  5
48A
330
222
100
AcDbEntity
  8
0
 62
     0
100
AcDbLine
 10
5.951743880600376
 20
3.830423537040733
 30
0.0
 11
6.579669762470403
 21
4.45834941891076
 31
0.0
  0
LINE
  5
48B
330
222
100
AcDbEntity
  8
0
 62
     0
100
AcDbLine
 10
9.862271242670678
 20
7.740950899111034
 30
0.0
 11
10.70028827008003
 21
8.578967926520389
 31
0.0
  0
LINE
  5
48C
330
222
100
AcDbEntity
  8
0
 62
     0
100
AcDbLine
 10
3.353137897290546
 20
1.231817553730902
 30
0.0
 11
5.316956450589428
 21
3.195636107029785
 31
0.0
  0
LINE
  5
48D
330
222
100
AcDbEntity
  8
0
 62
     0
100
AcDbLine
 10
8.400780353499147
 20
6.45623670523614
 30
0.0
 11
9.135160115803657
 21
7.19061646754065
 31
0.0
  0
LINE
  5
48E
330
222
100
AcDbEntity
  8
0
 62
     0
100
AcDbLine
 10
5.836035498224395
 20
3.891491849961389
 30
0.0
 11
6.47132275567569
 21
4.526779107412684
 31
0.0
  0
LINE
  5
48F
330
222
100
AcDbEntity
  8
0
 62
     0
100
AcDbLine
 10
10.02523263889728
 20
8.080688990634273
 30
0.0
 11
10.18300627860073
 21
8.238462630337727
 31
0.0
  0
LINE
  5
490
330
222
100
AcDbEntity
  8
0
 62
     0
100
AcDbLine
 10
2.37109954301883
 20
0.426555894755825
 30
0.0
 11
5.323052198703106
 21
3.378508550440099
 31
0.0
  0
LINE
  5
491
330
222
100
AcDbEntity
  8
0
 62
     0
100
AcDbLine
 10
5.720327115848416
 20
3.952560162882046
 30
0.0
 11
6.367768717240239
 21
4.600001764273869
 31
0.0
  0
LINE
  5
492
330
222
100
AcDbEntity
  8
0
 62
     0
100
AcDbLine
 10
8.347747344910155
 20
6.579980391943786
 30
0.0
 11
9.079139332082892
 21
7.311372379116523
 31
0.0
  0
LINE
  5
493
330
222
100
AcDbEntity
  8
0
 62
     0
100
AcDbLine
 10
2.120723761852955
 20
0.3529568088865864
 30
0.0
 11
5.32582540020431
 21
3.55805844723794
 31
0.0
  0
LINE
  5
494
330
222
100
AcDbEntity
  8
0
 62
     0
100
AcDbLine
 10
5.604618733472435
 20
4.013628475802701
 30
0.0
 11
6.301477456504
 21
4.710487198834266
 31
0.0
  0
LINE
  5
495
330
222
100
AcDbEntity
  8
0
 62
     0
100
AcDbLine
 10
4.21668854262583
 20
2.625698284956097
 30
0.0
 11
5.30276757038301
 21
3.711777312713277
 31
0.0
  0
LINE
  5
496
330
222
100
AcDbEntity
  8
0
 62
     0
100
AcDbLine
 10
8.293546767063931
 20
6.702556509394197
 30
0.0
 11
9.023118548362127
 21
7.432128290692394
 31
0.0
  0
LINE
  5
497
330
222
100
AcDbEntity
  8
0
 62
     0
100
AcDbLine
 10
2.036987432501916
 20
0.4459971748321846
 30
0.0
 11
3.839462192642897
 21
2.248471934973164
 31
0.0
  0
LINE
  5
498
330
222
100
AcDbEntity
  8
0
 62
     0
100
AcDbLine
 10
5.523504375773574
 20
4.109290813400479
 30
0.0
 11
6.235186195767761
 21
4.820972633394664
 31
0.0
  0
LINE
  5
499
330
222
100
AcDbEntity
  8
0
 62
     0
100
AcDbLine
 10
4.316870499639527
 20
2.902656937266432
 30
0.0
 11
5.244299945268149
 21
3.830086382895053
 31
0.0
  0
LINE
  5
49A
330
222
100
AcDbEntity
  8
0
 62
     0
100
AcDbLine
 10
8.23411322295558
 20
6.819899660582482
 30
0.0
 11
8.967097764641362
 21
7.552884202268266
 31
0.0
  0
LINE
  5
49B
330
222
100
AcDbEntity
  8
0
 62
     0
100
AcDbLine
 10
1.953251103150878
 20
0.5390375407777829
 30
0.0
 11
2.704881998152592
 21
1.290668435779496
 31
0.0
  0
LINE
  5
49C
330
222
100
AcDbEntity
  8
0
 62
     0
100
AcDbLine
 10
5.448508202011364
 20
4.211071334934906
 30
0.0
 11
6.181950479256252
 21
4.944513612179794
 31
0.0
  0
LINE
  5
49D
330
222
100
AcDbEntity
  8
0
 62
     0
100
AcDbLine
 10
8.174679678847226
 20
6.937242811770767
 30
0.0
 11
8.915038480380504
 21
7.677601613304045
 31
0.0
  0
LINE
  5
49E
330
222
100
AcDbEntity
  8
0
 62
     0
100
AcDbLine
 10
4.31340820231942
 20
3.075971335242961
 30
0.0
 11
5.160563615917109
 21
3.923126748840651
 31
0.0
  0
LINE
  5
49F
330
222
100
AcDbEntity
  8
0
 62
     0
100
AcDbLine
 10
5.385397188308699
 20
4.324737016528877
 30
0.0
 11
6.128917470667262
 21
5.06825729888744
 31
0.0
  0
LINE
  5
4A0
330
222
100
AcDbEntity
  8
0
 62
     0
100
AcDbLine
 10
8.115246134738875
 20
7.054585962959053
 30
0.0
 11
8.864530853152892
 21
7.803870681373068
 31
0.0
  0
LINE
  5
4A1
330
222
100
AcDbEntity
  8
0
 62
     0
100
AcDbLine
 10
4.248279946157501
 20
3.187619774377679
 30
0.0
 11
5.076827286566071
 21
4.01616711478625
 31
0.0
  0
LINE
  5
4A2
330
222
100
AcDbEntity
  8
0
 62
     0
100
AcDbLine
 10
5.328576107677637
 20
4.444692631194453
 30
0.0
 11
6.070059474875887
 21
5.186175998392702
 31
0.0
  0
LINE
  5
4A3
330
222
100
AcDbEntity
  8
0
 62
     0
100
AcDbLine
 10
8.055812590630523
 20
7.171929114147338
 30
0.0
 11
8.807366145854828
 21
7.923482669371642
 31
0.0
  0
LINE
  5
4A4
330
222
100
AcDbEntity
  8
0
 62
     0
100
AcDbLine
 10
4.153179626532149
 20
3.269296150048965
 30
0.0
 11
4.993090957215033
 21
4.109207480731848
 31
0.0
  0
LINE
  5
4A5
330
222
100
AcDbEntity
  8
0
 62
     0
100
AcDbLine
 10
5.267084299981071
 20
4.559977518794522
 30
0.0
 11
6.01113390977701
 21
5.304027128590461
 31
0.0
  0
LINE
  5
4A6
330
222
100
AcDbEntity
  8
0
 62
     0
100
AcDbLine
 10
7.996379046522172
 20
7.289272265335623
 30
0.0
 11
8.739775056476702
 21
8.032668275290154
 31
0.0
  0
LINE
  5
4A7
330
222
100
AcDbEntity
  8
0
 62
     0
100
AcDbLine
 10
4.035919727775066
 20
3.328812946588518
 30
0.0
 11
4.882375739768751
 21
4.175268958582202
 31
0.0
  0
LINE
  5
4A8
330
222
100
AcDbEntity
  8
0
 62
     0
100
AcDbLine
 10
5.204357085520975
 20
4.674026999631063
 30
0.0
 11
5.952208344678131
 21
5.421878258788218
 31
0.0
  0
LINE
  5
4A9
330
222
100
AcDbEntity
  8
0
 62
     0
100
AcDbLine
 10
7.936945502413819
 20
7.406615416523907
 30
0.0
 11
8.664711615932464
 21
8.134381530042551
 31
0.0
  0
LINE
  5
4AA
330
222
100
AcDbEntity
  8
0
 62
     0
100
AcDbLine
 10
3.859143032478429
 20
3.328812946588518
 30
0.0
 11
4.764524609570993
 21
4.234194523681081
 31
0.0
  0
LINE
  5
4AB
330
222
100
AcDbEntity
  8
0
 62
     0
100
AcDbLine
 10
5.147575981908243
 20
4.794022591314969
 30
0.0
 11
5.893282779579251
 21
5.539729388985977
 31
0.0
  0
LINE
  5
4AC
330
222
100
AcDbEntity
  8
0
 62
     0
100
AcDbLine
 10
7.877511958305467
 20
7.523958567712193
 30
0.0
 11
8.417822318497133
 21
8.064268927903858
 31
0.0
  0
LINE
  5
4AD
330
222
100
AcDbEntity
  8
0
 62
     0
100
AcDbLine
 10
3.593898697807111
 20
3.240345307213836
 30
0.0
 11
4.588085760811884
 21
4.23453237021861
 31
0.0
  0
LINE
  5
4AE
330
222
100
AcDbEntity
  8
0
 62
     0
100
AcDbLine
 10
5.093015273483355
 20
4.916238578186717
 30
0.0
 11
5.825326393853625
 21
5.648549698556988
 31
0.0
  0
LINE
  5
4AF
330
222
100
AcDbEntity
  8
0
 62
     0
100
AcDbLine
 10
7.831980761007804
 20
7.655204065711167
 30
0.0
 11
8.039308405973635
 21
7.862531710676996
 31
0.0
  0
LINE
  5
4B0
330
222
100
AcDbEntity
  8
0
 62
     0
100
AcDbLine
 10
2.865479446629722
 20
2.688702751333085
 30
0.0
 11
4.381987052356445
 21
4.205210357059807
 31
0.0
  0
LINE
  5
4B1
330
222
100
AcDbEntity
  8
0
 62
     0
100
AcDbLine
 10
5.038454565058467
 20
5.038454565058466
 30
0.0
 11
5.761490802072132
 21
5.761490802072131
 31
0.0
  0
LINE
  5
4B2
330
222
100
AcDbEntity
  8
0
 62
     0
100
AcDbLine
 10
1.917302156515648
 20
1.917302156515648
 30
0.0
 11
4.161016183235648
 21
4.161016183235648
 31
0.0
  0
LINE
  5
4B3
330
222
100
AcDbEntity
  8
0
 62
     0
100
AcDbLine
 10
4.983893856633579
 20
5.160670551930214
 30
0.0
 11
5.70911252198424
 21
5.885889217280875
 31
0.0
  0
LINE
  5
4B4
330
222
100
AcDbEntity
  8
0
 62
     0
100
AcDbLine
 10
1.547470334099207
 20
1.724247029395844
 30
0.0
 11
3.798556388570037
 21
3.975333083866673
 31
0.0
  0
LINE
  5
4B5
330
222
100
AcDbEntity
  8
0
 62
     0
100
AcDbLine
 10
4.929333148208692
 20
5.282886538801964
 30
0.0
 11
5.656734241896348
 21
6.01028763248962
 31
0.0
  0
LINE
  5
4B6
330
222
100
AcDbEntity
  8
0
 62
     0
100
AcDbLine
 10
1.293209197825075
 20
1.646762588418348
 30
0.0
 11
3.273138531117183
 21
3.626691921710456
 31
0.0
  0
LINE
  5
4B7
330
222
100
AcDbEntity
  8
0
 62
     0
100
AcDbLine
 10
4.872122174103965
 20
5.402452259993876
 30
0.0
 11
5.604355961808454
 21
6.134686047698364
 31
0.0
  0
LINE
  5
4B8
330
222
100
AcDbEntity
  8
0
 62
     0
100
AcDbLine
 10
1.116432502528438
 20
1.646762588418348
 30
0.0
 11
2.247833698396695
 21
2.778163784286605
 31
0.0
  0
LINE
  5
4B9
330
222
100
AcDbEntity
  8
0
 62
     0
100
AcDbLine
 10
4.809730399293388
 20
5.516837180479935
 30
0.0
 11
5.546822830784142
 21
6.253929611970689
 31
0.0
  0
LINE
  5
4BA
330
222
100
AcDbEntity
  8
0
 62
     0
100
AcDbLine
 10
0.9744897431591654
 20
1.681596524345712
 30
0.0
 11
1.857137820779166
 21
2.564244601965714
 31
0.0
  0
LINE
  5
4BB
330
222
100
AcDbEntity
  8
0
 62
     0
100
AcDbLine
 10
4.74733862448281
 20
5.631222100965993
 30
0.0
 11
5.486785462570191
 21
6.370668939053374
 31
0.0
  0
LINE
  5
4BC
330
222
100
AcDbEntity
  8
0
 62
     0
100
AcDbLine
 10
0.8409251289350397
 20
1.724808605418223
 30
0.0
 11
1.68036112548253
 21
2.564244601965714
 31
0.0
  0
LINE
  5
4BD
330
222
100
AcDbEntity
  8
0
 62
     0
100
AcDbLine
 10
4.684946849672233
 20
5.745607021452053
 30
0.0
 11
5.426748094356239
 21
6.487408266136059
 31
0.0
  0
LINE
  5
4BE
330
222
100
AcDbEntity
  8
0
 62
     0
100
AcDbLine
 10
0.7073605147109143
 20
1.768020686490735
 30
0.0
 11
1.549990953630273
 21
2.610651125410094
 31
0.0
  0
LINE
  5
4BF
330
222
100
AcDbEntity
  8
0
 62
     0
100
AcDbLine
 10
4.622555074861655
 20
5.859991941938112
 30
0.0
 11
5.349613486596937
 21
6.587050353673394
 31
0.0
  0
LINE
  5
4C0
330
222
100
AcDbEntity
  8
0
 62
     0
100
AcDbLine
 10
0.6142489497845265
 20
1.851685816860984
 30
0.0
 11
1.458554731925116
 21
2.695991599001574
 31
0.0
  0
LINE
  5
4C1
330
222
100
AcDbEntity
  8
0
 62
     0
100
AcDbLine
 10
4.569171226224032
 20
5.983384788597127
 30
0.0
 11
5.070203512691008
 21
6.484417075064103
 31
0.0
  0
LINE
  5
4C2
330
222
100
AcDbEntity
  8
0
 62
     0
100
AcDbLine
 10
0.5305126204334883
 20
1.944726182806583
 30
0.0
 11
1.39967205791282
 21
2.813885620285914
 31
0.0
  0
LINE
  5
4C3
330
222
100
AcDbEntity
  8
0
 62
     0
100
AcDbLine
 10
2.855581088560528
 20
4.44657134623026
 30
0.0
 11
3.670202731167362
 21
5.261192988837094
 31
0.0
  0
LINE
  5
4C4
330
222
100
AcDbEntity
  8
0
 62
     0
100
AcDbLine
 10
4.517848959847589
 20
6.108839217517321
 30
0.0
 11
4.742646694935474
 21
6.333636952605205
 31
0.0
  0
LINE
  5
4C5
330
222
100
AcDbEntity
  8
0
 62
     0
100
AcDbLine
 10
0.4467762910824496
 20
2.037766548752181
 30
0.0
 11
1.36816123259253
 21
2.959151490262263
 31
0.0
  0
LINE
  5
4C6
330
222
100
AcDbEntity
  8
0
 62
     0
100
AcDbLine
 10
1.838625213125453
 20
3.606392166091822
 30
0.0
 11
3.593758754822871
 21
5.361525707789239
 31
0.0
  0
LINE
  5
4C7
330
222
100
AcDbEntity
  8
0
 62
     0
100
AcDbLine
 10
0.3636466211486443
 20
2.131413574115012
 30
0.0
 11
1.431781582324555
 21
3.199548535290924
 31
0.0
  0
LINE
  5
4C8
330
222
100
AcDbEntity
  8
0
 62
     0
100
AcDbLine
 10
0.3116534754731626
 20
2.256197123736168
 30
0.0
 11
3.51731477847838
 21
5.461858426741385
 31
0.0
  0
LINE
  5
4C9
330
222
100
AcDbEntity
  8
0
 62
     0
100
AcDbLine
 10
0.3058273378491219
 20
2.427147681408764
 30
0.0
 11
3.332352966624051
 21
5.453673310183692
 31
0.0
  0
LINE
  5
4CA
330
222
100
AcDbEntity
  8
0
 62
     0
100
AcDbLine
 10
0.3753527878807799
 20
2.673449826737058
 30
0.0
 11
2.312939361947694
 21
4.611036400803973
 31
0.0
  0
LINE
  5
4CB
330
222
100
AcDbEntity
  8
0
 62
     0
100
AcDbLine
 10
0.602567206024715
 20
3.077440940177631
 30
0.0
 11
1.279695336323951
 21
3.754569070476867
 31
0.0
  0
ENDBLK
  5
4CD
330
222
100
AcDbEntity
  8
0
100
AcDbBlockEnd
  0
BLOCK
  5
50E
330
21E
100
AcDbEntity
  8
0
100
AcDbBlockBegin
  2
WAKU
 70
     0
 10
0.0
 20
0.0
 30
0.0
  3
WAKU
  1

  0
INSERT
  5
21F
330
21E
100
AcDbEntity
  8
0
100
AcDbBlockReference
  2
LOGO
 10
26.34999999999984
 20
273.6500000000002
 30
0.0
  0
LWPOLYLINE
  5
4DD
330
21E
100
AcDbEntity
  8
0
100
AcDbPolyline
 90
        4
 70
     1
 43
0.7
 10
24.99999999999984
 20
285.0000000000002
 10
408.0
 20
285.0000000000002
 10
408.0
 20
11.99999999999995
 10
24.99999999999984
 20
11.99999999999994
  0
LWPOLYLINE
  5
4DE
330
21E
100
AcDbEntity
  8
0
100
AcDbPolyline
 90
        4
 70
     1
 43
0.3
 10
347.0000000000001
 20
285.0000000000002
 10
408.0
 20
285.0000000000002
 10
408.0
 20
278.0000000000002
 10
347.0000000000001
 20
278.0000000000002
  0
LWPOLYLINE
  5
4DF
330
21E
100
AcDbEntity
  8
0
100
AcDbPolyline
 90
        4
 70
     1
 43
0.3
 10
24.99999999999984
 20
36.00000000000016
 10
108.9999999999998
 20
36.00000000000016
 10
108.9999999999998
 20
12.00000000000015
 10
24.99999999999984
 20
12.00000000000013
  0
LWPOLYLINE
  5
4E0
330
21E
100
AcDbEntity
  8
0
100
AcDbPolyline
 90
        2
 70
     0
 43
0.3
 10
24.99999999999984
 20
30.00000000000015
 10
108.9999999999998
 20
30.00000000000015
  0
LWPOLYLINE
  5
4E1
330
21E
100
AcDbEntity
  8
0
100
AcDbPolyline
 90
        2
 70
     0
 43
0.3
 10
24.99999999999984
 20
24.00000000000015
 10
108.9999999999998
 20
24.00000000000015
  0
LWPOLYLINE
  5
4E2
330
21E
100
AcDbEntity
  8
0
100
AcDbPolyline
 90
        2
 70
     0
 43
0.3
 10
24.99999999999984
 20
18.00000000000013
 10
108.9999999999998
 20
18.00000000000013
  0
TEXT
  5
4E3
330
21E
100
AcDbEntity
  8
TEXT
100
AcDbText
 10
76.74999999999982
 20
13.12500000000014
 30
0.0
 40
3.75
  1
年 月 日
 72
     1
 11
84.99999999999984
 21
13.12500000000014
 31
0.0
100
AcDbText
  0
TEXT
  5
4E4
330
21E
100
AcDbEntity
  8
TEXT
100
AcDbText
 10
39.74999999999983
 20
13.12500000000004
 30
0.0
 40
3.75
  1
訂　正　箇　所
 72
     1
 11
54.99999999999983
 21
13.12500000000004
 31
0.0
100
AcDbText
  0
LWPOLYLINE
  5
4E5
330
21E
100
AcDbEntity
  8
0
100
AcDbPolyline
 90
        2
 70
     0
 43
0.3
 10
34.99999999999984
 20
12.00000000000015
 10
34.99999999999984
 20
36.00000000000016
  0
TEXT
  5
4E6
330
21E
100
AcDbEntity
  8
TEXT
100
AcDbText
 10
28.74999999999984
 20
31.12500000000017
 30
0.0
 40
3.75
  1
3
 72
     1
 11
29.99999999999984
 21
31.12500000000017
 31
0.0
100
AcDbText
  0
TEXT
  5
4E7
330
21E
100
AcDbEntity
  8
TEXT
100
AcDbText
 10
28.74999999999984
 20
25.12500000000016
 30
0.0
 40
3.75
  1
2
 72
     1
 11
29.99999999999984
 21
25.12500000000016
 31
0.0
100
AcDbText
  0
TEXT
  5
4E8
330
21E
100
AcDbEntity
  8
TEXT
100
AcDbText
 10
26.87499999999984
 20
13.12500000000014
 30
0.0
 40
3.75
  1
No
 72
     1
 11
29.99999999999984
 21
13.12500000000014
 31
0.0
100
AcDbText
  0
TEXT
  5
4E9
330
21E
100
AcDbEntity
  8
TEXT
100
AcDbText
 10
29.37499999999984
 20
19.12500000000015
 30
0.0
 40
3.75
  1
1
 72
     1
 11
29.99999999999984
 21
19.12500000000015
 31
0.0
100
AcDbText
  0
LWPOLYLINE
  5
4EA
330
21E
100
AcDbEntity
  8
0
100
AcDbPolyline
 90
        2
 70
     0
 43
0.3
 10
74.99999999999983
 20
12.00000000000015
 10
74.99999999999983
 20
36.00000000000016
  0
LWPOLYLINE
  5
4EB
330
21E
100
AcDbEntity
  8
0
100
AcDbPolyline
 90
        2
 70
     0
 43
0.3
 10
94.99999999999984
 20
12.00000000000015
 10
94.99999999999984
 20
36.00000000000016
  0
TEXT
  5
4EC
330
21E
100
AcDbEntity
  8
TEXT
100
AcDbText
 10
95.74999999999983
 20
13.12500000000014
 30
0.0
 40
3.75
  1
訂正者
 72
     1
 11
101.9999999999998
 21
13.12500000000014
 31
0.0
100
AcDbText
  0
LWPOLYLINE
  5
4ED
330
21E
100
AcDbEntity
  8
0
100
AcDbPolyline
 90
        3
 70
     0
 43
0.7
 10
408.0
 20
28.99999999999995
 10
133.0
 20
28.99999999999995
 10
133.0
 20
11.99999999999994
  0
LWPOLYLINE
  5
4EE
330
21E
100
AcDbEntity
  8
0
100
AcDbPolyline
 90
        2
 70
     0
 43
0.3
 10
149.0
 20
12.0000000000001
 10
149.0
 20
28.99999999999995
  0
LWPOLYLINE
  5
4EF
330
21E
100
AcDbEntity
  8
0
100
AcDbPolyline
 90
        2
 70
     0
 43
0.3
 10
165.0
 20
12.0000000000001
 10
165.0
 20
28.99999999999995
  0
LWPOLYLINE
  5
4F0
330
21E
100
AcDbEntity
  8
0
100
AcDbPolyline
 90
        2
 70
     0
 43
0.3
 10
181.0
 20
12.0000000000001
 10
181.0
 20
28.99999999999995
  0
TEXT
  5
4F1
330
21E
100
AcDbEntity
  8
TEXT
100
AcDbText
 10
136.125
 20
24.69999999999995
 30
0.0
 40
2.924999999999999
  1
設　計
 72
     1
 11
141.0
 21
24.69999999999995
 31
0.0
100
AcDbText
  0
TEXT
  5
4F2
330
21E
100
AcDbEntity
  8
TEXT
100
AcDbText
 10
152.2225
 20
24.69999999999995
 30
0.0
 40
2.924999999999999
  1
製　図
 72
     1
 11
157.0
 21
24.69999999999995
 31
0.0
100
AcDbText
  0
TEXT
  5
4F3
330
21E
100
AcDbEntity
  8
TEXT
100
AcDbText
 10
168.2225
 20
24.69999999999995
 30
0.0
 40
2.924999999999999
  1
検　図
 72
     1
 11
173.0
 21
24.69999999999995
 31
0.0
100
AcDbText
  0
TEXT
  5
4F4
330
21E
100
AcDbEntity
  8
TEXT
100
AcDbText
 10
184.125
 20
24.69999999999995
 30
0.0
 40
2.924999999999999
  1
承　認
 72
     1
 11
189.0
 21
24.69999999999995
 31
0.0
100
AcDbText
  0
LWPOLYLINE
  5
4F5
330
21E
100
AcDbEntity
  8
0
100
AcDbPolyline
 90
        2
 70
     0
 43
0.3
 10
197.0
 20
12.0000000000001
 10
197.0
 20
28.99999999999995
  0
TEXT
  5
4F6
330
21E
100
AcDbEntity
  8
TEXT
100
AcDbText
 10
199.4625
 20
27.68333333333334
 30
0.0
 40
3.25
  1
尺度
  7
TATE
 72
     1
 11
199.4625
 21
24.00000000000001
 31
0.0
100
AcDbText
  0
TEXT
  5
4F8
330
21E
100
AcDbEntity
  8
TEXT
100
AcDbText
 10
198.0
 20
14.03750000000001
 30
0.0
 40
3.25
  1
日付
100
AcDbText
  0
LWPOLYLINE
  5
4F9
330
21E
100
AcDbEntity
  8
0
100
AcDbPolyline
 90
        2
 70
     0
 43
0.3
 10
197.0
 20
19.00000000000008
 10
408.0
 20
19.00000000000004
  0
TEXT
  5
4FA
330
21E
100
AcDbEntity
  8
TEXT
100
AcDbText
 10
243.4625
 20
27.575
 30
0.0
 40
3.25
  1
材質
  7
TATE
 72
     1
 11
243.4625
 21
24.0
 31
0.0
100
AcDbText
  0
TEXT
  5
4FB
330
21E
100
AcDbEntity
  8
TEXT
100
AcDbText
 10
242.0
 20
14.0375
 30
0.0
 40
3.25
  1
仕上
100
AcDbText
  0
LWPOLYLINE
  5
4FC
330
21E
100
AcDbEntity
  8
0
100
AcDbPolyline
 90
        2
 70
     0
 43
0.3
 10
241.0
 20
12.0000000000001
 10
241.0
 20
28.99999999999995
  0
LWPOLYLINE
  5
4FD
330
21E
100
AcDbEntity
  8
0
100
AcDbPolyline
 90
        2
 70
     0
 43
0.3
 10
291.0
 20
12.0000000000001
 10
291.0
 20
28.99999999999995
  0
TEXT
  5
4FE
330
21E
100
AcDbEntity
  8
TEXT
100
AcDbText
 10
293.4625
 20
27.68333333333332
 30
0.0
 40
3.25
  1
図番
  7
TATE
 72
     1
 11
293.4625
 21
23.99999999999999
 31
0.0
100
AcDbText
  0
TEXT
  5
4FF
330
21E
100
AcDbEntity
  8
TEXT
100
AcDbText
 10
292.0
 20
14.0375
 30
0.0
 40
3.25
  1
品名
100
AcDbText
  0
LWPOLYLINE
  5
500
330
21E
100
AcDbEntity
  8
0
100
AcDbPolyline
 90
        3
 70
     0
 43
0.3
 10
408.0
 20
33.99999999999995
 10
278.0
 20
33.99999999999995
 10
278.0
 20
28.99999999999995
  0
TEXT
  5
501
330
21E
100
AcDbEntity
  8
TEXT
100
AcDbText
 10
283.7725
 20
30.19999999999995
 30
0.0
 40
2.924999999999999
  1
図　　番
 72
     1
 11
290.5
 21
30.19999999999995
 31
0.0
100
AcDbText
  0
LWPOLYLINE
  5
502
330
21E
100
AcDbEntity
  8
0
100
AcDbPolyline
 90
        2
 70
     0
 43
0.3
 10
334.0
 20
19.00000000000006
 10
334.0
 20
28.99999999999995
  0
TEXT
  5
503
330
21E
100
AcDbEntity
  8
TEXT
100
AcDbText
 10
336.4625
 20
27.68333333333331
 30
0.0
 40
3.25
  1
品番
  7
TATE
 72
     1
 11
336.4625
 21
23.99999999999998
 31
0.0
100
AcDbText
  0
LWPOLYLINE
  5
504
330
21E
100
AcDbEntity
  8
0
100
AcDbPolyline
 90
        2
 70
     0
 43
0.3
 10
303.0
 20
33.99999999999995
 10
303.0
 20
28.99999999999995
  0
LWPOLYLINE
  5
505
330
21E
100
AcDbEntity
  8
0
100
AcDbPolyline
 90
        2
 70
     0
 43
0.3
 10
313.0
 20
33.99999999999995
 10
313.0
 20
28.99999999999995
  0
LWPOLYLINE
  5
506
330
21E
100
AcDbEntity
  8
0
100
AcDbPolyline
 90
        2
 70
     0
 43
0.3
 10
353.0
 20
33.99999999999995
 10
353.0
 20
28.99999999999995
  0
LWPOLYLINE
  5
507
330
21E
100
AcDbEntity
  8
0
100
AcDbPolyline
 90
        2
 70
     0
 43
0.3
 10
363.0
 20
33.99999999999995
 10
363.0
 20
28.99999999999995
  0
LWPOLYLINE
  5
508
330
21E
100
AcDbEntity
  8
0
100
AcDbPolyline
 90
        2
 70
     0
 43
0.3
 10
383.0
 20
33.99999999999995
 10
383.0
 20
28.99999999999995
  0
TEXT
  5
509
330
21E
100
AcDbEntity
  8
TEXT
100
AcDbText
 10
304.88
 20
30.19999999999995
 30
0.0
 40
2.924999999999999
  1
番号
 72
     1
 11
308.0
 21
30.19999999999995
 31
0.0
100
AcDbText
  0
TEXT
  5
50A
330
21E
100
AcDbEntity
  8
TEXT
100
AcDbText
 10
326.4675
 20
30.19999999999995
 30
0.0
 40
2.924999999999999
  1
品　　名
 72
     1
 11
333.0
 21
30.19999999999995
 31
0.0
100
AcDbText
  0
TEXT
  5
50B
330
21E
100
AcDbEntity
  8
TEXT
100
AcDbText
 10
354.88
 20
30.19999999999995
 30
0.0
 40
2.924999999999999
  1
個数
 72
     1
 11
358.0
 21
30.19999999999995
 31
0.0
100
AcDbText
  0
TEXT
  5
50C
330
21E
100
AcDbEntity
  8
TEXT
100
AcDbText
 10
366.37
 20
30.19999999999995
 30
0.0
 40
2.924999999999999
  1
材　　質
 72
     1
 11
373.0
 21
30.19999999999995
 31
0.0
100
AcDbText
  0
TEXT
  5
50D
330
21E
100
AcDbEntity
  8
TEXT
100
AcDbText
 10
388.87
 20
30.19999999999995
 30
0.0
 40
2.924999999999999
  1
備　　考
 72
     1
 11
395.5
 21
30.19999999999995
 31
0.0
100
AcDbText
  0
ENDBLK
  5
50F
330
21E
100
AcDbEntity
  8
0
100
AcDbBlockEnd
  0
BLOCK
  5
30
330
2D
100
AcDbEntity
  8
0
100
AcDbBlockBegin
  2
_DOT
 70
     0
 10
0.0
 20
0.0
 30
0.0
  3
_DOT
  1

  0
LWPOLYLINE
  5
2E
330
2D
100
AcDbEntity
  8
0
  6
ByBlock
 62
     0
100
AcDbPolyline
 90
        2
 70
     1
 43
0.5
 10
-0.25
 20
0.0
 42
1.0
 10
0.25
 20
0.0
 42
1.0
  0
LINE
  5
2F
330
2D
100
AcDbEntity
  8
0
  6
ByBlock
 62
     0
100
AcDbLine
 10
-0.5
 20
0.0
 30
0.0
 11
-1.0
 21
0.0
 31
0.0
  0
ENDBLK
  5
31
330
2D
100
AcDbEntity
  8
0
100
AcDbBlockEnd
  0
BLOCK
  5
5C3
330
5C2
100
AcDbEntity
  8
0
100
AcDbBlockBegin
  2
*D4
 70
     1
 10
0.0
 20
0.0
 30
0.0
  3
*D4
  1

  0
LINE
  5
7D9
330
5C2
100
AcDbEntity
  8
SUNPOU
 62
     0
370
    -2
100
AcDbLine
 10
305.75
 20
184.0000000000001
 30
0.0
 11
289.75
 21
184.0000000000001
 31
0.0
  0
LINE
  5
7DA
330
5C2
100
AcDbEntity
  8
SUNPOU
 62
     0
370
    -2
100
AcDbLine
 10
305.75
 20
150.0000000000001
 30
0.0
 11
289.75
 21
150.0000000000001
 31
0.0
  0
LINE
  5
7DB
330
5C2
100
AcDbEntity
  8
SUNPOU
 62
     0
370
    -2
100
AcDbLine
 10
290.75
 20
183.0000000000001
 30
0.0
 11
290.75
 21
172.0000000000001
 31
0.0
  0
LINE
  5
7DC
330
5C2
100
AcDbEntity
  8
SUNPOU
 62
     0
370
    -2
100
AcDbLine
 10
290.75
 20
151.0000000000001
 30
0.0
 11
290.75
 21
162.0000000000001
 31
0.0
  0
INSERT
  5
7DD
330
5C2
100
AcDbEntity
  8
SUNPOU
 62
     0
370
    -2
100
AcDbBlockReference
  2
_DOT
 10
290.75
 20
184.0000000000001
 30
0.0
 50
90.0
  0
INSERT
  5
7DE
330
5C2
100
AcDbEntity
  8
SUNPOU
 62
     0
370
    -2
100
AcDbBlockReference
  2
_DOT
 10
290.75
 20
150.0000000000001
 30
0.0
 50
270.0
  0
MTEXT
  5
7DF
330
5C2
100
AcDbEntity
  8
SUNPOU
 62
     4
100
AcDbMText
 10
290.7499999999999
 20
167.0000000000001
 30
0.0
 40
3.0
 41
0.0
 71
     5
 72
     1
  1
\A1;34%%c
 11
0.0000000000000001
 21
1.0
 31
0.0
 73
     1
 44
1.0
1001
ACAD
1000
MTEXTBEGIN
1070
    73
1070
     1
1070
    44
1040
1.0
1070
    74
1070
     0
1000
MTEXTEND
  0
POINT
  5
7E0
330
5C2
100
AcDbEntity
  8
DEFPOINTS
 62
     0
100
AcDbPoint
 10
306.75
 20
184.0000000000001
 30
0.0
  0
POINT
  5
7E1
330
5C2
100
AcDbEntity
  8
DEFPOINTS
 62
     0
100
AcDbPoint
 10
306.75
 20
150.0000000000001
 30
0.0
  0
POINT
  5
7E2
330
5C2
100
AcDbEntity
  8
DEFPOINTS
 62
     0
100
AcDbPoint
 10
290.75
 20
150.0000000000001
 30
0.0
  0
ENDBLK
  5
5C4
330
5C2
100
AcDbEntity
  8
0
100
AcDbBlockEnd
  0
BLOCK
  5
5FA
330
5F9
100
AcDbEntity
  8
0
100
AcDbBlockBegin
  2
*D5
 70
     1
 10
0.0
 20
0.0
 30
0.0
  3
*D5
  1

  0
LINE
  5
7A4
330
5F9
100
AcDbEntity
  8
SUNPOU
 62
     0
370
    -2
100
AcDbLine
 10
322.75
 20
180.5
 30
0.0
 11
322.75
 21
230.5000000000001
 31
0.0
  0
LINE
  5
7A5
330
5F9
100
AcDbEntity
  8
SUNPOU
 62
     0
370
    -2
100
AcDbLine
 10
300.75
 20
180.5
 30
0.0
 11
300.75
 21
230.5000000000001
 31
0.0
  0
LINE
  5
7A6
330
5F9
100
AcDbEntity
  8
SUNPOU
 62
     0
370
    -2
100
AcDbLine
 10
321.75
 20
229.5000000000001
 30
0.0
 11
315.25
 21
229.5000000000001
 31
0.0
  0
LINE
  5
7A7
330
5F9
100
AcDbEntity
  8
SUNPOU
 62
     0
370
    -2
100
AcDbLine
 10
301.75
 20
229.5000000000001
 30
0.0
 11
308.25
 21
229.5000000000001
 31
0.0
  0
INSERT
  5
7A8
330
5F9
100
AcDbEntity
  8
SUNPOU
 62
     0
370
    -2
100
AcDbBlockReference
  2
_DOT
 10
322.75
 20
229.5000000000001
 30
0.0
  0
INSERT
  5
7A9
330
5F9
100
AcDbEntity
  8
SUNPOU
 62
     0
370
    -2
100
AcDbBlockReference
  2
_DOT
 10
300.75
 20
229.5000000000001
 30
0.0
 50
180.0
  0
MTEXT
  5
7AA
330
5F9
100
AcDbEntity
  8
SUNPOU
 62
     4
100
AcDbMText
 10
311.75
 20
229.5000000000001
 30
0.0
 40
3.0
 41
0.0
 71
     5
 72
     1
  1
\A1;22
 73
     1
 44
1.0
1001
ACAD
1000
MTEXTBEGIN
1070
    73
1070
     1
1070
    44
1040
1.0
1070
    74
1070
     0
1000
MTEXTEND
  0
POINT
  5
7AB
330
5F9
100
AcDbEntity
  8
DEFPOINTS
 62
     0
100
AcDbPoint
 10
322.75
 20
179.5
 30
0.0
  0
POINT
  5
7AC
330
5F9
100
AcDbEntity
  8
DEFPOINTS
 62
     0
100
AcDbPoint
 10
300.75
 20
179.5
 30
0.0
  0
POINT
  5
7AD
330
5F9
100
AcDbEntity
  8
DEFPOINTS
 62
     0
100
AcDbPoint
 10
300.75
 20
229.5000000000001
 30
0.0
  0
ENDBLK
  5
5FB
330
5F9
100
AcDbEntity
  8
0
100
AcDbBlockEnd
  0
BLOCK
  5
607
330
606
100
AcDbEntity
  8
0
100
AcDbBlockBegin
  2
*D6
 70
     1
 10
0.0
 20
0.0
 30
0.0
  3
*D6
  1

  0
LINE
  5
7AE
330
606
100
AcDbEntity
  8
SUNPOU
 62
     0
370
    -2
100
AcDbLine
 10
322.75
 20
123.5
 30
0.0
 11
322.75
 21
113.4005633661528
 31
0.0
  0
LINE
  5
7AF
330
606
100
AcDbEntity
  8
SUNPOU
 62
     0
370
    -2
100
AcDbLine
 10
319.55
 20
123.5
 30
0.0
 11
319.55
 21
113.4005633661528
 31
0.0
  0
LINE
  5
7B0
330
606
100
AcDbEntity
  8
SUNPOU
 62
     0
370
    -2
100
AcDbLine
 10
318.55
 20
114.4005633661528
 30
0.0
 11
317.55
 21
114.4005633661528
 31
0.0
  0
LINE
  5
7B1
330
606
100
AcDbEntity
  8
SUNPOU
 62
     0
370
    -2
100
AcDbLine
 10
323.75
 20
114.4005633661528
 30
0.0
 11
324.75
 21
114.4005633661528
 31
0.0
  0
LINE
  5
7B2
330
606
100
AcDbEntity
  8
SUNPOU
 62
     0
370
    -2
100
AcDbLine
 10
319.55
 20
114.4005633661528
 30
0.0
 11
322.75
 21
114.4005633661528
 31
0.0
  0
INSERT
  5
7B3
330
606
100
AcDbEntity
  8
SUNPOU
 62
     0
370
    -2
100
AcDbBlockReference
  2
_DOT
 10
319.55
 20
114.4005633661528
 30
0.0
  0
INSERT
  5
7B4
330
606
100
AcDbEntity
  8
SUNPOU
 62
     0
370
    -2
100
AcDbBlockReference
  2
_DOT
 10
322.75
 20
114.4005633661528
 30
0.0
 50
180.0
  0
MTEXT
  5
7B5
330
606
100
AcDbEntity
  8
SUNPOU
 62
     4
100
AcDbMText
 10
328.75
 20
114.4005633661528
 30
0.0
 40
3.0
 41
0.0
 71
     5
 72
     1
  1
\A1;3.2
 73
     1
 44
1.0
1001
ACAD
1000
MTEXTBEGIN
1070
    73
1070
     1
1070
    44
1040
1.0
1070
    74
1070
     0
1000
MTEXTEND
  0
POINT
  5
7B6
330
606
100
AcDbEntity
  8
DEFPOINTS
 62
     0
100
AcDbPoint
 10
322.75
 20
124.5
 30
0.0
  0
POINT
  5
7B7
330
606
100
AcDbEntity
  8
DEFPOINTS
 62
     0
100
AcDbPoint
 10
319.55
 20
124.5
 30
0.0
  0
POINT
  5
7B8
330
606
100
AcDbEntity
  8
DEFPOINTS
 62
     0
100
AcDbPoint
 10
319.55
 20
114.4005633661528
 30
0.0
  0
ENDBLK
  5
608
330
606
100
AcDbEntity
  8
0
100
AcDbBlockEnd
  0
BLOCK
  5
615
330
614
100
AcDbEntity
  8
0
100
AcDbBlockBegin
  2
*D7
 70
     1
 10
0.0
 20
0.0
 30
0.0
  3
*D7
  1

  0
LINE
  5
7B9
330
614
100
AcDbEntity
  8
SUNPOU
 62
     0
370
    -2
100
AcDbLine
 10
323.75
 20
124.5
 30
0.0
 11
333.7499999999999
 21
124.5
 31
0.0
  0
LINE
  5
7BA
330
614
100
AcDbEntity
  8
SUNPOU
 62
     0
370
    -2
100
AcDbLine
 10
323.75
 20
167.0
 30
0.0
 11
333.75
 21
167.0
 31
0.0
  0
LINE
  5
7BB
330
614
100
AcDbEntity
  8
SUNPOU
 62
     0
370
    -2
100
AcDbLine
 10
332.75
 20
125.5
 30
0.0
 11
332.75
 21
140.25
 31
0.0
  0
LINE
  5
7BC
330
614
100
AcDbEntity
  8
SUNPOU
 62
     0
370
    -2
100
AcDbLine
 10
332.75
 20
166.0
 30
0.0
 11
332.75
 21
151.25
 31
0.0
  0
INSERT
  5
7BD
330
614
100
AcDbEntity
  8
SUNPOU
 62
     0
370
    -2
100
AcDbBlockReference
  2
_DOT
 10
332.75
 20
124.5
 30
0.0
 50
270.0
  0
INSERT
  5
7BE
330
614
100
AcDbEntity
  8
SUNPOU
 62
     0
370
    -2
100
AcDbBlockReference
  2
_DOT
 10
332.75
 20
167.0
 30
0.0
 50
90.0
  0
MTEXT
  5
7BF
330
614
100
AcDbEntity
  8
SUNPOU
 62
     4
100
AcDbMText
 10
332.75
 20
145.7500000000001
 30
0.0
 40
3.0
 41
0.0
 71
     5
 72
     1
  1
\A1;42.5
 11
0.0000000000000001
 21
1.0
 31
0.0
 73
     1
 44
1.0
1001
ACAD
1000
MTEXTBEGIN
1070
    73
1070
     1
1070
    44
1040
1.0
1070
    74
1070
     0
1000
MTEXTEND
  0
POINT
  5
7C0
330
614
100
AcDbEntity
  8
DEFPOINTS
 62
     0
100
AcDbPoint
 10
322.75
 20
124.5
 30
0.0
  0
POINT
  5
7C1
330
614
100
AcDbEntity
  8
DEFPOINTS
 62
     0
100
AcDbPoint
 10
322.75
 20
167.0
 30
0.0
  0
POINT
  5
7C2
330
614
100
AcDbEntity
  8
DEFPOINTS
 62
     0
100
AcDbPoint
 10
332.75
 20
167.0
 30
0.0
  0
ENDBLK
  5
616
330
614
100
AcDbEntity
  8
0
100
AcDbBlockEnd
  0
BLOCK
  5
622
330
621
100
AcDbEntity
  8
0
100
AcDbBlockBegin
  2
*D8
 70
     1
 10
0.0
 20
0.0
 30
0.0
  3
*D8
  1

  0
LINE
  5
7C3
330
621
100
AcDbEntity
  8
SUNPOU
 62
     0
370
    -2
100
AcDbLine
 10
323.75
 20
163.0
 30
0.0
 11
343.75
 21
163.0
 31
0.0
  0
LINE
  5
7C4
330
621
100
AcDbEntity
  8
SUNPOU
 62
     0
370
    -2
100
AcDbLine
 10
323.75
 20
171.0
 30
0.0
 11
343.75
 21
171.0
 31
0.0
  0
LINE
  5
7C5
330
621
100
AcDbEntity
  8
SUNPOU
 62
     0
370
    -2
100
AcDbLine
 10
342.75
 20
162.0
 30
0.0
 11
342.75
 21
161.0
 31
0.0
  0
LINE
  5
7C6
330
621
100
AcDbEntity
  8
SUNPOU
 62
     0
370
    -2
100
AcDbLine
 10
342.75
 20
172.0
 30
0.0
 11
342.75
 21
173.0
 31
0.0
  0
LINE
  5
7C7
330
621
100
AcDbEntity
  8
SUNPOU
 62
     0
370
    -2
100
AcDbLine
 10
342.75
 20
163.0
 30
0.0
 11
342.75
 21
163.5
 31
0.0
  0
LINE
  5
7C8
330
621
100
AcDbEntity
  8
SUNPOU
 62
     0
370
    -2
100
AcDbLine
 10
342.75
 20
171.0
 30
0.0
 11
342.75
 21
170.5
 31
0.0
  0
INSERT
  5
7C9
330
621
100
AcDbEntity
  8
SUNPOU
 62
     0
370
    -2
100
AcDbBlockReference
  2
_DOT
 10
342.75
 20
163.0
 30
0.0
 50
90.0
  0
INSERT
  5
7CA
330
621
100
AcDbEntity
  8
SUNPOU
 62
     0
370
    -2
100
AcDbBlockReference
  2
_DOT
 10
342.75
 20
171.0
 30
0.0
 50
270.0
  0
MTEXT
  5
7CB
330
621
100
AcDbEntity
  8
SUNPOU
 62
     4
100
AcDbMText
 10
342.7499999999999
 20
167.0
 30
0.0
 40
3.0
 41
0.0
 71
     5
 72
     1
  1
\A1;{8%%c}
 11
0.0000000000000001
 21
1.0
 31
0.0
 73
     1
 44
1.0
1001
ACAD
1000
MTEXTBEGIN
1070
    73
1070
     1
1070
    44
1040
1.0
1070
    74
1070
     0
1000
MTEXTEND
  0
POINT
  5
7CC
330
621
100
AcDbEntity
  8
DEFPOINTS
 62
     0
100
AcDbPoint
 10
322.75
 20
163.0
 30
0.0
  0
POINT
  5
7CD
330
621
100
AcDbEntity
  8
DEFPOINTS
 62
     0
100
AcDbPoint
 10
322.75
 20
171.0
 30
0.0
  0
POINT
  5
7CE
330
621
100
AcDbEntity
  8
DEFPOINTS
 62
     0
100
AcDbPoint
 10
342.75
 20
171.0
 30
0.0
  0
ENDBLK
  5
623
330
621
100
AcDbEntity
  8
0
100
AcDbBlockEnd
  0
BLOCK
  5
631
330
630
100
AcDbEntity
  8
0
100
AcDbBlockBegin
  2
*D9
 70
     1
 10
0.0
 20
0.0
 30
0.0
  3
*D9
  1

  0
LINE
  5
7CF
330
630
100
AcDbEntity
  8
SUNPOU
 62
     0
370
    -2
100
AcDbLine
 10
305.75
 20
189.5000000000001
 30
0.0
 11
279.75
 21
189.5000000000001
 31
0.0
  0
LINE
  5
7D0
330
630
100
AcDbEntity
  8
SUNPOU
 62
     0
370
    -2
100
AcDbLine
 10
305.75
 20
144.5000000000001
 30
0.0
 11
279.75
 21
144.5000000000001
 31
0.0
  0
LINE
  5
7D1
330
630
100
AcDbEntity
  8
SUNPOU
 62
     0
370
    -2
100
AcDbLine
 10
280.75
 20
188.5000000000001
 30
0.0
 11
280.75
 21
172.0000000000001
 31
0.0
  0
LINE
  5
7D2
330
630
100
AcDbEntity
  8
SUNPOU
 62
     0
370
    -2
100
AcDbLine
 10
280.75
 20
145.5000000000001
 30
0.0
 11
280.75
 21
162.0000000000001
 31
0.0
  0
INSERT
  5
7D3
330
630
100
AcDbEntity
  8
SUNPOU
 62
     0
370
    -2
100
AcDbBlockReference
  2
_DOT
 10
280.75
 20
189.5000000000001
 30
0.0
 50
90.0
  0
INSERT
  5
7D4
330
630
100
AcDbEntity
  8
SUNPOU
 62
     0
370
    -2
100
AcDbBlockReference
  2
_DOT
 10
280.75
 20
144.5000000000001
 30
0.0
 50
270.0
  0
MTEXT
  5
7D5
330
630
100
AcDbEntity
  8
SUNPOU
 62
     4
100
AcDbMText
 10
280.75
 20
167.0000000000001
 30
0.0
 40
3.0
 41
0.0
 71
     5
 72
     1
  1
\A1;45%%c
 11
0.0000000000000001
 21
1.0
 31
0.0
 73
     1
 44
1.0
1001
ACAD
1000
MTEXTBEGIN
1070
    73
1070
     1
1070
    44
1040
1.0
1070
    74
1070
     0
1000
MTEXTEND
  0
POINT
  5
7D6
330
630
100
AcDbEntity
  8
DEFPOINTS
 62
     0
100
AcDbPoint
 10
306.75
 20
189.5000000000001
 30
0.0
  0
POINT
  5
7D7
330
630
100
AcDbEntity
  8
DEFPOINTS
 62
     0
100
AcDbPoint
 10
306.75
 20
144.5000000000001
 30
0.0
  0
POINT
  5
7D8
330
630
100
AcDbEntity
  8
DEFPOINTS
 62
     0
100
AcDbPoint
 10
280.75
 20
144.5000000000001
 30
0.0
  0
ENDBLK
  5
632
330
630
100
AcDbEntity
  8
0
100
AcDbBlockEnd
  0
BLOCK
  5
648
330
647
100
AcDbEntity
  8
0
100
AcDbBlockBegin
  2
*D10
 70
     1
 10
0.0
 20
0.0
 30
0.0
  3
*D10
  1

  0
LINE
  5
801
330
647
100
AcDbEntity
  8
SUNPOU
 62
     0
370
    -2
100
AcDbLine
 10
322.75
 20
180.5
 30
0.0
 11
322.75
 21
220.5
 31
0.0
  0
LINE
  5
802
330
647
100
AcDbEntity
  8
SUNPOU
 62
     0
370
    -2
100
AcDbLine
 10
312.25
 20
213.5000000000001
 30
0.0
 11
312.25
 21
220.5
 31
0.0
  0
LINE
  5
803
330
647
100
AcDbEntity
  8
SUNPOU
 62
     0
370
    -2
100
AcDbLine
 10
323.75
 20
219.5000000000001
 30
0.0
 11
324.75
 21
219.5000000000001
 31
0.0
  0
LINE
  5
804
330
647
100
AcDbEntity
  8
SUNPOU
 62
     0
370
    -2
100
AcDbLine
 10
311.25
 20
219.5000000000001
 30
0.0
 11
310.25
 21
219.5000000000001
 31
0.0
  0
LINE
  5
805
330
647
100
AcDbEntity
  8
SUNPOU
 62
     0
370
    -2
100
AcDbLine
 10
322.75
 20
219.5000000000001
 30
0.0
 11
322.25
 21
219.5000000000001
 31
0.0
  0
LINE
  5
806
330
647
100
AcDbEntity
  8
SUNPOU
 62
     0
370
    -2
100
AcDbLine
 10
312.25
 20
219.5000000000001
 30
0.0
 11
312.75
 21
219.5000000000001
 31
0.0
  0
INSERT
  5
807
330
647
100
AcDbEntity
  8
SUNPOU
 62
     0
370
    -2
100
AcDbBlockReference
  2
_DOT
 10
322.75
 20
219.5000000000001
 30
0.0
 50
180.0
  0
INSERT
  5
808
330
647
100
AcDbEntity
  8
SUNPOU
 62
     0
370
    -2
100
AcDbBlockReference
  2
_DOT
 10
312.25
 20
219.5000000000001
 30
0.0
  0
MTEXT
  5
809
330
647
100
AcDbEntity
  8
SUNPOU
 62
     4
100
AcDbMText
 10
317.5
 20
219.5000000000001
 30
0.0
 40
3.0
 41
0.0
 71
     5
 72
     1
  1
\A1;10.5
 73
     1
 44
1.0
1001
ACAD
1000
MTEXTBEGIN
1070
    73
1070
     1
1070
    44
1040
1.0
1070
    74
1070
     0
1000
MTEXTEND
  0
POINT
  5
80A
330
647
100
AcDbEntity
  8
DEFPOINTS
 62
     0
100
AcDbPoint
 10
322.75
 20
179.5
 30
0.0
  0
POINT
  5
80B
330
647
100
AcDbEntity
  8
DEFPOINTS
 62
     0
100
AcDbPoint
 10
312.25
 20
212.5
 30
0.0
  0
POINT
  5
80C
330
647
100
AcDbEntity
  8
DEFPOINTS
 62
     0
100
AcDbPoint
 10
312.25
 20
219.5000000000001
 30
0.0
  0
ENDBLK
  5
649
330
647
100
AcDbEntity
  8
0
100
AcDbBlockEnd
  0
BLOCK
  5
657
330
656
100
AcDbEntity
  8
0
100
AcDbBlockBegin
  2
*D11
 70
     1
 10
0.0
 20
0.0
 30
0.0
  3
*D11
  1

  0
LINE
  5
80D
330
656
100
AcDbEntity
  8
SUNPOU
 62
     0
370
    -2
100
AcDbLine
 10
306.75
 20
190.5
 30
0.0
 11
306.75
 21
210.5
 31
0.0
  0
LINE
  5
80E
330
656
100
AcDbEntity
  8
SUNPOU
 62
     0
370
    -2
100
AcDbLine
 10
317.75
 20
190.5
 30
0.0
 11
317.75
 21
210.5
 31
0.0
  0
LINE
  5
80F
330
656
100
AcDbEntity
  8
SUNPOU
 62
     0
370
    -2
100
AcDbLine
 10
307.75
 20
209.5000000000001
 30
0.0
 11
309.75
 21
209.5000000000001
 31
0.0
  0
LINE
  5
810
330
656
100
AcDbEntity
  8
SUNPOU
 62
     0
370
    -2
100
AcDbLine
 10
316.75
 20
209.5000000000001
 30
0.0
 11
314.75
 21
209.5000000000001
 31
0.0
  0
INSERT
  5
811
330
656
100
AcDbEntity
  8
SUNPOU
 62
     0
370
    -2
100
AcDbBlockReference
  2
_DOT
 10
306.75
 20
209.5000000000001
 30
0.0
 50
180.0
  0
INSERT
  5
812
330
656
100
AcDbEntity
  8
SUNPOU
 62
     0
370
    -2
100
AcDbBlockReference
  2
_DOT
 10
317.75
 20
209.5000000000001
 30
0.0
  0
MTEXT
  5
813
330
656
100
AcDbEntity
  8
SUNPOU
 62
     4
100
AcDbMText
 10
312.25
 20
209.5000000000001
 30
0.0
 40
3.0
 41
0.0
 71
     5
 72
     1
  1
\A1;11
 73
     1
 44
1.0
1001
ACAD
1000
MTEXTBEGIN
1070
    73
1070
     1
1070
    44
1040
1.0
1070
    74
1070
     0
1000
MTEXTEND
  0
POINT
  5
814
330
656
100
AcDbEntity
  8
DEFPOINTS
 62
     0
100
AcDbPoint
 10
306.75
 20
189.5
 30
0.0
  0
POINT
  5
815
330
656
100
AcDbEntity
  8
DEFPOINTS
 62
     0
100
AcDbPoint
 10
317.75
 20
189.5
 30
0.0
  0
POINT
  5
816
330
656
100
AcDbEntity
  8
DEFPOINTS
 62
     0
100
AcDbPoint
 10
317.75
 20
209.5000000000001
 30
0.0
  0
ENDBLK
  5
658
330
656
100
AcDbEntity
  8
0
100
AcDbBlockEnd
  0
BLOCK
  5
664
330
663
100
AcDbEntity
  8
0
100
AcDbBlockBegin
  2
*D12
 70
     1
 10
0.0
 20
0.0
 30
0.0
  3
*D12
  1

  0
LINE
  5
817
330
663
100
AcDbEntity
  8
SUNPOU
 62
     0
370
    -2
100
AcDbLine
 10
314.0
 20
190.5
 30
0.0
 11
314.0
 21
200.6451698650098
 31
0.0
  0
LINE
  5
818
330
663
100
AcDbEntity
  8
SUNPOU
 62
     0
370
    -2
100
AcDbLine
 10
310.5
 20
190.5
 30
0.0
 11
310.5
 21
200.6451698650098
 31
0.0
  0
LINE
  5
819
330
663
100
AcDbEntity
  8
SUNPOU
 62
     0
370
    -2
100
AcDbLine
 10
315.0
 20
199.6451698650098
 30
0.0
 11
316.0
 21
199.6451698650098
 31
0.0
  0
LINE
  5
81A
330
663
100
AcDbEntity
  8
SUNPOU
 62
     0
370
    -2
100
AcDbLine
 10
309.5
 20
199.6451698650098
 30
0.0
 11
308.5
 21
199.6451698650098
 31
0.0
  0
MTEXT
  5
81B
330
663
100
AcDbEntity
  8
SUNPOU
 62
     4
100
AcDbMText
 10
312.25
 20
203.6451698650098
 30
0.0
 40
3.0
 41
0.0
 71
     5
 72
     1
  1
\A1;3.5
 73
     1
 44
1.0
1001
ACAD
1000
MTEXTBEGIN
1070
    73
1070
     1
1070
    44
1040
1.0
1070
    74
1070
     0
1000
MTEXTEND
  0
LINE
  5
81C
330
663
100
AcDbEntity
  8
SUNPOU
 62
     0
370
    -2
100
AcDbLine
 10
314.0
 20
199.6451698650098
 30
0.0
 11
310.5
 21
199.6451698650098
 31
0.0
  0
INSERT
  5
81D
330
663
100
AcDbEntity
  8
SUNPOU
 62
     0
370
    -2
100
AcDbBlockReference
  2
_DOT
 10
314.0
 20
199.6451698650098
 30
0.0
 50
180.0
  0
INSERT
  5
81E
330
663
100
AcDbEntity
  8
SUNPOU
 62
     0
370
    -2
100
AcDbBlockReference
  2
_DOT
 10
310.5
 20
199.6451698650098
 30
0.0
  0
POINT
  5
81F
330
663
100
AcDbEntity
  8
DEFPOINTS
 62
     0
100
AcDbPoint
 10
314.0
 20
189.5
 30
0.0
  0
POINT
  5
820
330
663
100
AcDbEntity
  8
DEFPOINTS
 62
     0
100
AcDbPoint
 10
310.5
 20
189.5
 30
0.0
  0
POINT
  5
821
330
663
100
AcDbEntity
  8
DEFPOINTS
 62
     0
100
AcDbPoint
 10
310.5
 20
199.6451698650098
 30
0.0
  0
ENDBLK
  5
665
330
663
100
AcDbEntity
  8
0
100
AcDbBlockEnd
  0
BLOCK
  5
736
330
735
100
AcDbEntity
  8
0
100
AcDbBlockBegin
  2
*D13
 70
     1
 10
0.0
 20
0.0
 30
0.0
  3
*D13
  1

  0
LINE
  5
7E3
330
735
100
AcDbEntity
  8
SUNPOU
 62
     0
370
    -2
100
AcDbLine
 10
186.7499999999999
 20
124.5
 30
0.0
 11
206.9344764131557
 21
124.5
 31
0.0
  0
LINE
  5
7E4
330
735
100
AcDbEntity
  8
SUNPOU
 62
     0
370
    -2
100
AcDbLine
 10
186.7499999999999
 20
179.5
 30
0.0
 11
206.9344764131557
 21
179.5
 31
0.0
  0
LINE
  5
7E5
330
735
100
AcDbEntity
  8
SUNPOU
 62
     0
370
    -2
100
AcDbLine
 10
205.9344764131557
 20
125.5
 30
0.0
 11
205.9344764131557
 21
148.5
 31
0.0
  0
LINE
  5
7E6
330
735
100
AcDbEntity
  8
SUNPOU
 62
     0
370
    -2
100
AcDbLine
 10
205.9344764131557
 20
178.5
 30
0.0
 11
205.9344764131557
 21
155.5
 31
0.0
  0
INSERT
  5
7E7
330
735
100
AcDbEntity
  8
SUNPOU
 62
     0
370
    -2
100
AcDbBlockReference
  2
_DOT
 10
205.9344764131557
 20
124.5
 30
0.0
 50
270.0
  0
INSERT
  5
7E8
330
735
100
AcDbEntity
  8
SUNPOU
 62
     0
370
    -2
100
AcDbBlockReference
  2
_DOT
 10
205.9344764131557
 20
179.5
 30
0.0
 50
90.0
  0
MTEXT
  5
7E9
330
735
100
AcDbEntity
  8
SUNPOU
 62
     4
100
AcDbMText
 10
205.9344764131557
 20
152.0000000000001
 30
0.0
 40
3.0
 41
0.0
 71
     5
 72
     1
  1
\A1;55
 11
0.0000000000000001
 21
1.0
 31
0.0
 73
     1
 44
1.0
1001
ACAD
1000
MTEXTBEGIN
1070
    73
1070
     1
1070
    44
1040
1.0
1070
    74
1070
     0
1000
MTEXTEND
  0
POINT
  5
7EA
330
735
100
AcDbEntity
  8
DEFPOINTS
 62
     0
100
AcDbPoint
 10
185.7499999999999
 20
124.5
 30
0.0
  0
POINT
  5
7EB
330
735
100
AcDbEntity
  8
DEFPOINTS
 62
     0
100
AcDbPoint
 10
185.7499999999999
 20
179.5
 30
0.0
  0
POINT
  5
7EC
330
735
100
AcDbEntity
  8
DEFPOINTS
 62
     0
100
AcDbPoint
 10
205.9344764131557
 20
179.5
 30
0.0
  0
ENDBLK
  5
737
330
735
100
AcDbEntity
  8
0
100
AcDbBlockEnd
  0
BLOCK
  5
743
330
742
100
AcDbEntity
  8
0
100
AcDbBlockBegin
  2
*D14
 70
     1
 10
0.0
 20
0.0
 30
0.0
  3
*D14
  1

  0
LINE
  5
7ED
330
742
100
AcDbEntity
  8
SUNPOU
 62
     0
370
    -2
100
AcDbLine
 10
186.7499999999999
 20
159.5
 30
0.0
 11
196.7499999999999
 21
159.5
 31
0.0
  0
LINE
  5
7EE
330
742
100
AcDbEntity
  8
SUNPOU
 62
     0
370
    -2
100
AcDbLine
 10
186.7499999999999
 20
179.5
 30
0.0
 11
196.7499999999999
 21
179.5
 31
0.0
  0
LINE
  5
7EF
330
742
100
AcDbEntity
  8
SUNPOU
 62
     0
370
    -2
100
AcDbLine
 10
195.7499999999999
 20
160.5
 30
0.0
 11
195.7499999999999
 21
166.25
 31
0.0
  0
LINE
  5
7F0
330
742
100
AcDbEntity
  8
SUNPOU
 62
     0
370
    -2
100
AcDbLine
 10
195.7499999999999
 20
178.5
 30
0.0
 11
195.7499999999999
 21
172.75
 31
0.0
  0
INSERT
  5
7F1
330
742
100
AcDbEntity
  8
SUNPOU
 62
     0
370
    -2
100
AcDbBlockReference
  2
_DOT
 10
195.7499999999999
 20
159.5
 30
0.0
 50
270.0
  0
INSERT
  5
7F2
330
742
100
AcDbEntity
  8
SUNPOU
 62
     0
370
    -2
100
AcDbBlockReference
  2
_DOT
 10
195.7499999999999
 20
179.5
 30
0.0
 50
90.0
  0
MTEXT
  5
7F3
330
742
100
AcDbEntity
  8
SUNPOU
 62
     4
100
AcDbMText
 10
195.7499999999998
 20
169.5000000000001
 30
0.0
 40
3.0
 41
0.0
 71
     5
 72
     1
  1
\A1;20
 11
0.0000000000000001
 21
1.0
 31
0.0
 73
     1
 44
1.0
1001
ACAD
1000
MTEXTBEGIN
1070
    73
1070
     1
1070
    44
1040
1.0
1070
    74
1070
     0
1000
MTEXTEND
  0
POINT
  5
7F4
330
742
100
AcDbEntity
  8
DEFPOINTS
 62
     0
100
AcDbPoint
 10
185.7499999999999
 20
159.5
 30
0.0
  0
POINT
  5
7F5
330
742
100
AcDbEntity
  8
DEFPOINTS
 62
     0
100
AcDbPoint
 10
185.7499999999999
 20
179.5
 30
0.0
  0
POINT
  5
7F6
330
742
100
AcDbEntity
  8
DEFPOINTS
 62
     0
100
AcDbPoint
 10
195.7499999999999
 20
179.5
 30
0.0
  0
ENDBLK
  5
744
330
742
100
AcDbEntity
  8
0
100
AcDbBlockEnd
  0
BLOCK
  5
750
330
74F
100
AcDbEntity
  8
0
100
AcDbBlockBegin
  2
*D15
 70
     1
 10
0.0
 20
0.0
 30
0.0
  3
*D15
  1

  0
LINE
  5
7F7
330
74F
100
AcDbEntity
  8
SUNPOU
 62
     0
370
    -2
100
AcDbLine
 10
185.7499999999999
 20
180.5
 30
0.0
 11
185.7499999999999
 21
205.5000000000001
 31
0.0
  0
LINE
  5
7F8
330
74F
100
AcDbEntity
  8
SUNPOU
 62
     0
370
    -2
100
AcDbLine
 10
95.74999999999986
 20
180.5
 30
0.0
 11
95.74999999999986
 21
205.5000000000001
 31
0.0
  0
LINE
  5
7F9
330
74F
100
AcDbEntity
  8
SUNPOU
 62
     0
370
    -2
100
AcDbLine
 10
184.7499999999999
 20
204.5000000000001
 30
0.0
 11
143.9999999999999
 21
204.5000000000001
 31
0.0
  0
LINE
  5
7FA
330
74F
100
AcDbEntity
  8
SUNPOU
 62
     0
370
    -2
100
AcDbLine
 10
96.74999999999988
 20
204.5000000000001
 30
0.0
 11
137.4999999999999
 21
204.5000000000001
 31
0.0
  0
INSERT
  5
7FB
330
74F
100
AcDbEntity
  8
SUNPOU
 62
     0
370
    -2
100
AcDbBlockReference
  2
_DOT
 10
185.7499999999999
 20
204.5000000000001
 30
0.0
  0
INSERT
  5
7FC
330
74F
100
AcDbEntity
  8
SUNPOU
 62
     0
370
    -2
100
AcDbBlockReference
  2
_DOT
 10
95.74999999999986
 20
204.5000000000001
 30
0.0
 50
180.0
  0
MTEXT
  5
7FD
330
74F
100
AcDbEntity
  8
SUNPOU
 62
     4
100
AcDbMText
 10
140.7499999999999
 20
204.5000000000001
 30
0.0
 40
3.0
 41
0.0
 71
     5
 72
     1
  1
\A1;90
 73
     1
 44
1.0
1001
ACAD
1000
MTEXTBEGIN
1070
    73
1070
     1
1070
    44
1040
1.0
1070
    74
1070
     0
1000
MTEXTEND
  0
POINT
  5
7FE
330
74F
100
AcDbEntity
  8
DEFPOINTS
 62
     0
100
AcDbPoint
 10
185.7499999999999
 20
179.5
 30
0.0
  0
POINT
  5
7FF
330
74F
100
AcDbEntity
  8
DEFPOINTS
 62
     0
100
AcDbPoint
 10
95.74999999999986
 20
179.5
 30
0.0
  0
POINT
  5
800
330
74F
100
AcDbEntity
  8
DEFPOINTS
 62
     0
100
AcDbPoint
 10
95.74999999999986
 20
204.5000000000001
 30
0.0
  0
ENDBLK
  5
751
330
74F
100
AcDbEntity
  8
0
100
AcDbBlockEnd
  0
ENDSEC
  0
SECTION
  2
ENTITIES
  0
DIMENSION
  5
3C
330
2
100
AcDbEntity
  8
SUNPOU
100
AcDbDimension
  2
*D5
 10
300.75
 20
229.5000000000001
 30
0.0
 11
311.75
 21
229.5000000000001
 31
0.0
 70
    32
 71
     5
 42
22.0
  3
STANDARD
100
AcDbAlignedDimension
 13
322.75
 23
179.5
 33
0.0
 14
300.75
 24
179.5
 34
0.0
100
AcDbRotatedDimension
1001
ACAD
1000
DSTYLE
1002
{
1070
   287
1070
     3
1070
    41
1040
1.0
1070
    42
1040
1.0
1070
    43
1040
0.0
1070
    44
1040
1.0
1070
    73
1070
     0
1070
    74
1070
     0
1070
    78
1070
     8
1070
   140
1040
3.0
1070
   141
1040
0.5
1070
   143
1040
0.0394
1070
   147
1040
1.0
1070
   171
1070
     4
1070
   172
1070
     1
1070
   173
1070
     1
1070
   178
1070
     4
1070
   279
1070
     0
1070
     6
1000
DOT
1070
     7
1000
DOT
1002
}
  0
TEXT
  5
131
330
2
100
AcDbEntity
  8
TEXT
100
AcDbText
 10
137.2500988734825
 20
105.4005633661529
 30
0.0
 40
3.0
  1
616
 72
     1
 11
140.7500988734825
 21
105.4005633661529
 31
0.0
100
AcDbText
  0
LINE
  5
132
330
2
100
AcDbEntity
  8
SUNPOU
100
AcDbLine
 10
144.9999999999998
 20
104.4005633661528
 30
0.0
 11
136.4999999999998
 21
104.4005633661528
 31
0.0
  0
DIMENSION
  5
133
330
2
100
AcDbEntity
  8
SUNPOU
100
AcDbDimension
  2
*D6
 10
319.55
 20
114.4005633661528
 30
0.0
 11
328.75
 21
114.4005633661528
 31
0.0
 70
    32
 71
     5
 42
3.199999999999988
  3
STANDARD
100
AcDbAlignedDimension
 13
322.75
 23
124.5
 33
0.0
 14
319.55
 24
124.5
 34
0.0
100
AcDbRotatedDimension
1001
ACAD
1000
DSTYLE
1002
{
1070
   287
1070
     3
1070
    41
1040
1.0
1070
    42
1040
1.0
1070
    43
1040
0.0
1070
    44
1040
1.0
1070
    73
1070
     0
1070
    74
1070
     0
1070
    78
1070
     8
1070
   140
1040
3.0
1070
   141
1040
0.5
1070
   143
1040
0.0394
1070
   147
1040
1.0
1070
   171
1070
     4
1070
   172
1070
     1
1070
   173
1070
     1
1070
   178
1070
     4
1070
   279
1070
     0
1070
   280
1070
     1
1070
     6
1000
DOT
1070
     7
1000
DOT
1002
}
  0
DIMENSION
  5
142
330
2
100
AcDbEntity
  8
SUNPOU
100
AcDbDimension
  2
*D7
 10
332.75
 20
167.0
 30
0.0
 11
332.75
 21
145.7500000000001
 31
0.0
 70
    32
 71
     5
 42
42.50000000000001
  3
STANDARD
100
AcDbAlignedDimension
 13
322.75
 23
124.5
 33
0.0
 14
322.75
 24
167.0
 34
0.0
 50
90.0
100
AcDbRotatedDimension
1001
ACAD
1000
DSTYLE
1002
{
1070
   287
1070
     3
1070
    41
1040
1.0
1070
    42
1040
1.0
1070
    43
1040
0.0
1070
    44
1040
1.0
1070
    73
1070
     0
1070
    74
1070
     0
1070
    78
1070
     8
1070
   140
1040
3.0
1070
   141
1040
0.5
1070
   143
1040
0.0394
1070
   147
1040
1.0
1070
   171
1070
     4
1070
   172
1070
     1
1070
   173
1070
     1
1070
   178
1070
     4
1070
   279
1070
     0
1070
     6
1000
DOT
1070
     7
1000
DOT
1002
}
  0
DIMENSION
  5
150
330
2
100
AcDbEntity
  8
SUNPOU
100
AcDbDimension
  2
*D8
 10
342.75
 20
171.0
 30
0.0
 11
342.7499999999999
 21
167.0
 31
0.0
 70
    32
  1
{<>%%c}
 71
     5
 42
7.999999999999971
  3
STANDARD
100
AcDbAlignedDimension
 13
322.75
 23
163.0
 33
0.0
 14
322.75
 24
171.0
 34
0.0
 50
90.0
100
AcDbRotatedDimension
1001
ACAD
1000
DSTYLE
1002
{
1070
   287
1070
     3
1070
    41
1040
1.0
1070
    42
1040
1.0
1070
    43
1040
0.0
1070
    44
1040
1.0
1070
    73
1070
     0
1070
    74
1070
     0
1070
    78
1070
     8
1070
   140
1040
3.0
1070
   141
1040
0.5
1070
   143
1040
0.0394
1070
   147
1040
1.0
1070
   171
1070
     4
1070
   172
1070
     1
1070
   173
1070
     1
1070
   178
1070
     4
1070
   279
1070
     0
1070
     6
1000
DOT
1070
     7
1000
DOT
1002
}
  0
DIMENSION
  5
160
330
2
100
AcDbEntity
  8
SUNPOU
100
AcDbDimension
  2
*D9
 10
280.75
 20
144.5000000000001
 30
0.0
 11
280.75
 21
167.0000000000001
 31
0.0
 70
    32
  1
<>%%c
 71
     5
 42
45.0
  3
STANDARD
100
AcDbAlignedDimension
 13
306.75
 23
189.5000000000001
 33
0.0
 14
306.75
 24
144.5000000000001
 34
0.0
 50
90.0
100
AcDbRotatedDimension
1001
ACAD
1000
DSTYLE
1002
{
1070
   287
1070
     3
1070
    41
1040
1.0
1070
    42
1040
1.0
1070
    43
1040
0.0
1070
    44
1040
1.0
1070
    73
1070
     0
1070
    74
1070
     0
1070
    78
1070
     8
1070
   140
1040
3.0
1070
   141
1040
0.5
1070
   143
1040
0.0394
1070
   147
1040
1.0
1070
   171
1070
     4
1070
   172
1070
     1
1070
   173
1070
     1
1070
   178
1070
     4
1070
   279
1070
     0
1070
     6
1000
DOT
1070
     7
1000
DOT
1002
}
  0
DIMENSION
  5
16E
330
2
100
AcDbEntity
  8
SUNPOU
100
AcDbDimension
  2
*D4
 10
290.75
 20
150.0000000000001
 30
0.0
 11
290.7499999999999
 21
167.0000000000001
 31
0.0
 70
    32
  1
<>%%c
 71
     5
 42
34.0
  3
STANDARD
100
AcDbAlignedDimension
 13
306.75
 23
184.0000000000001
 33
0.0
 14
306.75
 24
150.0000000000001
 34
0.0
 50
90.0
100
AcDbRotatedDimension
1001
ACAD
1000
DSTYLE
1002
{
1070
   287
1070
     3
1070
    41
1040
1.0
1070
    42
1040
1.0
1070
    43
1040
0.0
1070
    44
1040
1.0
1070
    73
1070
     0
1070
    74
1070
     0
1070
    78
1070
     8
1070
   140
1040
3.0
1070
   141
1040
0.5
1070
   143
1040
0.0394
1070
   147
1040
1.0
1070
   171
1070
     4
1070
   172
1070
     1
1070
   173
1070
     1
1070
   178
1070
     4
1070
   279
1070
     0
1070
     6
1000
DOT
1070
     7
1000
DOT
1002
}
  0
DIMENSION
  5
17C
330
2
100
AcDbEntity
  8
SUNPOU
100
AcDbDimension
  2
*D13
 10
205.9344764131557
 20
179.5
 30
0.0
 11
205.9344764131557
 21
152.0000000000001
 31
0.0
 70
    32
 71
     5
 42
54.99999999999999
  3
STANDARD
100
AcDbAlignedDimension
 13
185.7499999999999
 23
124.5
 33
0.0
 14
185.7499999999999
 24
179.5
 34
0.0
 50
90.0
100
AcDbRotatedDimension
1001
ACAD
1000
DSTYLE
1002
{
1070
   287
1070
     3
1070
    41
1040
1.0
1070
    42
1040
1.0
1070
    43
1040
0.0
1070
    44
1040
1.0
1070
    73
1070
     0
1070
    74
1070
     0
1070
    78
1070
     8
1070
   140
1040
3.0
1070
   141
1040
0.5
1070
   143
1040
0.0394
1070
   147
1040
1.0
1070
   171
1070
     4
1070
   172
1070
     1
1070
   173
1070
     1
1070
   178
1070
     4
1070
   279
1070
     0
1070
     6
1000
DOT
1070
     7
1000
DOT
1002
}
  0
DIMENSION
  5
18A
330
2
100
AcDbEntity
  8
SUNPOU
100
AcDbDimension
  2
*D14
 10
195.7499999999999
 20
179.5
 30
0.0
 11
195.7499999999998
 21
169.5000000000001
 31
0.0
 70
    32
 71
     5
 42
20.0
  3
STANDARD
100
AcDbAlignedDimension
 13
185.7499999999999
 23
159.5
 33
0.0
 14
185.7499999999999
 24
179.5
 34
0.0
 50
90.0
100
AcDbRotatedDimension
1001
ACAD
1000
DSTYLE
1002
{
1070
   287
1070
     3
1070
    41
1040
1.0
1070
    42
1040
1.0
1070
    43
1040
0.0
1070
    44
1040
1.0
1070
    73
1070
     0
1070
    74
1070
     0
1070
    78
1070
     8
1070
   140
1040
3.0
1070
   141
1040
0.5
1070
   143
1040
0.0394
1070
   147
1040
1.0
1070
   171
1070
     4
1070
   172
1070
     1
1070
   173
1070
     1
1070
   178
1070
     4
1070
   279
1070
     0
1070
     6
1000
DOT
1070
     7
1000
DOT
1002
}
  0
DIMENSION
  5
198
330
2
100
AcDbEntity
  8
SUNPOU
100
AcDbDimension
  2
*D15
 10
95.74999999999986
 20
204.5000000000001
 30
0.0
 11
140.7499999999999
 21
204.5000000000001
 31
0.0
 70
    32
 71
     5
 42
90.00000000000001
  3
STANDARD
100
AcDbAlignedDimension
 13
185.7499999999999
 23
179.5
 33
0.0
 14
95.74999999999986
 24
179.5
 34
0.0
100
AcDbRotatedDimension
1001
ACAD
1000
DSTYLE
1002
{
1070
   287
1070
     3
1070
    41
1040
1.0
1070
    42
1040
1.0
1070
    43
1040
0.0
1070
    44
1040
1.0
1070
    73
1070
     0
1070
    74
1070
     0
1070
    78
1070
     8
1070
   140
1040
3.0
1070
   141
1040
0.5
1070
   143
1040
0.0394
1070
   147
1040
1.0
1070
   171
1070
     4
1070
   172
1070
     1
1070
   173
1070
     1
1070
   178
1070
     4
1070
   279
1070
     0
1070
     6
1000
DOT
1070
     7
1000
DOT
1002
}
  0
DIMENSION
  5
1A6
330
2
100
AcDbEntity
  8
SUNPOU
100
AcDbDimension
  2
*D10
 10
312.25
 20
219.5000000000001
 30
0.0
 11
317.5
 21
219.5000000000001
 31
0.0
 70
    32
 71
     5
 42
10.5
  3
STANDARD
100
AcDbAlignedDimension
 13
322.75
 23
179.5
 33
0.0
 14
312.25
 24
212.5
 34
0.0
100
AcDbRotatedDimension
1001
ACAD
1000
DSTYLE
1002
{
1070
   287
1070
     3
1070
    41
1040
1.0
1070
    42
1040
1.0
1070
    43
1040
0.0
1070
    44
1040
1.0
1070
    73
1070
     0
1070
    74
1070
     0
1070
    78
1070
     8
1070
   140
1040
3.0
1070
   141
1040
0.5
1070
   143
1040
0.0394
1070
   147
1040
1.0
1070
   171
1070
     4
1070
   172
1070
     1
1070
   173
1070
     1
1070
   178
1070
     4
1070
   279
1070
     0
1070
     6
1000
DOT
1070
     7
1000
DOT
1002
}
  0
DIMENSION
  5
1B6
330
2
100
AcDbEntity
  8
SUNPOU
100
AcDbDimension
  2
*D11
 10
317.75
 20
209.5000000000001
 30
0.0
 11
312.25
 21
209.5000000000001
 31
0.0
 70
    32
 71
     5
 42
11.0
  3
STANDARD
100
AcDbAlignedDimension
 13
306.75
 23
189.5
 33
0.0
 14
317.75
 24
189.5
 34
0.0
100
AcDbRotatedDimension
1001
ACAD
1000
DSTYLE
1002
{
1070
   287
1070
     3
1070
    41
1040
1.0
1070
    42
1040
1.0
1070
    43
1040
0.0
1070
    44
1040
1.0
1070
    73
1070
     0
1070
    74
1070
     0
1070
    78
1070
     8
1070
   140
1040
3.0
1070
   141
1040
0.5
1070
   143
1040
0.0394
1070
   147
1040
1.0
1070
   171
1070
     4
1070
   172
1070
     1
1070
   173
1070
     1
1070
   178
1070
     4
1070
   279
1070
     0
1070
     6
1000
DOT
1070
     7
1000
DOT
1002
}
  0
DIMENSION
  5
1C4
330
2
100
AcDbEntity
  8
SUNPOU
100
AcDbDimension
  2
*D12
 10
310.5
 20
199.6451698650098
 30
0.0
 11
312.25
 21
203.6451698650098
 31
0.0
 70
    32
 71
     5
 42
3.5
  3
STANDARD
100
AcDbAlignedDimension
 13
314.0
 23
189.5
 33
0.0
 14
310.5
 24
189.5
 34
0.0
100
AcDbRotatedDimension
1001
ACAD
1000
DSTYLE
1002
{
1070
    78
1070
     8
1070
   140
1040
3.0
1070
    74
1070
     0
1070
   172
1070
     1
1070
    73
1070
     0
1070
   173
1070
     1
1070
   147
1040
1.0
1070
    42
1040
1.0
1070
    44
1040
1.0
1070
    43
1040
0.0
1070
   178
1070
     4
1070
   141
1040
0.5
1070
     7
1000
_DOT
1070
     6
1000
_DOT
1070
    41
1040
1.0
1070
   143
1040
0.0394
1070
   171
1070
     4
1002
}
  0
LINE
  5
1D3
330
2
100
AcDbEntity
  8
CENTER
100
AcDbLine
 10
180.2499999999999
 20
175.5
 30
0.0
 11
175.2499999999999
 21
175.5
 31
0.0
  0
LINE
  5
1D4
330
2
100
AcDbEntity
  8
CENTER
100
AcDbLine
 10
180.2499999999999
 20
163.5
 30
0.0
 11
175.2499999999999
 21
163.5
 31
0.0
  0
LINE
  5
1D5
330
2
100
AcDbEntity
  8
CENTER
100
AcDbLine
 10
177.7499999999999
 20
161.0
 30
0.0
 11
177.7499999999999
 21
166.0
 31
0.0
  0
LINE
  5
1D6
330
2
100
AcDbEntity
  8
CENTER
100
AcDbLine
 10
177.7499999999999
 20
173.0
 30
0.0
 11
177.7499999999999
 21
178.0
 31
0.0
  0
LINE
  5
1D7
330
2
100
AcDbEntity
  8
CENTER
100
AcDbLine
 10
103.7499999999998
 20
173.0
 30
0.0
 11
103.7499999999998
 21
178.0
 31
0.0
  0
LINE
  5
1D8
330
2
100
AcDbEntity
  8
CENTER
100
AcDbLine
 10
103.7499999999998
 20
161.0
 30
0.0
 11
103.7499999999998
 21
166.0
 31
0.0
  0
LINE
  5
1D9
330
2
100
AcDbEntity
  8
CENTER
100
AcDbLine
 10
101.2499999999999
 20
163.5
 30
0.0
 11
106.2499999999998
 21
163.5
 31
0.0
  0
LINE
  5
1DA
330
2
100
AcDbEntity
  8
CENTER
100
AcDbLine
 10
101.2499999999999
 20
175.5
 30
0.0
 11
106.2499999999998
 21
175.5
 31
0.0
  0
LINE
  5
1DB
330
2
100
AcDbEntity
  8
HONTAIFUKASIBU
100
AcDbLine
 10
166.5499999999999
 20
179.5
 30
0.0
 11
166.5499999999999
 21
159.5
 31
0.0
  0
LINE
  5
1DC
330
2
100
AcDbEntity
  8
HONTAIFUKASIBU
100
AcDbLine
 10
114.9499999999999
 20
179.5
 30
0.0
 11
114.9499999999999
 21
159.5
 31
0.0
  0
LINE
  5
1DD
330
2
100
AcDbEntity
  8
HONTAI
100
AcDbLine
 10
111.7499999999999
 20
179.5
 30
0.0
 11
111.7499999999999
 21
159.5
 31
0.0
  0
LINE
  5
1DE
330
2
100
AcDbEntity
  8
HONTAI
100
AcDbLine
 10
169.7499999999999
 20
179.5
 30
0.0
 11
169.7499999999999
 21
159.5
 31
0.0
  0
LINE
  5
1DF
330
2
100
AcDbEntity
  8
HONTAI
100
AcDbLine
 10
316.35
 20
179.5
 30
0.0
 11
316.35
 21
159.5
 31
0.0
  0
LINE
  5
1E0
330
2
100
AcDbEntity
  8
HONTAI
100
AcDbLine
 10
314.0000000000001
 20
159.5
 30
0.0
 11
314.0
 21
150.0
 31
0.0
  0
LINE
  5
1E1
330
2
100
AcDbEntity
  8
HONTAI
100
AcDbLine
 10
317.75
 20
159.5
 30
0.0
 11
317.75
 21
144.5
 31
0.0
  0
LINE
  5
1E2
330
2
100
AcDbEntity
  8
HONTAI
100
AcDbLine
 10
315.75
 20
159.5
 30
0.0
 11
315.75
 21
144.5
 31
0.0
  0
LINE
  5
1E3
330
2
100
AcDbEntity
  8
HONTAI
100
AcDbLine
 10
310.5
 20
159.5
 30
0.0
 11
310.5
 21
150.0
 31
0.0
  0
LINE
  5
1E4
330
2
100
AcDbEntity
  8
HONTAI
100
AcDbLine
 10
306.75
 20
159.5
 30
0.0
 11
306.75
 21
144.5
 31
0.0
  0
LINE
  5
1E5
330
2
100
AcDbEntity
  8
HONTAI
100
AcDbLine
 10
308.75
 20
159.5
 30
0.0
 11
308.75
 21
144.5
 31
0.0
  0
LINE
  5
1E6
330
2
100
AcDbEntity
  8
HONTAI
100
AcDbLine
 10
308.75
 20
189.5
 30
0.0
 11
310.5
 21
184.0
 31
0.0
  0
LINE
  5
1E7
330
2
100
AcDbEntity
  8
HONTAI
100
AcDbLine
 10
308.75
 20
189.5
 30
0.0
 11
306.75
 21
189.5
 31
0.0
  0
LINE
  5
1E8
330
2
100
AcDbEntity
  8
HONTAI
100
AcDbLine
 10
310.5
 20
184.0
 30
0.0
 11
314.0
 21
184.0
 31
0.0
  0
LINE
  5
1E9
330
2
100
AcDbEntity
  8
HONTAI
100
AcDbLine
 10
314.0
 20
184.0
 30
0.0
 11
315.75
 21
189.5
 31
0.0
  0
LINE
  5
1EA
330
2
100
AcDbEntity
  8
HONTAI
100
AcDbLine
 10
315.75
 20
189.5
 30
0.0
 11
317.75
 21
189.5
 31
0.0
  0
LINE
  5
1EB
330
2
100
AcDbEntity
  8
HONTAI
100
AcDbLine
 10
315.75
 20
144.5
 30
0.0
 11
317.75
 21
144.5
 31
0.0
  0
LINE
  5
1EC
330
2
100
AcDbEntity
  8
HONTAI
100
AcDbLine
 10
314.0
 20
150.0
 30
0.0
 11
315.75
 21
144.5
 31
0.0
  0
LINE
  5
1ED
330
2
100
AcDbEntity
  8
HONTAI
100
AcDbLine
 10
310.5
 20
150.0
 30
0.0
 11
314.0
 21
150.0
 31
0.0
  0
LINE
  5
1EE
330
2
100
AcDbEntity
  8
HONTAI
100
AcDbLine
 10
308.75
 20
144.5
 30
0.0
 11
306.75
 21
144.5
 31
0.0
  0
LINE
  5
1EF
330
2
100
AcDbEntity
  8
HONTAI
100
AcDbLine
 10
308.75
 20
144.5
 30
0.0
 11
310.5
 21
150.0
 31
0.0
  0
LINE
  5
1F0
330
2
100
AcDbEntity
  8
HONTAI
100
AcDbLine
 10
308.75
 20
189.5
 30
0.0
 11
308.7499999999999
 21
179.5
 31
0.0
  0
LINE
  5
1F1
330
2
100
AcDbEntity
  8
HONTAI
100
AcDbLine
 10
315.75
 20
189.5
 30
0.0
 11
315.75
 21
179.5
 31
0.0
  0
LINE
  5
1F2
330
2
100
AcDbEntity
  8
HONTAI
100
AcDbLine
 10
306.75
 20
189.5
 30
0.0
 11
306.7499999999999
 21
179.5
 31
0.0
  0
LINE
  5
1F3
330
2
100
AcDbEntity
  8
HONTAI
100
AcDbLine
 10
317.75
 20
189.5
 30
0.0
 11
317.75
 21
179.5
 31
0.0
  0
LINE
  5
1F4
330
2
100
AcDbEntity
  8
HONTAI
100
AcDbLine
 10
310.5
 20
184.0
 30
0.0
 11
310.5
 21
179.5
 31
0.0
  0
LINE
  5
1F5
330
2
100
AcDbEntity
  8
HONTAI
100
AcDbLine
 10
314.0
 20
184.0
 30
0.0
 11
314.0000000000001
 21
179.5
 31
0.0
  0
LINE
  5
1F6
330
2
100
AcDbEntity
  8
HONTAIFUKASIBU
100
AcDbLine
 10
300.75
 20
172.0
 30
0.0
 11
301.75
 21
171.0
 31
0.0
  0
LINE
  5
1F7
330
2
100
AcDbEntity
  8
HONTAIFUKASIBU
100
AcDbLine
 10
301.75
 20
171.0
 30
0.0
 11
301.75
 21
163.0
 31
0.0
  0
LINE
  5
1F8
330
2
100
AcDbEntity
  8
HONTAIFUKASIBU
100
AcDbLine
 10
300.75
 20
162.0
 30
0.0
 11
301.75
 21
163.0
 31
0.0
  0
LINE
  5
1F9
330
2
100
AcDbEntity
  8
HONTAIFUKASIBU
100
AcDbLine
 10
322.75
 20
162.0
 30
0.0
 11
321.75
 21
163.0
 31
0.0
  0
LINE
  5
1FA
330
2
100
AcDbEntity
  8
HONTAIFUKASIBU
100
AcDbLine
 10
321.75
 20
171.0
 30
0.0
 11
321.75
 21
163.0
 31
0.0
  0
LINE
  5
1FB
330
2
100
AcDbEntity
  8
HONTAIFUKASIBU
100
AcDbLine
 10
322.75
 20
172.0
 30
0.0
 11
321.75
 21
171.0
 31
0.0
  0
LINE
  5
1FC
330
2
100
AcDbEntity
  8
HONTAIFUKASIBU
100
AcDbLine
 10
301.75
 20
163.0
 30
0.0
 11
321.75
 21
163.0
 31
0.0
  0
LINE
  5
1FD
330
2
100
AcDbEntity
  8
HONTAIFUKASIBU
100
AcDbLine
 10
301.75
 20
171.0
 30
0.0
 11
321.75
 21
171.0
 31
0.0
  0
LINE
  5
1FE
330
2
100
AcDbEntity
  8
HONTAI
100
AcDbLine
 10
319.55
 20
179.5
 30
0.0
 11
319.55
 21
124.5
 31
0.0
  0
LINE
  5
1FF
330
2
100
AcDbEntity
  8
CENTER
100
AcDbLine
 10
312.25
 20
198.5
 30
0.0
 11
312.25
 21
139.5
 31
0.0
  0
ARC
  5
200
330
2
100
AcDbEntity
  8
HONTAIFUKASIBU
100
AcDbCircle
 10
140.7499999999999
 20
167.0
 30
0.0
 40
22.5
100
AcDbArc
 50
340.5287793655093
 51
33.74898859588857
  0
ARC
  5
201
330
2
100
AcDbEntity
  8
HONTAI
100
AcDbCircle
 10
140.7499999999999
 20
167.0
 30
0.0
 40
22.5
100
AcDbArc
 50
199.4712206344906
 51
340.5287793655093
  0
ARC
  5
202
330
2
100
AcDbEntity
  8
HONTAIFUKASIBU
100
AcDbCircle
 10
140.7499999999999
 20
167.0
 30
0.0
 40
22.5
100
AcDbArc
 50
146.2510114041114
 51
199.4712206344906
  0
CIRCLE
  5
203
330
2
100
AcDbEntity
  8
HONTAI
100
AcDbCircle
 10
140.7499999999999
 20
167.0
 30
0.0
 40
5.0
  0
CIRCLE
  5
204
330
2
100
AcDbEntity
  8
HONTAIFUKASIBU
100
AcDbCircle
 10
140.7499999999999
 20
167.0
 30
0.0
 40
4.0
  0
CIRCLE
  5
205
330
2
100
AcDbEntity
  8
HONTAIFUKASIBU
100
AcDbCircle
 10
140.7499999999999
 20
167.0
 30
0.0
 40
16.5
  0
ARC
  5
206
330
2
100
AcDbEntity
  8
HONTAI
100
AcDbCircle
 10
140.7499999999999
 20
167.0
 30
0.0
 40
22.5
100
AcDbArc
 50
33.74898859588857
 51
146.2510114041114
  0
LINE
  5
207
330
2
100
AcDbEntity
  8
CENTER
100
AcDbLine
 10
140.7499999999999
 20
197.0
 30
0.0
 11
140.7499999999999
 21
142.0
 31
0.0
  0
LINE
  5
208
330
2
100
AcDbEntity
  8
CENTER
100
AcDbLine
 10
300.75
 20
167.0
 30
0.0
 11
322.75
 21
167.0
 31
0.0
  0
LINE
  5
209
330
2
100
AcDbEntity
  8
CENTER
100
AcDbLine
 10
130.7499999999999
 20
167.0
 30
0.0
 11
150.7499999999999
 21
167.0
 31
0.0
  0
LINE
  5
20A
330
2
100
AcDbEntity
  8
HONTAI
100
AcDbLine
 10
300.75
 20
159.5
 30
0.0
 11
319.55
 21
159.5
 31
0.0
  0
LINE
  5
20B
330
2
100
AcDbEntity
  8
HONTAI
100
AcDbLine
 10
95.74999999999986
 20
159.5
 30
0.0
 11
185.7499999999999
 21
159.5
 31
0.0
  0
LINE
  5
20C
330
2
100
AcDbEntity
  8
HONTAI
100
AcDbLine
 10
300.75
 20
179.5
 30
0.0
 11
300.75
 21
159.5
 31
0.0
  0
LINE
  5
20D
330
2
100
AcDbEntity
  8
HONTAI
100
AcDbLine
 10
300.75
 20
179.5
 30
0.0
 11
322.75
 21
179.5
 31
0.0
  0
LINE
  5
20E
330
2
100
AcDbEntity
  8
HONTAI
100
AcDbLine
 10
322.75
 20
179.5
 30
0.0
 11
322.75
 21
124.5
 31
0.0
  0
LINE
  5
20F
330
2
100
AcDbEntity
  8
HONTAI
100
AcDbLine
 10
322.75
 20
124.5
 30
0.0
 11
319.55
 21
124.5
 31
0.0
  0
LINE
  5
210
330
2
100
AcDbEntity
  8
HONTAI
100
AcDbLine
 10
185.7499999999999
 20
124.5
 30
0.0
 11
95.74999999999986
 21
124.5
 31
0.0
  0
LINE
  5
211
330
2
100
AcDbEntity
  8
HONTAI
100
AcDbLine
 10
185.7499999999999
 20
179.5
 30
0.0
 11
185.7499999999999
 21
124.5
 31
0.0
  0
LINE
  5
212
330
2
100
AcDbEntity
  8
HONTAI
100
AcDbLine
 10
95.74999999999986
 20
179.5
 30
0.0
 11
185.7499999999999
 21
179.5
 31
0.0
  0
LINE
  5
213
330
2
100
AcDbEntity
  8
HONTAI
100
AcDbLine
 10
95.74999999999986
 20
124.5
 30
0.0
 11
95.74999999999986
 21
179.5
 31
0.0
  0
TEXT
  5
214
330
2
100
AcDbEntity
  8
TEXT
100
AcDbText
 10
257.6475
 20
13.87500000000002
 30
0.0
 40
3.249999999999999
  1
三価クロメート
 41
0.9
 72
     1
 11
269.25
 21
13.87500000000002
 31
0.0
100
AcDbText
  0
TEXT
  5
216
330
2
100
AcDbEntity
  8
TEXT
100
AcDbText
 10
215.425
 20
22.37500000000008
 30
0.0
 40
3.249999999999999
  1
1：1
 72
     1
 11
219.0
 21
22.37500000000008
 31
0.0
100
AcDbText
  0
TEXT
  5
217
330
2
100
AcDbEntity
  8
TEXT
100
AcDbText
 10
367.5
 20
21.74999999999994
 30
0.0
 40
3.0
  1
616
 72
     1
 11
371.0
 21
21.74999999999994
 31
0.0
100
AcDbText
  0
TEXT
  5
218
330
2
100
AcDbEntity
  8
TEXT
100
AcDbText
 10
344.0833333333333
 20
13.87500000000001
 30
0.0
 40
3.249999999999999
  1
上吊車
 72
     1
 11
349.5
 21
13.87500000000001
 31
0.0
100
AcDbText
  0
TEXT
  5
219
330
2
100
AcDbEntity
  8
TEXT
100
AcDbText
 10
349.0000000000001
 20
280.0375000000002
 30
0.0
 40
3.25
  1
File_No.
100
AcDbText
  0
LWPOLYLINE
  5
21A
330
2
100
AcDbEntity
  8
DEFPOINTS
100
AcDbPolyline
 90
        4
 70
     1
 43
0.0
 10
0.0
 20
297.0000000000001
 10
419.9999999999997
 20
297.0000000000001
 10
419.9999999999999
 20
0.0000000000001705
 10
0.0
 20
0.0
  0
INSERT
  5
21C
330
2
100
AcDbEntity
  8
ZUWAKU
100
AcDbBlockReference
  2
WAKU
 10
0.0
 20
0.0
 30
0.0
  0
TEXT
  5
573
330
2
100
AcDbEntity
  8
TEXT
100
AcDbText
 10
260.9583333333333
 20
22.37500000000038
 30
0.0
 40
3.249999999999999
  1
SS400
 72
     1
 11
268.0
 21
22.37500000000038
 31
0.0
100
AcDbText
  0
TEXT
  5
574
330
2
100
AcDbEntity
  8
TEXT
100
AcDbText
 10
211.5
 20
13.87500000000036
 30
0.0
 40
2.5
  1
2016/10/13
100
AcDbText
  0
LINE
  5
5F3
330
2
100
AcDbEntity
  8
TEXT
100
AcDbLine
 10
118.2500988734825
 20
74.50000000000006
 30
0.0
 11
147.4963303212732
 21
74.50000000000006
 31
0.0
  0
TEXT
  5
764
330
2
100
AcDbEntity
  8
TEXT
100
AcDbText
 10
109.1499999999998
 20
76.50000000000005
 30
0.0
 40
3.0
  1
標準耐荷重：55kg(扉1枚に対し2個)
 72
     1
 11
140.7499999999998
 21
76.50000000000005
 31
0.0
100
AcDbText
  0
LINE
  5
765
330
2
100
AcDbEntity
  8
SUNPOU
100
AcDbLine
 10
106.2499999999998
 20
74.50000000000006
 30
0.0
 11
175.2499999999998
 21
74.50000000000006
 31
0.0
  0
LWPOLYLINE
  5
83A
330
2
100
AcDbEntity
  8
DEFPOINTS
100
AcDbPolyline
 90
        4
 70
     1
 43
0.0
 10
0.0
 20
0.0
 10
-20.0
 20
0.0
 10
0.0
 20
0.0
 10
0.0
 20
-20.0
  0
LWPOLYLINE
  5
83B
330
2
100
AcDbEntity
  8
DEFPOINTS
100
AcDbPolyline
 90
        4
 70
     1
 43
0.0
 10
419.9999999999997
 20
297.0000000000001
 10
439.9999999999997
 20
297.0000000000001
 10
419.9999999999997
 20
297.0000000000001
 10
419.9999999999997
 20
317.0000000000001
  0
TEXT
  5
85B
330
2
100
AcDbEntity
  8
TEXT
100
AcDbText
 10
373.0
 20
280.0375000000002
 30
0.0
 40
3.25
  1
I02-003-10
100
AcDbText
  0
TEXT
  5
880
330
2
100
AcDbEntity
  8
TEXT
100
AcDbText
 10
107.4647010574234
 20
58.49223740523257
 30
0.0
 40
3.0
  1
扉自体に変形などの要因となりますので、
100
AcDbText
  0
TEXT
  5
881
330
2
100
AcDbEntity
  8
TEXT
100
AcDbText
 10
107.4647010574234
 20
64.49223740523257
 30
0.0
 40
3.0
  1
※車輪の台数を多くしても耐荷重が増えず、
100
AcDbText
  0
TEXT
  5
882
330
2
100
AcDbEntity
  8
TEXT
100
AcDbText
 10
107.4647010574234
 20
52.49223740523256
 30
0.0
 40
3.0
  1
扉一枚に対する上吊り車の数は、2個としてください。
100
AcDbText
  0
ENDSEC
  0
SECTION
  2
OBJECTS
  0
DICTIONARY
  5
1E
330
0
100
AcDbDictionary
281
     1
  3
ACAD_COLOR
350
54A
  3
ACAD_GROUP
350
1C
  3
ACAD_LAYOUT
350
561
  3
ACAD_MATERIAL
350
518
  3
ACAD_MLEADERSTYLE
350
55F
  3
ACAD_MLINESTYLE
350
1D
  3
ACAD_PLOTSETTINGS
350
562
  3
ACAD_PLOTSTYLENAME
350
516
  3
ACAD_SCALELIST
350
54D
  3
ACAD_TABLESTYLE
350
54B
  3
ACAD_VISUALSTYLE
350
531
  3
ACDB_RECOMPOSE_DATA
350
8F4
  3
AcDbVariableDictionary
350
590
  3
DWGPROPS
350
8F5
  0
DICTIONARY
  5
568
330
E
100
AcDbDictionary
280
     1
281
     1
  3
ACAD_LAYERSTATES
360
569
  0
DICTIONARY
  5
577
330
6
100
AcDbDictionary
280
     1
281
     1
  3
ADSK_XREC_LAYER_RECONCILED
360
578
  0
DICTIONARY
  5
57B
330
1F
100
AcDbDictionary
280
     1
281
     1
  3
ADSK_XREC_LAYER_RECONCILED
360
57C
  0
DICTIONARY
  5
57D
330
21D
100
AcDbDictionary
280
     1
281
     1
  3
ADSK_XREC_LAYER_RECONCILED
360
57E
  0
DICTIONARY
  5
57F
330
56
100
AcDbDictionary
280
     1
281
     1
  3
ADSK_XREC_LAYER_RECONCILED
360
580
  0
DICTIONARY
  5
581
330
4B
100
AcDbDictionary
280
     1
281
     1
  3
ADSK_XREC_LAYER_RECONCILED
360
582
  0
DICTIONARY
  5
583
330
5C
100
AcDbDictionary
280
     1
281
     1
  3
ADSK_XREC_LAYER_RECONCILED
360
584
  0
DICTIONARY
  5
585
330
26
100
AcDbDictionary
280
     1
281
     1
  3
ADSK_XREC_LAYER_RECONCILED
360
586
  0
DICTIONARY
  5
3
330
2
100
AcDbDictionary
280
     1
281
     1
  3
ACAD_LAYOUTSELFREF
360
4
  0
DICTIONARY
  5
A
330
9
100
AcDbDictionary
280
     1
281
     1
  3
ACAD_LAYOUTSELFREF
360
B
  0
DICTIONARY
  5
54A
102
{ACAD_REACTORS
330
1E
102
}
330
1E
100
AcDbDictionary
281
     1
  0
DICTIONARY
  5
1C
102
{ACAD_REACTORS
330
1E
102
}
330
1E
100
AcDbDictionary
281
     1
  0
DICTIONARY
  5
561
102
{ACAD_REACTORS
330
1E
102
}
330
1E
100
AcDbDictionary
281
     1
  3
Model
350
563
  3
レイアウト1
350
564
  0
DICTIONARY
  5
518
102
{ACAD_REACTORS
330
1E
102
}
330
1E
100
AcDbDictionary
281
     1
  3
ByBlock
350
521
  3
ByLayer
350
519
  3
Global
350
529
  0
DICTIONARY
  5
55F
102
{ACAD_REACTORS
330
1E
102
}
330
1E
100
AcDbDictionary
281
     1
  3
Standard
350
560
  0
DICTIONARY
  5
1D
102
{ACAD_REACTORS
330
1E
102
}
330
1E
100
AcDbDictionary
281
     1
  3
STANDARD
350
20
  0
DICTIONARY
  5
562
102
{ACAD_REACTORS
330
1E
102
}
330
1E
100
AcDbDictionary
281
     1
  0
ACDBDICTIONARYWDFLT
  5
516
102
{ACAD_REACTORS
330
1E
102
}
330
1E
100
AcDbDictionary
281
     1
  3
Normal
350
517
100
AcDbDictionaryWithDefault
340
517
  0
DICTIONARY
  5
54D
102
{ACAD_REACTORS
330
1E
102
}
330
1E
100
AcDbDictionary
281
     1
  3
A0
350
54E
  3
A1
350
54F
  3
A2
350
550
  3
A3
350
551
  3
A4
350
552
  3
A5
350
553
  3
A6
350
554
  3
A7
350
555
  3
A8
350
556
  3
A9
350
557
  3
B0
350
558
  3
B1
350
559
  3
B2
350
55A
  3
B3
350
55B
  3
B4
350
55C
  3
B5
350
55D
  3
B6
350
55E
  0
DICTIONARY
  5
54B
102
{ACAD_REACTORS
330
1E
102
}
330
1E
100
AcDbDictionary
281
     1
  3
Standard
350
54C
  0
DICTIONARY
  5
531
102
{ACAD_REACTORS
330
1E
102
}
330
1E
100
AcDbDictionary
281
     1
  3
2dWireframe
350
537
  3
Basic
350
536
  3
Brighten
350
53D
  3
ColorChange
350
541
  3
Conceptual
350
53A
  3
Dim
350
53C
  3
EdgeColorOff
350
549
  3
Facepattern
350
540
  3
Flat
350
532
  3
FlatWithEdges
350
533
  3
Gouraud
350
534
  3
GouraudWithEdges
350
535
  3
Hidden
350
539
  3
JitterOff
350
547
  3
Linepattern
350
53F
  3
OverhangOff
350
548
  3
Realistic
350
53B
  3
Shaded
350
546
  3
Shaded with edges
350
545
  3
Shades of Gray
350
542
  3
Sketchy
350
543
  3
Thicken
350
53E
  3
Wireframe
350
538
  3
X-Ray
350
544
  0
XRECORD
  5
8F4
102
{ACAD_REACTORS
330
1E
102
}
330
1E
100
AcDbXrecord
280
     1
 90
        1
330
54C
  0
DICTIONARY
  5
590
102
{ACAD_REACTORS
330
1E
102
}
330
1E
100
AcDbDictionary
281
     1
  3
CANNOSCALE
350
594
  3
CMLEADERSTYLE
350
592
  3
CTABLESTYLE
350
591
  3
DIMASSOC
350
89A
  3
INDEXCTL
350
899
  3
LAYEREVAL
350
596
  3
LAYERNOTIFY
350
597
  3
LIGHTINGUNITS
350
595
  3
MSLTSCALE
350
593
  3
SORTENTS
350
898
  3
XCLIPFRAME
350
89B
  0
XRECORD
  5
8F5
102
{ACAD_REACTORS
330
1E
102
}
330
1E
100
AcDbXrecord
280
     1
  1
DWGPROPS COOKIE
  2

  3

  4

  6

  7

  8
takahashi toshiaki
  9

300
=
301
=
302
=
303
=
304
=
305
=
306
=
307
=
308
=
309
=
 40
0.4903023495370371
 41
2451064.518711921
 42
2457842.358332593
  1

 90
        0
  0
DICTIONARY
  5
569
102
{ACAD_REACTORS
330
568
102
}
330
568
100
AcDbDictionary
281
     1
  0
XRECORD
  5
578
102
{ACAD_REACTORS
330
577
102
}
330
577
100
AcDbXrecord
280
     1
290
     1
  0
XRECORD
  5
57C
102
{ACAD_REACTORS
330
57B
102
}
330
57B
100
AcDbXrecord
280
     1
290
     1
  0
XRECORD
  5
57E
102
{ACAD_REACTORS
330
57D
102
}
330
57D
100
AcDbXrecord
280
     1
290
     1
  0
XRECORD
  5
580
102
{ACAD_REACTORS
330
57F
102
}
330
57F
100
AcDbXrecord
280
     1
290
     1
  0
XRECORD
  5
582
102
{ACAD_REACTORS
330
581
102
}
330
581
100
AcDbXrecord
280
     1
290
     1
  0
XRECORD
  5
584
102
{ACAD_REACTORS
330
583
102
}
330
583
100
AcDbXrecord
280
     1
290
     1
  0
XRECORD
  5
586
102
{ACAD_REACTORS
330
585
102
}
330
585
100
AcDbXrecord
280
     1
290
     1
  0
XRECORD
  5
4
102
{ACAD_REACTORS
330
3
102
}
330
3
100
AcDbXrecord
280
     1
340
2
  0
XRECORD
  5
B
102
{ACAD_REACTORS
330
A
102
}
330
A
100
AcDbXrecord
280
     1
340
9
  0
LAYOUT
  5
563
102
{ACAD_XDICTIONARY
360
58E
102
}
102
{ACAD_REACTORS
330
561
102
}
330
561
100
AcDbPlotSettings
  1

  2
C:\Users\takahashi toshiaki\appdata\roaming\autodesk\autocad lt 2011\r16\jpn\plotters\default windows system printer.pc3
  4
A4
  6

 40
4.900083065032958
 41
4.900057315826416
 42
4.90008544921875
 43
4.90008544921875
 44
210.0156707763672
 45
297.0106506347656
 46
0.0
 47
0.0
 48
0.0
 49
0.0
140
0.0
141
0.0
142
1.0
143
54.84440234583022
 70
 11952
 72
     0
 73
     1
 74
     0
  7

 75
     0
147
0.0182334013541499
148
2541.944092756335
149
548.4645222276935
100
AcDbLayout
  1
Model
 70
     1
 71
     0
 10
0.0
 20
0.0
 11
12.0
 21
9.0
 12
0.0
 22
0.0
 32
0.0
 14
0.0
 24
0.0
 34
0.0
 15
0.0
 25
0.0
 35
0.0
146
0.0
 13
0.0
 23
0.0
 33
0.0
 16
1.0
 26
0.0
 36
0.0
 17
0.0
 27
1.0
 37
0.0
 76
     0
330
2
331
514
1001
ACAD_PSEXT
1000
C:\Users\takahashi toshiaki\appdata\roaming\autodesk\autocad lt 2011\r16\jpn\plotters\default windows system printer.pc3
1000
FX DocuCentre-V C5576
1000
172.41.10.189
1000
3F 給湯室近くのゼロックス複合機です
1070
     0
  0
LAYOUT
  5
564
102
{ACAD_XDICTIONARY
360
92C
102
}
102
{ACAD_REACTORS
330
561
102
}
330
561
100
AcDbPlotSettings
  1

  2
C:\Users\takahashi toshiaki\appdata\roaming\autodesk\autocad lt 2011\r16\jpn\plotters\default windows system printer.pc3
  4

  6

 40
0.0
 41
0.0
 42
0.0
 43
0.0
 44
0.0
 45
0.0
 46
0.0
 47
0.0
 48
0.0
 49
0.0
140
0.0
141
0.0
142
1.0
143
1.0
 70
   688
 72
     0
 73
     0
 74
     5
  7

 75
    16
147
1.0
148
0.0
149
0.0
100
AcDbLayout
  1
レイアウト1
 70
     1
 71
     1
 10
0.0
 20
0.0
 11
420.0
 21
297.0
 12
0.0
 22
0.0
 32
0.0
 14
1.000000000000000E+20
 24
1.000000000000000E+20
 34
1.000000000000000E+20
 15
-1.000000000000000E+20
 25
-1.000000000000000E+20
 35
-1.000000000000000E+20
146
0.0
 13
0.0
 23
0.0
 33
0.0
 16
1.0
 26
0.0
 36
0.0
 17
0.0
 27
1.0
 37
0.0
 76
     0
330
9
  0
MATERIAL
  5
521
102
{ACAD_XDICTIONARY
360
522
102
}
102
{ACAD_REACTORS
330
518
102
}
330
518
100
AcDbMaterial
  1
ByBlock
 72
     0
 43
0.0208333333333333
 43
0.0
 43
0.0
 43
0.0
 43
0.0
 43
0.0208333333333333
 43
0.0
 43
0.0
 43
0.0
 43
0.0
 43
1.0
 43
0.0
 43
0.0
 43
0.0
 43
0.0
 43
1.0
 77
     0
 47
0.0208333333333333
 47
0.0
 47
0.0
 47
0.0
 47
0.0
 47
0.0208333333333333
 47
0.0
 47
0.0
 47
0.0
 47
0.0
 47
1.0
 47
0.0
 47
0.0
 47
0.0
 47
0.0
 47
1.0
171
     0
 49
0.0208333333333333
 49
0.0
 49
0.0
 49
0.0
 49
0.0
 49
0.0208333333333333
 49
0.0
 49
0.0
 49
0.0
 49
0.0
 49
1.0
 49
0.0
 49
0.0
 49
0.0
 49
0.0
 49
1.0
175
     0
142
0.0208333333333333
142
0.0
142
0.0
142
0.0
142
0.0
142
0.0208333333333333
142
0.0
142
0.0
142
0.0
142
0.0
142
1.0
142
0.0
142
0.0
142
0.0
142
0.0
142
1.0
179
     0
144
0.0208333333333333
144
0.0
144
0.0
144
0.0
144
0.0
144
0.0208333333333333
144
0.0
144
0.0
144
0.0
144
0.0
144
1.0
144
0.0
144
0.0
144
0.0
144
0.0
144
1.0
147
0.0208333333333333
147
0.0
147
0.0
147
0.0
147
0.0
147
0.0208333333333333
147
0.0
147
0.0
147
0.0
147
0.0
147
1.0
147
0.0
147
0.0
147
0.0
147
0.0
147
1.0
  0
MATERIAL
  5
519
102
{ACAD_XDICTIONARY
360
51A
102
}
102
{ACAD_REACTORS
330
518
102
}
330
518
100
AcDbMaterial
  1
ByLayer
 72
     0
 43
0.0208333333333333
 43
0.0
 43
0.0
 43
0.0
 43
0.0
 43
0.0208333333333333
 43
0.0
 43
0.0
 43
0.0
 43
0.0
 43
1.0
 43
0.0
 43
0.0
 43
0.0
 43
0.0
 43
1.0
 77
     0
 47
0.0208333333333333
 47
0.0
 47
0.0
 47
0.0
 47
0.0
 47
0.0208333333333333
 47
0.0
 47
0.0
 47
0.0
 47
0.0
 47
1.0
 47
0.0
 47
0.0
 47
0.0
 47
0.0
 47
1.0
171
     0
 49
0.0208333333333333
 49
0.0
 49
0.0
 49
0.0
 49
0.0
 49
0.0208333333333333
 49
0.0
 49
0.0
 49
0.0
 49
0.0
 49
1.0
 49
0.0
 49
0.0
 49
0.0
 49
0.0
 49
1.0
175
     0
142
0.0208333333333333
142
0.0
142
0.0
142
0.0
142
0.0
142
0.0208333333333333
142
0.0
142
0.0
142
0.0
142
0.0
142
1.0
142
0.0
142
0.0
142
0.0
142
0.0
142
1.0
179
     0
144
0.0208333333333333
144
0.0
144
0.0
144
0.0
144
0.0
144
0.0208333333333333
144
0.0
144
0.0
144
0.0
144
0.0
144
1.0
144
0.0
144
0.0
144
0.0
144
0.0
144
1.0
147
0.0208333333333333
147
0.0
147
0.0
147
0.0
147
0.0
147
0.0208333333333333
147
0.0
147
0.0
147
0.0
147
0.0
147
1.0
147
0.0
147
0.0
147
0.0
147
0.0
147
1.0
  0
MATERIAL
  5
529
102
{ACAD_XDICTIONARY
360
52A
102
}
102
{ACAD_REACTORS
330
518
102
}
330
518
100
AcDbMaterial
  1
Global
 72
     0
 43
0.0208333333333333
 43
0.0
 43
0.0
 43
0.0
 43
0.0
 43
0.0208333333333333
 43
0.0
 43
0.0
 43
0.0
 43
0.0
 43
1.0
 43
0.0
 43
0.0
 43
0.0
 43
0.0
 43
1.0
 77
     0
 47
0.0208333333333333
 47
0.0
 47
0.0
 47
0.0
 47
0.0
 47
0.0208333333333333
 47
0.0
 47
0.0
 47
0.0
 47
0.0
 47
1.0
 47
0.0
 47
0.0
 47
0.0
 47
0.0
 47
1.0
171
     0
 49
0.0208333333333333
 49
0.0
 49
0.0
 49
0.0
 49
0.0
 49
0.0208333333333333
 49
0.0
 49
0.0
 49
0.0
 49
0.0
 49
1.0
 49
0.0
 49
0.0
 49
0.0
 49
0.0
 49
1.0
175
     0
142
0.0208333333333333
142
0.0
142
0.0
142
0.0
142
0.0
142
0.0208333333333333
142
0.0
142
0.0
142
0.0
142
0.0
142
1.0
142
0.0
142
0.0
142
0.0
142
0.0
142
1.0
179
     0
144
0.0208333333333333
144
0.0
144
0.0
144
0.0
144
0.0
144
0.0208333333333333
144
0.0
144
0.0
144
0.0
144
0.0
144
1.0
144
0.0
144
0.0
144
0.0
144
0.0
144
1.0
147
0.0208333333333333
147
0.0
147
0.0
147
0.0
147
0.0
147
0.0208333333333333
147
0.0
147
0.0
147
0.0
147
0.0
147
1.0
147
0.0
147
0.0
147
0.0
147
0.0
147
1.0
  0
MLEADERSTYLE
  5
560
102
{ACAD_REACTORS
330
55F
102
}
330
55F
100
AcDbMLeaderStyle
170
     2
171
     1
172
     0
 90
        2
 40
0.0
 41
0.0
173
     1
 91
-1056964608
340
12
 92
       -2
290
     1
 42
0.09
291
     1
 43
0.36
  3
Standard
 44
0.18
300

342
10
174
     1
178
     6
175
     1
176
     0
 93
-1056964608
 45
0.18
292
     0
297
     0
 46
0.18
 94
-1056964608
 47
1.0
 49
1.0
140
1.0
293
     1
141
0.0
294
     1
177
     0
142
1.0
295
     0
296
     0
143
0.125
1001
ACAD_MLEADERVER
1070
     2
  0
MLINESTYLE
  5
20
102
{ACAD_REACTORS
330
1D
102
}
330
1D
100
AcDbMlineStyle
  2
STANDARD
 70
     0
  3

 62
     0
 51
90.0
 52
90.0
 71
     2
 49
0.5
 62
   256
  6
BYLAYER
 49
-0.5
 62
   256
  6
BYLAYER
  0
ACDBPLACEHOLDER
  5
517
102
{ACAD_REACTORS
330
516
102
}
330
516
  0
SCALE
  5
54E
102
{ACAD_REACTORS
330
54D
102
}
330
54D
100
AcDbScale
 70
     0
300
1:1
140
1.0
141
1.0
290
     1
  0
SCALE
  5
54F
102
{ACAD_REACTORS
330
54D
102
}
330
54D
100
AcDbScale
 70
     0
300
1/128" = 1'-0"
140
0.0078125
141
12.0
290
     0
  0
SCALE
  5
550
102
{ACAD_REACTORS
330
54D
102
}
330
54D
100
AcDbScale
 70
     0
300
1/64" = 1'-0"
140
0.015625
141
12.0
290
     0
  0
SCALE
  5
551
102
{ACAD_REACTORS
330
54D
102
}
330
54D
100
AcDbScale
 70
     0
300
1/32" = 1'-0"
140
0.03125
141
12.0
290
     0
  0
SCALE
  5
552
102
{ACAD_REACTORS
330
54D
102
}
330
54D
100
AcDbScale
 70
     0
300
1/16" = 1'-0"
140
0.0625
141
12.0
290
     0
  0
SCALE
  5
553
102
{ACAD_REACTORS
330
54D
102
}
330
54D
100
AcDbScale
 70
     0
300
3/32" = 1'-0"
140
0.09375
141
12.0
290
     0
  0
SCALE
  5
554
102
{ACAD_REACTORS
330
54D
102
}
330
54D
100
AcDbScale
 70
     0
300
1/8" = 1'-0"
140
0.125
141
12.0
290
     0
  0
SCALE
  5
555
102
{ACAD_REACTORS
330
54D
102
}
330
54D
100
AcDbScale
 70
     0
300
3/16" = 1'-0"
140
0.1875
141
12.0
290
     0
  0
SCALE
  5
556
102
{ACAD_REACTORS
330
54D
102
}
330
54D
100
AcDbScale
 70
     0
300
1/4" = 1'-0"
140
0.25
141
12.0
290
     0
  0
SCALE
  5
557
102
{ACAD_REACTORS
330
54D
102
}
330
54D
100
AcDbScale
 70
     0
300
3/8" = 1'-0"
140
0.375
141
12.0
290
     0
  0
SCALE
  5
558
102
{ACAD_REACTORS
330
54D
102
}
330
54D
100
AcDbScale
 70
     0
300
1/2" = 1'-0"
140
0.5
141
12.0
290
     0
  0
SCALE
  5
559
102
{ACAD_REACTORS
330
54D
102
}
330
54D
100
AcDbScale
 70
     0
300
3/4" = 1'-0"
140
0.75
141
12.0
290
     0
  0
SCALE
  5
55A
102
{ACAD_REACTORS
330
54D
102
}
330
54D
100
AcDbScale
 70
     0
300
1" = 1'-0"
140
1.0
141
12.0
290
     0
  0
SCALE
  5
55B
102
{ACAD_REACTORS
330
54D
102
}
330
54D
100
AcDbScale
 70
     0
300
1-1/2" = 1'-0"
140
1.5
141
12.0
290
     0
  0
SCALE
  5
55C
102
{ACAD_REACTORS
330
54D
102
}
330
54D
100
AcDbScale
 70
     0
300
3" = 1'-0"
140
3.0
141
12.0
290
     0
  0
SCALE
  5
55D
102
{ACAD_REACTORS
330
54D
102
}
330
54D
100
AcDbScale
 70
     0
300
6" = 1'-0"
140
6.0
141
12.0
290
     0
  0
SCALE
  5
55E
102
{ACAD_REACTORS
330
54D
102
}
330
54D
100
AcDbScale
 70
     0
300
1'-0" = 1'-0"
140
12.0
141
12.0
290
     0
  0
TABLESTYLE
  5
54C
102
{ACAD_XDICTIONARY
360
8F2
102
}
102
{ACAD_REACTORS
330
54B
102
}
330
54B
100
AcDbTableStyle
  3
Standard
 70
     0
 71
     0
 40
0.06
 41
0.06
280
     0
281
     0
  7
STANDARD
140
0.18
170
     2
 62
     0
 63
     7
283
     0
274
    -2
284
     1
 64
     0
275
    -2
285
     1
 65
     0
276
    -2
286
     1
 66
     0
277
    -2
287
     1
 67
     0
278
    -2
288
     1
 68
     0
279
    -2
289
     1
 69
     0
  7
STANDARD
140
0.25
170
     5
 62
     0
 63
     7
283
     0
274
    -2
284
     1
 64
     0
275
    -2
285
     1
 65
     0
276
    -2
286
     1
 66
     0
277
    -2
287
     1
 67
     0
278
    -2
288
     1
 68
     0
279
    -2
289
     1
 69
     0
  7
STANDARD
140
0.18
170
     5
 62
     0
 63
     7
283
     0
274
    -2
284
     1
 64
     0
275
    -2
285
     1
 65
     0
276
    -2
286
     1
 66
     0
277
    -2
287
     1
 67
     0
278
    -2
288
     1
 68
     0
279
    -2
289
     1
 69
     0
  0
VISUALSTYLE
  5
537
102
{ACAD_XDICTIONARY
360
903
102
}
102
{ACAD_REACTORS
330
531
102
}
330
531
100
AcDbVisualStyle
  2
2dWireframe
 70
     4
 71
     0
 72
     2
 73
     0
 90
        0
 40
-0.6
 41
-30.0
 62
     5
 63
     7
 74
     1
 91
        4
 64
     7
 65
   257
 75
     1
175
     1
 42
1.0
 92
        0
 66
   257
 43
1.0
 76
     1
 77
     6
 78
     2
 67
     7
 79
     5
170
     0
171
     0
290
     0
174
     0
 93
        1
 44
0.0
173
     0
291
     0
 45
0.0
1001
ACAD
1000
AcDbSavedByObjectVersion
1070
     0
  0
VISUALSTYLE
  5
536
102
{ACAD_XDICTIONARY
360
901
102
}
102
{ACAD_REACTORS
330
531
102
}
330
531
100
AcDbVisualStyle
  2
Basic
 70
     7
 71
     1
 72
     0
 73
     1
 90
        0
 40
-0.6
 41
-30.0
 62
     5
 63
     7
 74
     0
 91
        4
 64
     7
 65
   257
 75
     1
175
     1
 42
1.0
 92
        8
 66
     7
 43
1.0
 76
     1
 77
     6
 78
     2
 67
     7
 79
     5
170
     0
171
     0
290
     0
174
     0
 93
        1
 44
0.0
173
     0
291
     1
 45
0.0
1001
ACAD
1000
AcDbSavedByObjectVersion
1070
     0
  0
VISUALSTYLE
  5
53D
102
{ACAD_XDICTIONARY
360
90F
102
}
102
{ACAD_REACTORS
330
531
102
}
330
531
100
AcDbVisualStyle
  2
Brighten
 70
    12
 71
     2
 72
     2
 73
     0
 90
        0
 40
-0.6
 41
-30.0
 62
     5
 63
     7
 74
     1
 91
        4
 64
     7
 65
   257
 75
     1
175
     1
 42
1.0
 92
        8
 66
     7
 43
1.0
 76
     1
 77
     6
 78
     2
 67
     7
 79
     5
170
     0
171
     0
290
     0
174
     0
 93
        1
 44
50.0
173
     0
291
     1
 45
0.0
1001
ACAD
1000
AcDbSavedByObjectVersion
1070
     0
  0
VISUALSTYLE
  5
541
102
{ACAD_XDICTIONARY
360
917
102
}
102
{ACAD_REACTORS
330
531
102
}
330
531
100
AcDbVisualStyle
  2
ColorChange
 70
    16
 71
     2
 72
     2
 73
     3
 90
        0
 40
-0.6
 41
-30.0
 62
     5
 63
     8
 74
     1
 91
        4
 64
     7
 65
   257
 75
     1
175
     1
 42
1.0
 92
        8
 66
     8
 43
1.0
 76
     1
 77
     6
 78
     2
 67
     7
 79
     5
170
     0
171
     0
290
     0
174
     0
 93
        1
 44
0.0
173
     0
291
     1
 45
0.0
1001
ACAD
1000
AcDbSavedByObjectVersion
1070
     0
  0
VISUALSTYLE
  5
53A
102
{ACAD_XDICTIONARY
360
909
102
}
102
{ACAD_REACTORS
330
531
102
}
330
531
100
AcDbVisualStyle
  2
Conceptual
 70
     9
 71
     3
 72
     2
 73
     0
 90
        0
 40
-0.6
 41
-30.0
 62
     5
 63
     7
 74
     2
 91
        2
 64
     7
 65
   257
 75
     1
175
     1
 42
179.0
 92
        8
 66
     7
 43
1.0
 76
     1
 77
     6
 78
     2
 67
     7
 79
     3
170
     0
171
     0
290
     0
174
     0
 93
        1
 44
0.0
173
     0
291
     0
 45
0.0
1001
ACAD
1000
AcDbSavedByObjectVersion
1070
     0
  0
VISUALSTYLE
  5
53C
102
{ACAD_XDICTIONARY
360
90D
102
}
102
{ACAD_REACTORS
330
531
102
}
330
531
100
AcDbVisualStyle
  2
Dim
 70
    11
 71
     2
 72
     2
 73
     0
 90
        0
 40
-0.6
 41
-30.0
 62
     5
 63
     7
 74
     1
 91
        4
 64
     7
 65
   257
 75
     1
175
     1
 42
1.0
 92
        8
 66
     7
 43
1.0
 76
     1
 77
     6
 78
     2
 67
     7
 79
     5
170
     0
171
     0
290
     0
174
     0
 93
        1
 44
-50.0
173
     0
291
     1
 45
0.0
1001
ACAD
1000
AcDbSavedByObjectVersion
1070
     0
  0
VISUALSTYLE
  5
549
102
{ACAD_XDICTIONARY
360
927
102
}
102
{ACAD_REACTORS
330
531
102
}
330
531
100
AcDbVisualStyle
  2
EdgeColorOff
 70
    22
 71
     2
 72
     2
 73
     0
 90
        0
 40
-0.6
 41
-30.0
 62
     5
 63
     7
 74
     1
 91
        4
 64
     7
 65
   257
 75
     1
175
     1
 42
1.0
 92
        8
 66
     7
 43
1.0
 76
     1
 77
     6
 78
     2
 67
     7
 79
     5
170
     0
171
     0
290
     0
174
     0
 93
        1
 44
0.0
173
     0
291
     1
 45
0.0
1001
ACAD
1000
AcDbSavedByObjectVersion
1070
     0
  0
VISUALSTYLE
  5
540
102
{ACAD_XDICTIONARY
360
915
102
}
102
{ACAD_REACTORS
330
531
102
}
330
531
100
AcDbVisualStyle
  2
Facepattern
 70
    15
 71
     2
 72
     2
 73
     0
 90
        0
 40
-0.6
 41
-30.0
 62
     5
 63
     7
 74
     1
 91
        4
 64
     7
 65
   257
 75
     1
175
     1
 42
1.0
 92
        8
 66
     7
 43
1.0
 76
     1
 77
     6
 78
     2
 67
     7
 79
     5
170
     0
171
     0
290
     0
174
     0
 93
        1
 44
0.0
173
     0
291
     1
 45
0.0
1001
ACAD
1000
AcDbSavedByObjectVersion
1070
     0
  0
VISUALSTYLE
  5
532
102
{ACAD_XDICTIONARY
360
8F9
102
}
102
{ACAD_REACTORS
330
531
102
}
330
531
100
AcDbVisualStyle
  2
Flat
 70
     0
 71
     2
 72
     1
 73
     1
 90
        2
 40
-0.6
 41
30.0
 62
     5
 63
     7
 74
     0
 91
        0
 64
     7
 65
   257
 75
     1
175
     1
 42
1.0
 92
        8
 66
     7
 43
1.0
 76
     1
 77
     6
 78
     2
 67
     7
 79
     5
170
     0
171
     0
290
     0
174
     0
 93
       13
 44
0.0
173
     0
291
     1
 45
0.0
1001
ACAD
1000
AcDbSavedByObjectVersion
1070
     0
  0
VISUALSTYLE
  5
533
102
{ACAD_XDICTIONARY
360
8FB
102
}
102
{ACAD_REACTORS
330
531
102
}
330
531
100
AcDbVisualStyle
  2
FlatWithEdges
 70
     1
 71
     2
 72
     1
 73
     1
 90
        2
 40
-0.6
 41
30.0
 62
     5
 63
     7
 74
     1
 91
        0
 64
     7
 65
   257
 75
     1
175
     1
 42
1.0
 92
        0
 66
   257
 43
1.0
 76
     1
 77
     6
 78
     2
 67
     7
 79
     5
170
     0
171
     0
290
     0
174
     0
 93
       13
 44
0.0
173
     0
291
     1
 45
0.0
1001
ACAD
1000
AcDbSavedByObjectVersion
1070
     0
  0
VISUALSTYLE
  5
534
102
{ACAD_XDICTIONARY
360
8FD
102
}
102
{ACAD_REACTORS
330
531
102
}
330
531
100
AcDbVisualStyle
  2
Gouraud
 70
     2
 71
     2
 72
     2
 73
     1
 90
        2
 40
-0.6
 41
30.0
 62
     5
 63
     7
 74
     0
 91
        0
 64
     7
 65
   257
 75
     1
175
     1
 42
1.0
 92
        0
 66
     7
 43
1.0
 76
     1
 77
     6
 78
     2
 67
     7
 79
     5
170
     0
171
     0
290
     0
174
     0
 93
       13
 44
0.0
173
     0
291
     1
 45
0.0
1001
ACAD
1000
AcDbSavedByObjectVersion
1070
     0
  0
VISUALSTYLE
  5
535
102
{ACAD_XDICTIONARY
360
8FF
102
}
102
{ACAD_REACTORS
330
531
102
}
330
531
100
AcDbVisualStyle
  2
GouraudWithEdges
 70
     3
 71
     2
 72
     2
 73
     1
 90
        2
 40
-0.6
 41
30.0
 62
     5
 63
     7
 74
     1
 91
        0
 64
     7
 65
   257
 75
     1
175
     1
 42
1.0
 92
        0
 66
   257
 43
1.0
 76
     1
 77
     6
 78
     2
 67
     7
 79
     5
170
     0
171
     0
290
     0
174
     0
 93
       13
 44
0.0
173
     0
291
     1
 45
0.0
1001
ACAD
1000
AcDbSavedByObjectVersion
1070
     0
  0
VISUALSTYLE
  5
539
102
{ACAD_XDICTIONARY
360
907
102
}
102
{ACAD_REACTORS
330
531
102
}
330
531
100
AcDbVisualStyle
  2
Hidden
 70
     6
 71
     1
 72
     2
 73
     2
 90
        0
 40
-0.6
 41
-30.0
 62
     5
 63
     7
 74
     2
 91
        2
 64
     7
 65
   257
 75
     2
175
     1
 42
40.0
 92
        0
 66
   257
 43
1.0
 76
     1
 77
     6
 78
     2
 67
     7
 79
     3
170
     0
171
     0
290
     0
174
     0
 93
        1
 44
0.0
173
     0
291
     0
 45
0.0
1001
ACAD
1000
AcDbSavedByObjectVersion
1070
     0
  0
VISUALSTYLE
  5
547
102
{ACAD_XDICTIONARY
360
923
102
}
102
{ACAD_REACTORS
330
531
102
}
330
531
100
AcDbVisualStyle
  2
JitterOff
 70
    20
 71
     2
 72
     2
 73
     0
 90
        0
 40
-0.6
 41
-30.0
 62
     5
 63
     7
 74
     1
 91
        4
 64
     7
 65
   257
 75
     1
175
     1
 42
1.0
 92
       10
 66
     7
 43
1.0
 76
     1
 77
     6
 78
     2
 67
     7
 79
     5
170
     0
171
     0
290
     0
174
     0
 93
        1
 44
0.0
173
     0
291
     1
 45
0.0
1001
ACAD
1000
AcDbSavedByObjectVersion
1070
     0
  0
VISUALSTYLE
  5
53F
102
{ACAD_XDICTIONARY
360
913
102
}
102
{ACAD_REACTORS
330
531
102
}
330
531
100
AcDbVisualStyle
  2
Linepattern
 70
    14
 71
     2
 72
     2
 73
     0
 90
        0
 40
-0.6
 41
-30.0
 62
     5
 63
     7
 74
     1
 91
        4
 64
     7
 65
   257
 75
     7
175
     7
 42
1.0
 92
        8
 66
     7
 43
1.0
 76
     1
 77
     6
 78
     2
 67
     7
 79
     5
170
     0
171
     0
290
     0
174
     0
 93
        1
 44
0.0
173
     0
291
     1
 45
0.0
1001
ACAD
1000
AcDbSavedByObjectVersion
1070
     0
  0
VISUALSTYLE
  5
548
102
{ACAD_XDICTIONARY
360
925
102
}
102
{ACAD_REACTORS
330
531
102
}
330
531
100
AcDbVisualStyle
  2
OverhangOff
 70
    21
 71
     2
 72
     2
 73
     0
 90
        0
 40
-0.6
 41
-30.0
 62
     5
 63
     7
 74
     1
 91
        4
 64
     7
 65
   257
 75
     1
175
     1
 42
1.0
 92
        9
 66
     7
 43
1.0
 76
     1
 77
     6
 78
     2
 67
     7
 79
     5
170
     0
171
     0
290
     0
174
     0
 93
        1
 44
0.0
173
     0
291
     1
 45
0.0
1001
ACAD
1000
AcDbSavedByObjectVersion
1070
     0
  0
VISUALSTYLE
  5
53B
102
{ACAD_XDICTIONARY
360
90B
102
}
102
{ACAD_REACTORS
330
531
102
}
330
531
100
AcDbVisualStyle
  2
Realistic
 70
     8
 71
     2
 72
     3
 73
     0
 90
        2
 40
-0.6
 41
30.0
 62
     5
 63
     7
 74
     0
 91
        0
 64
     7
 65
   257
 75
     1
175
     1
 42
1.0
 92
        8
 66
   257
 43
1.0
 76
     1
 77
     6
 78
     2
 67
     7
 79
     3
170
     0
171
     0
290
     0
174
     0
 93
       13
 44
0.0
173
     0
291
     0
 45
0.0
1001
ACAD
1000
AcDbSavedByObjectVersion
1070
     0
  0
VISUALSTYLE
  5
546
102
{ACAD_XDICTIONARY
360
921
102
}
102
{ACAD_REACTORS
330
531
102
}
330
531
100
AcDbVisualStyle
  2
Shaded
 70
    27
 71
     2
 72
     2
 73
     1
 90
        2
 40
-0.6
 41
30.0
 62
     5
 63
     7
 74
     0
 91
        4
 64
     7
 65
   257
 75
     1
175
     1
 42
1.0
 92
        8
 66
   257
 43
1.0
 76
     1
 77
     6
 78
     2
 67
     8
 79
     3
170
     0
171
     0
290
     0
174
     0
 93
        5
 44
0.0
173
     0
291
     0
 45
0.0
1001
ACAD
1000
AcDbSavedByObjectVersion
1070
     0
  0
VISUALSTYLE
  5
545
102
{ACAD_XDICTIONARY
360
91F
102
}
102
{ACAD_REACTORS
330
531
102
}
330
531
100
AcDbVisualStyle
  2
Shaded with edges
 70
    26
 71
     2
 72
     2
 73
     1
 90
        2
 40
-0.6
 41
30.0
 62
     5
 63
     7
 74
     1
 91
       10
 64
     7
 65
   257
 75
     2
175
     1
 42
1.0
 92
        8
 66
   257
 43
1.0
 76
     1
 77
     6
 78
     2
 67
     7
 79
     3
170
     0
171
     0
290
     0
174
     0
 93
        5
 44
0.0
173
     0
291
     0
 45
0.0
1001
ACAD
1000
AcDbSavedByObjectVersion
1070
     0
  0
VISUALSTYLE
  5
542
102
{ACAD_XDICTIONARY
360
919
102
}
102
{ACAD_REACTORS
330
531
102
}
330
531
100
AcDbVisualStyle
  2
Shades of Gray
 70
    23
 71
     2
 72
     2
 73
     3
 90
        0
 40
-0.6
 41
-30.0
 62
     5
 63
     7
 74
     2
 91
        2
 64
     7
 65
     7
 75
     1
175
     1
 42
40.0
 92
        8
 66
     7
 43
1.0
 76
     1
 77
     6
 78
     2
 67
     7
 79
     3
170
     0
171
     0
290
     0
174
     0
 93
        1
 44
0.0
173
     0
291
     0
 45
0.0
1001
ACAD
1000
AcDbSavedByObjectVersion
1070
     0
  0
VISUALSTYLE
  5
543
102
{ACAD_XDICTIONARY
360
91B
102
}
102
{ACAD_REACTORS
330
531
102
}
330
531
100
AcDbVisualStyle
  2
Sketchy
 70
    24
 71
     1
 72
     2
 73
     2
 90
        0
 40
-0.6
 41
-30.0
 62
     5
 63
     7
 74
     2
 91
        2
 64
     7
 65
     7
 75
     1
175
     1
 42
40.0
 92
       11
 66
     7
 43
1.0
 76
     1
 77
     6
 78
     2
 67
     7
 79
     6
170
     0
171
     0
290
     0
174
     0
 93
        1
 44
0.0
173
     0
291
     0
 45
0.0
1001
ACAD
1000
AcDbSavedByObjectVersion
1070
     0
  0
VISUALSTYLE
  5
53E
102
{ACAD_XDICTIONARY
360
911
102
}
102
{ACAD_REACTORS
330
531
102
}
330
531
100
AcDbVisualStyle
  2
Thicken
 70
    13
 71
     2
 72
     2
 73
     0
 90
        0
 40
-0.6
 41
-30.0
 62
     5
 63
     7
 74
     1
 91
        4
 64
     7
 65
   257
 75
     1
175
     1
 42
1.0
 92
       12
 66
     7
 43
1.0
 76
     1
 77
     6
 78
     2
 67
     7
 79
     5
170
     0
171
     0
290
     0
174
     0
 93
        1
 44
0.0
173
     0
291
     1
 45
0.0
1001
ACAD
1000
AcDbSavedByObjectVersion
1070
     0
  0
VISUALSTYLE
  5
538
102
{ACAD_XDICTIONARY
360
905
102
}
102
{ACAD_REACTORS
330
531
102
}
330
531
100
AcDbVisualStyle
  2
Wireframe
 70
     5
 71
     0
 72
     2
 73
     0
 90
        0
 40
-0.6
 41
-30.0
 62
     5
 63
     7
 74
     1
 91
        4
 64
     7
 65
   257
 75
     1
175
     1
 42
1.0
 92
        0
 66
   257
 43
1.0
 76
     1
 77
     6
 78
     2
 67
     7
 79
     3
170
     0
171
     0
290
     0
174
     0
 93
        1
 44
0.0
173
     0
291
     0
 45
0.0
1001
ACAD
1000
AcDbSavedByObjectVersion
1070
     0
  0
VISUALSTYLE
  5
544
102
{ACAD_XDICTIONARY
360
91D
102
}
102
{ACAD_REACTORS
330
531
102
}
330
531
100
AcDbVisualStyle
  2
X-Ray
 70
    25
 71
     2
 72
     2
 73
     1
 90
        1
 40
0.5
 41
-30.0
 62
     5
 63
     7
 74
     1
 91
        0
 64
     7
 65
   257
 75
     1
175
     1
 42
1.0
 92
        8
 66
     7
 43
1.0
 76
     1
 77
     6
 78
     2
 67
     7
 79
     3
170
     0
171
     0
290
     0
174
     0
 93
       13
 44
0.0
173
     0
291
     0
 45
0.0
1001
ACAD
1000
AcDbSavedByObjectVersion
1070
     0
  0
DICTIONARYVAR
  5
594
102
{ACAD_REACTORS
330
590
102
}
330
590
100
DictionaryVariables
280
     0
  1
1:1
  0
DICTIONARYVAR
  5
592
102
{ACAD_REACTORS
330
590
102
}
330
590
100
DictionaryVariables
280
     0
  1
STANDARD
  0
DICTIONARYVAR
  5
591
102
{ACAD_REACTORS
330
590
102
}
330
590
100
DictionaryVariables
280
     0
  1
STANDARD
  0
DICTIONARYVAR
  5
89A
102
{ACAD_REACTORS
330
590
102
}
330
590
100
DictionaryVariables
280
     0
  1
1
  0
DICTIONARYVAR
  5
899
102
{ACAD_REACTORS
330
590
102
}
330
590
100
DictionaryVariables
280
     0
  1
0
  0
DICTIONARYVAR
  5
596
102
{ACAD_REACTORS
330
590
102
}
330
590
100
DictionaryVariables
280
     0
  1
1
  0
DICTIONARYVAR
  5
597
102
{ACAD_REACTORS
330
590
102
}
330
590
100
DictionaryVariables
280
     0
  1
15
  0
DICTIONARYVAR
  5
595
102
{ACAD_REACTORS
330
590
102
}
330
590
100
DictionaryVariables
280
     0
  1
0
  0
DICTIONARYVAR
  5
593
102
{ACAD_REACTORS
330
590
102
}
330
590
100
DictionaryVariables
280
     0
  1
0
  0
DICTIONARYVAR
  5
898
102
{ACAD_REACTORS
330
590
102
}
330
590
100
DictionaryVariables
280
     0
  1
127
  0
DICTIONARYVAR
  5
89B
102
{ACAD_REACTORS
330
590
102
}
330
590
100
DictionaryVariables
280
     0
  1
2
  0
DICTIONARY
  5
58E
330
563
100
AcDbDictionary
280
     1
281
     1
  3
ACAD_XREC_ROUNDTRIP
360
92B
  3
ADSK_XREC_LAYOUTTHUMBNAIL
360
58F
  0
DICTIONARY
  5
92C
330
564
100
AcDbDictionary
280
     1
281
     1
  3
ACAD_XREC_ROUNDTRIP
360
92D
  0
DICTIONARY
  5
522
330
521
100
AcDbDictionary
280
     1
281
     1
  3
ACAD_XREC_ROUNDTRIP
360
8F7
  3
BUMPTILE
360
524
  3
DIFFUSETILE
360
523
  3
OPACITYTILE
360
527
  3
REFLECTIONTILE
360
526
  3
REFRACTIONTILE
360
528
  3
SPECULARTILE
360
525
  0
DICTIONARY
  5
51A
330
519
100
AcDbDictionary
280
     1
281
     1
  3
ACAD_XREC_ROUNDTRIP
360
8F6
  3
BUMPTILE
360
51C
  3
DIFFUSETILE
360
51B
  3
OPACITYTILE
360
51F
  3
REFLECTIONTILE
360
51E
  3
REFRACTIONTILE
360
520
  3
SPECULARTILE
360
51D
  0
DICTIONARY
  5
52A
330
529
100
AcDbDictionary
280
     1
281
     1
  3
ACAD_XREC_ROUNDTRIP
360
8F8
  3
BUMPTILE
360
52C
  3
DIFFUSETILE
360
52B
  3
OPACITYTILE
360
52F
  3
REFLECTIONTILE
360
52E
  3
REFRACTIONTILE
360
530
  3
SPECULARTILE
360
52D
  0
DICTIONARY
  5
8F2
330
54C
100
AcDbDictionary
280
     1
281
     1
  3
ACAD_ROUNDTRIP_2008_TABLESTYLE_CELLSTYLEMAP
360
8F3
  3
ACAD_XREC_ROUNDTRIP
360
929
  0
DICTIONARY
  5
903
330
537
100
AcDbDictionary
280
     1
281
     1
  3
ACAD_XREC_ROUNDTRIP
360
904
  0
DICTIONARY
  5
901
330
536
100
AcDbDictionary
280
     1
281
     1
  3
ACAD_XREC_ROUNDTRIP
360
902
  0
DICTIONARY
  5
90F
330
53D
100
AcDbDictionary
280
     1
281
     1
  3
ACAD_XREC_ROUNDTRIP
360
910
  0
DICTIONARY
  5
917
330
541
100
AcDbDictionary
280
     1
281
     1
  3
ACAD_XREC_ROUNDTRIP
360
918
  0
DICTIONARY
  5
909
330
53A
100
AcDbDictionary
280
     1
281
     1
  3
ACAD_XREC_ROUNDTRIP
360
90A
  0
DICTIONARY
  5
90D
330
53C
100
AcDbDictionary
280
     1
281
     1
  3
ACAD_XREC_ROUNDTRIP
360
90E
  0
DICTIONARY
  5
927
330
549
100
AcDbDictionary
280
     1
281
     1
  3
ACAD_XREC_ROUNDTRIP
360
928
  0
DICTIONARY
  5
915
330
540
100
AcDbDictionary
280
     1
281
     1
  3
ACAD_XREC_ROUNDTRIP
360
916
  0
DICTIONARY
  5
8F9
330
532
100
AcDbDictionary
280
     1
281
     1
  3
ACAD_XREC_ROUNDTRIP
360
8FA
  0
DICTIONARY
  5
8FB
330
533
100
AcDbDictionary
280
     1
281
     1
  3
ACAD_XREC_ROUNDTRIP
360
8FC
  0
DICTIONARY
  5
8FD
330
534
100
AcDbDictionary
280
     1
281
     1
  3
ACAD_XREC_ROUNDTRIP
360
8FE
  0
DICTIONARY
  5
8FF
330
535
100
AcDbDictionary
280
     1
281
     1
  3
ACAD_XREC_ROUNDTRIP
360
900
  0
DICTIONARY
  5
907
330
539
100
AcDbDictionary
280
     1
281
     1
  3
ACAD_XREC_ROUNDTRIP
360
908
  0
DICTIONARY
  5
923
330
547
100
AcDbDictionary
280
     1
281
     1
  3
ACAD_XREC_ROUNDTRIP
360
924
  0
DICTIONARY
  5
913
330
53F
100
AcDbDictionary
280
     1
281
     1
  3
ACAD_XREC_ROUNDTRIP
360
914
  0
DICTIONARY
  5
925
330
548
100
AcDbDictionary
280
     1
281
     1
  3
ACAD_XREC_ROUNDTRIP
360
926
  0
DICTIONARY
  5
90B
330
53B
100
AcDbDictionary
280
     1
281
     1
  3
ACAD_XREC_ROUNDTRIP
360
90C
  0
DICTIONARY
  5
921
330
546
100
AcDbDictionary
280
     1
281
     1
  3
ACAD_XREC_ROUNDTRIP
360
922
  0
DICTIONARY
  5
91F
330
545
100
AcDbDictionary
280
     1
281
     1
  3
ACAD_XREC_ROUNDTRIP
360
920
  0
DICTIONARY
  5
919
330
542
100
AcDbDictionary
280
     1
281
     1
  3
ACAD_XREC_ROUNDTRIP
360
91A
  0
DICTIONARY
  5
91B
330
543
100
AcDbDictionary
280
     1
281
     1
  3
ACAD_XREC_ROUNDTRIP
360
91C
  0
DICTIONARY
  5
911
330
53E
100
AcDbDictionary
280
     1
281
     1
  3
ACAD_XREC_ROUNDTRIP
360
912
  0
DICTIONARY
  5
905
330
538
100
AcDbDictionary
280
     1
281
     1
  3
ACAD_XREC_ROUNDTRIP
360
906
  0
DICTIONARY
  5
91D
330
544
100
AcDbDictionary
280
     1
281
     1
  3
ACAD_XREC_ROUNDTRIP
360
91E
  0
XRECORD
  5
92B
102
{ACAD_REACTORS
330
58E
102
}
330
58E
100
AcDbXrecord
280
     1
102
SHADEPLOT
 70
     0
102
SHADEPLOTRESLEVEL
 70
     2
102
SHADEPLOTCUSTOMDPI
 70
   300
  0
XRECORD
  5
58F
102
{ACAD_REACTORS
330
58E
102
}
330
58E
100
AcDbXrecord
280
     1
310
28000000000100008C0000000100080000000000008C0000000000000000000000010000000000001414070000000000FFFFFF000000000000000000000000000000000000000000000000000000000000000000330000006600000099000000CC000000FF00000000330000333300006633000099330000CC330000FF3300
310
0000660000336600006666000099660000CC660000FF66000000990000339900006699000099990000CC990000FF99000000CC000033CC000066CC000099CC0000CCCC0000FFCC000000FF000033FF000066FF000099FF0000CCFF0000FFFF000000003300330033006600330099003300CC003300FF003300003333003333
310
33006633330099333300CC333300FF33330000663300336633006666330099663300CC663300FF66330000993300339933006699330099993300CC993300FF99330000CC330033CC330066CC330099CC3300CCCC3300FFCC330000FF330033FF330066FF330099FF3300CCFF3300FFFF330000006600330066006600660099
310
006600CC006600FF00660000336600333366006633660099336600CC336600FF33660000666600336666006666660099666600CC666600FF66660000996600339966006699660099996600CC996600FF99660000CC660033CC660066CC660099CC6600CCCC6600FFCC660000FF660033FF660066FF660099FF6600CCFF6600
310
FFFF660000009900330099006600990099009900CC009900FF00990000339900333399006633990099339900CC339900FF33990000669900336699006666990099669900CC669900FF66990000999900339999006699990099999900CC999900FF99990000CC990033CC990066CC990099CC9900CCCC9900FFCC990000FF99
310
0033FF990066FF990099FF9900CCFF9900FFFF99000000CC003300CC006600CC009900CC00CC00CC00FF00CC000033CC003333CC006633CC009933CC00CC33CC00FF33CC000066CC003366CC006666CC009966CC00CC66CC00FF66CC000099CC003399CC006699CC009999CC00CC99CC00FF99CC0000CCCC0033CCCC0066CC
310
CC0099CCCC00CCCCCC00FFCCCC0000FFCC0033FFCC0066FFCC0099FFCC00CCFFCC00FFFFCC000000FF003300FF006600FF009900FF00CC00FF00FF00FF000033FF003333FF006633FF009933FF00CC33FF00FF33FF000066FF003366FF006666FF009966FF00CC66FF00FF66FF000099FF003399FF006699FF009999FF00CC
310
99FF00FF99FF0000CCFF0033CCFF0066CCFF0099CCFF00CCCCFF00FFCCFF0000FFFF0033FFFF0066FFFF0099FFFF00CCFFFF00FFFFFF00000000000D0D0D001A1A1A00282828003535350043434300505050005D5D5D006B6B6B00787878008686860093939300A1A1A100AEAEAE00BBBBBB00C9C9C900D6D6D600E4E4E400
310
F1F1F100FFFFFF000000000000000000000000000000000000000000000000000000000000000000000000000000000000000000000000000000000000000000000000000000000000000000000000000000000000000000000000000000000000000000000000000000000000000000000000000000000000000000000000
310
00000000000000000000000000000000000000000000000000000000000000000000000000000000000000000000000000000000000000000000000000000000000000000000000000000000000000000000000000000000000000000000000000000000000000000000000000000000000000000000000000000000000000
310
00000000000000000000000000000000000000000000000000000000000000000000000000000000000000000000000000000000000000000000000000000000000000000000000000000000000000000000000000000000000000EC0000000000000000000000000000000000000000000000000000000000000000000000
310
00000000000000000000000000000000000000000000000000000000000000000000000000000000000000000000000000000000000000000000000000000000000000000000000000000000000000000000000000000000000000000000000000000000000000000000000000000000000000000000000000000000000000
310
000000000000000000000000000000000000000000000000000000000000000000000000000000000000000000000000000000000000000000000000000000000000000000000000000000000000000000000000000000000000000000EC000000000000000000000000000000000000000000000000000000000000000000
310
00000000000000000000000000000000000000000000000000000000000000000000000000000000000000000000000000000000000000000000000000000000000000000000000000000000000000000000000000000000000000000000000000000000000000000000000000000000000000000000000000000000000000
310
0000000000000000000000000000000000000000000000000000000000000000000000000000000000000000000000000000000000000000000000000000000000000000000000000000000000000000000000000000000000000000000000EC00000000000000000000000000000000000000000000000000000000000000
310
00000000000000000000000000000000000000000000000000000000000000000000000000000000000000000000000000000000000000000000000000000000000000000000000000000000000000000000000000000000000000000000000000000000000000000000000000000000000000000000000000000000000000
310
00000000000000000000000000000000000000000000000000000000000000000000000000000000000000000000000000000000000000000000000000000000000000000000000000000000000000000000000000000000000000000000000000EC0000000000000000000000000000000000000000000000000000000000
310
00000000000000000000000000000000000000000000000000000000000000000000000000000000000000000000000000000000000000000000000000000000000000000000000000000000000000000000000000000000000000000000000000000000000000000000000000000000000000000000000000000000000000
310
000000000000000000000000000000000000000000000000000000000000000000000000000000000000000000000000000000000000000000000000000000000000000000000000000000000000000000000000000000000000000000000000000000EC000000000000000000000000000000000000000000000000000000
310
00000000000000000000000000000000000000000000000000000000000000000000000000000000000000000000000000000000000000000000000000000000000000000000000000000000000000000000000000000000000000000000000000000000000000000000000000000000000000000000000000000000000000
310
0000000000000000000000000000000000000000000000000000000000000000000000000000000000000000000000000000000000000000000000000000000000000000000000000000000000000000000000000000000000000000000000000000000000EC00000000000000000000000000000000000000000000000000
310
00000000000000000000000000000000000000000000000000000000000000000000000000000000000000000000000000000000000000000000000000000000000000000000000000000000000000000000000000000000000000000000000000000000000000000000000000000000000000000000000000000000000000
310
00000000000000000000000000000000000000000000000000000000000000000000000000000000000000000000000000000000000000000000000000000000000000000000000000000000000000000000000000000000000000000000000000000000000000EC0000000000000000000000000000000000000000000000
310
00000000000000000000000000000000000000000000000000000000000000000000000000000000000000000000000000000000000000000000000000000000000000000000000000000000000000000000000000000000000000000000000000000000000000000000000000000000000000000000000000000000000000
310
000000000000000000000000000000000000000000000000000000000000000000000000000000000000000000000000000000000000000000000000000000000000000000000000000000000000000000000000000000000000000000000000000000000000000000EC000000000000000000000000000000000000000000
310
00000000000000000000000000000000000000000000000000000000000000000000000000000000000000000000000000000000000000000000000000000000000000000000000000000000000000000000000000000000000000000000000000000000000000000000000000000000000000000000000000000000000000
310
000000000000000000000000000000000000000000000000000000000000000000000000000000000000000000000000000000000000000000000000000000000000000000000000000000000000000000000000000000000000000000000000000000ECECECECECECECECECECECECECECECECECECECECECECECECECECECEC
310
ECECECECECECECECECECECECECECECECECECECECECECECECECECECECECECECECECECECECECECECECECECECECECECECECECECECECECECECECECECECECECECECECECECECECECECECECECECECECECECECECECECECECECECECECECECECECECECECECECECECECECECECECECECECECECECECECECECECECECECECECECECECECECECEC
310
ECECECECECECECECECECECECECECECECECECECECECECECECECECEC00000000000000000000000000000000000000000000000000000000000000000000000000000000000000000000000000000000000000000000000000000000000000000000000000000000000000000000EC0000000000000000000000000000000000
310
00000000000000000000000000000000000000000000000000000000000000000000000000000000000000000000000000000000000000000000000000000000000000000000000000000000000000000000000000000000000000000000000000000000000000000000000000000000000000000000000000000000000000
310
00000000000000000000000000000000000000000000000000000000EC00000000000000000000000000000000000000000000000000000000000000000000000000000000000000000000000000000000000000000000000000000000000000000000000000000000000000000000EC000000000000000000000000000000
310
00000000000000000000000000000000000000000000000000000000000000000000000000000000000000000000000000000000000000000000000000000000000000000000000000000000000000000000000000000000000000000000000000000000000000000000000000000000000000000000000000000000000000
310
000000000000000000000000000000000000000000000000000000000000EC00000000000000000000000000000000000000000000000000000000000000000000000000000000000000000000000000000000000000000000000000000000000000000000000000000000000000000000EC00000000000000000000000000
310
00000000000000000000000000000000000000000000000000000000000000000000000000000000000000000000000000000000000000000000000000000000000000000000000000000000000000000000000000000000000000000000000000000000000000000000000000000000000000000000000000000000000000
310
0000000000000000000000000000000000000000000000000000000000000000EC00000000000000000000000000000000000000000000000000000000000000000000000000000000000000000000000000000000000000000000000000000000000000000000000000000000000000000000EC0000000000000000000000
310
00000000000000000000000000000000000000000000000000000000000000000000000000000000000000000000000000000000000000000000000000000000000000000000000000000000000000000000000000000000000000000000000000000000000000000000000000000000000000000000000000000000000000
310
00000000000000000000000000000000000000000000000000000000000000000000EC00000000000000000000000000000000000000000000000000000000000000000000000000000000000000000000000000000000000000000000000000000000000000000000000000000000000000000000EC000000000000000000
310
0F2D2D2D2D0F0F2D2D0F2D2D2D0F2D2D0F0F2D2D0F0F0F2D2D2D2D2D2D0F2D2D2D2D2D0F0F0F0F0F0F0F0F0F0F0F0F0F0F0F0F0F0F0F0F0F0F0F0F0F0F0F0F0F0F0F0F0F0F0F0F0F0F0F0F0F0F2D2D2D2D2D2D2D2D2D2D0F0F0F0F0F0F0F0F0F0F0F0F0F0F0F0F0F0F0F0F0F0F0F0F0F0F0F0F0F0F0F0F0F0F0F0F0F0F0F0F
310
0F0F0F0F0F0F0F0F0F0F0F0F0F0F0F0F0F0F0F0F0F0F0F0F0F0F0F0F0F0F0F0F00000000EC00000000000000000000000000000000000000000000000000000000000000000000000000000000000000000000000000000000000000000000000000000000000000000000000000000000000000000000EC00000000000000
310
00000F2D2D2D2D0F2D2D2D00002D2D002D2D00002D2D000F2D2D002D2D2D2D0F2D2D2D2D2D2D0000000000000000000F00000000000F0000000000000F0000000000000F00000000000F2D2D2D00002D2D2D2D2D2D2D2D2D2D00000F2D2D2D2D00002D2D2D2D2D2D2D2D2D2D2D0000002D2D2D2D0000000000000000000000
310
000000000000002D2D2D2D2D0000000000000000000000000000000000000000000F00000000EC00000000000000000000000000000000000000000000000000000000000000000000000000000000000000000000000000000000000000000000000000000000000000000000000000000000000000000000EC0000000000
310
000000000F2D2D0F0F0F0F2D2D0F2D2D2D0F2D2D0F0F2D2D0F0F2D2D0F2D2D2D2D0F2D2D2D2D2D0F0000000000000000000F00000000000F0000000000000F0000000000000F00000000000F2D2D2D00002D2D2D2D2D2D2D2D2D2D00000F2D002D0000002D2D2D2D2D2D002D002D000000002D2D2D2D000000000000000000
310
0000000000000000002D2D2D2D2D0000000000000000000000000000000000000000000F00000000EC00000000000000000000000000000000000000000000000000000000000000000000000000000000000000000000000000000000000000000000000000000000000000000000000000000000000000000000EC000000
310
0000000000000F0F2D2D0F0F0000000000000000000000000000000F000000000000000F00000000000F0000000000000000000F00000000000F0000000000000F0000000000000F00000000000F0F0F0F0F0F0F0F0F0F0F0F0F0F0F0F0F0F0F2D2D0F0F0F0F0F0F0F0F0F0F0F0F0F0F0F0F0F0F2D2D0F0F0F0F0F0F0F0F0F
310
0F0F0F0F0F0F0F2D2D0F0F0F0F0F0F0F0F0F0F0F0F0F0F0F0F0F0F0F0F0F0F0F0F0F0F0F0F0F00000000EC00000000000000000000000000000000000000000000000000000000000000000000000000000000000000000000000000000000000000000000000000000000000000000000000000000000000000000000EC00
310
00000000000000000F0F2D000F0F0000000000000000000000000000000F000000000000000F00000000000F0000000000000000000F00000000000F0000000000000F0000000000000F00000000000F2D2D00000000002D2D2D2D0000000000000F2D2D00000000002D2D2D2D2D2D2D0000000000002D2D00000000000000
310
00000000000000000F2D2D00000000000000000000002D2D2D2D000000000000000000000000000F00000000EC00000000000000000000000000000000000000000000000000000000000000000000000000000000000000000000000000000000000000000000000000000000000000000000000000000000000000000000
310
EC0000000000000000000F0F2D2D0F0F0F0F0F0F0F0F0F0F0F0F0F0F0F0F0F0F0F0F0F0F0F0F0F0F0F0F0F0F0F0F0000000000000000000F2D2D002D2D0F002D2D002D2D0F2D2D002D2D000F2D2D002D2D0F2D2D00000000002D2D2D000000000000000F2D2D00000000002D2D2D2D2D2D2D0000000000002D2D0000000000
310
000000000000000000000F2D2D00000000000000000000002D2D2D2D000000000000000000000000000F00000000EC0000000000000000000000000000000000000000000000000000000000000000000000000000000000000000000000000000000000000000000000000000000000000000000000000000000000000000
310
0000EC0000000000000000000F0F2D2D0F0F0000000000000000000000000000000F000000000000000F00000000000F0000000000000000000F2D2D002D2D0F002D2D002D2D0F2D2D002D2D000F2D2D002D2D0F2D2D0000000000000000000000000000000F2D2D0000000000000000000000000000000000002D2D000000
310
0000000000000000000000000F2D2D000000000000000000000000000000000000000000000000000000000F00000000EC000000000000000000000000000000000000000000000000000000000000000000000000000000000000000000000000000000000000000000000000000000000000000000000000000000000000
310
00000000EC0000000000000000000F0F2D2D0F0F0F0F0F0F0F0F0F0F0F0F0F0F0F0F0F0F0F0F0F0F0F0F0F0F0F0F0F0F0F0F0000000000000000000F0F0F0F0F0F0F0F0F0F0F0F0F0F0F0F0F0F0F0F0F0F0F0F0F0F0F0F0F0F0F0F0F0F0F0F0F0F0F0F0F0F0F0F0F0F0F0F0F0F0F0F0F0F0F0F0F0F0F0F0F0F2D2D0F0F2D2D
310
0F0F0F2D2D2D0F0F0F0F0F2D2D2D0F0F2D2D0F0F0F0F0F2D2D2D2D0F2D2D0F0F2D2D0F0F0F2D2D0F0F0F2D0F0F0F00000000EC00000000000000000000000000000000000000000000000000000000000000000000000000000000000000000000000000000000000000000000000000000000000000000000000000000000
310
000000000000EC0000000000000000000F0F2D2D0F0F0000000000000000000000000000000F000000000000000F00000000000F00000000000000000000000000000000000000000000000000000000000000000000000000000000000000000000000000000000000000000000000000000000000000000F0F002D2D0000
310
2D2D00000F2D2D2D0F000000002D2D2D00002D2D000000000F2D2D2D2D002D2D00002D2D000F002D2D00002D2D2D000F00000000EC0000000000000000000000000000000000000000000000000000000000000000000000000000000000000000000000000000000000000000000000000000000000000000000000000000
310
0000000000000000EC0000000000000000000F0F2D2D0F0F0F0F0F0F0F0F0F0F0F0F0F0F0F0F0F0F0F0F0F0F0F0F0F0F0F0F0F0F0F0F00000000000000000000000000000000000000000000000000000000000000000000000000000000000000000000000000000000000000000000000000000000000000000F0F0F0F0F
310
0F0F0F0F0F0F0F0F0F0F0F0F0F0F0F0F0F0F0F0F0F0F0F0F0F0F0F0F0F0F0F0F0F0F0F0F0F0F0F0F0F0F0F0F0F0F0F0F0F0F00000000EC000000000000000000000000000000000000000000000000000000000000000000000000000000000000000000000000000000000000000000000000000000000000000000000000
310
00000000000000000000EC0000000000000000000F0F0F0F0F0F0F0F0F0F0F0F0F0F0F0F0F0F0F0F0F0F0F0F0F0F0F0F0F0F0F0F0F0F0F0F0000000000000000000000000000000000000000000000000000000000000000000000000000000000000000000000000000000000000000000000000000000000000000000000
310
0000000000000000000000000000000000000000000000000000000000000000000000000000000000000000000000000000000F00000000EC00000000000000000000000000000000000000000000000000000000000000000000000000000000000000000000000000000000000000000000000000000000000000000000
310
000000000000000000000000EC0000000000000000000F0F00000000000000000000000000000000000000000000000000000000000000000000000000000000000000000000000000000000000000000000000000000000000000000000000000000000000000000000000000000000000000000000000000000000000000
310
00000000000000000000000000000000000000000000000000000000000000000000000000000000000000000000000000000000000F00000000EC0000000000000000000000000000000000000000000000000000000000000000000000000000000000000000000000000000000000000000000000000000000000000000
310
0000000000000000000000000000EC0000000000000000000F0F0000000000000000000000000000000000000000000000000000000000000000000000000000000000000000000000000000000000000000000000000000000000000000000000000000000000000000000000000000000000000000000000000000000000
310
000000000000000000000000000000000000000000000000000000000000000000000000000000000000000000000000000000000000000F00000000EC000000000000000000000000000000000000000000000000000000000000000000000000000000000000000000000000000000000000000000000000000000000000
310
00000000000000000000000000000000EC0000000000000000000F0F000000000000000000000000000000000000000000000000000000000000000000000000000000000000000000000000000000000000000000000000000000000000000000000000000000000000000000000000000000000000000000000000000000
310
0000000000000000000000000000000000000000000000000000000000000000000000000000000000000000000000000000000000000000000F00000000EC00000000000000000000000000000000000000000000000000000000000000000000000000000000000000000000000000000000000000000000000000000000
310
000000000000000000000000000000000000EC0000000000000000000F0F00000000000000000000000000000000000000000000000000000000000000000000000000000000000000000000000000000000000000000000000000000000000000000000000000000000000000000000000000000000000000000000000000
310
00000000000000000000000000000000000000000000000000000000000000000000000000000000000000000000000000000000000000000000000F00000000EC0000000000000000000000000000000000000000000000000000000000000000000000000000000000000000000000000000000000000000000000000000
310
0000000000000000000000000000000000000000EC0000000000000000000F0F0000000000000000000000000000000000000000000000000000000000000000000000000000000000000000000000000000000000000000000000000000000000000000000000000000000000000000000000000000000000000000000000
310
000000000000000000000000000000000000000000000000000000000000000000000000000000000000000000000000000000000000000000000000000F00000000EC000000000000000000000000000000000000000000000000000000000000000000000000000000000000000000000000000000000000000000000000
310
00000000000000000000000000000000000000000000EC0000000000000000000F0F00000000000000000000000000000000000000000000000000000000000000002D2D002D2D2D2D2D2D002D2D2D2D2D2D2D2D2D2D2D2D002D2D2D2D2D002D002D2D2D2D002D000000000000000000000000000000000000000000000000
310
0000000000000000000000000000000000000000000000000000000000000000000000000000000000000000000000000000000000000000000000000000000F00000000EC00000000000000000000000000000000000000000000000000000000000000000000000000000000000000000000000000000000000000000000
310
000000000000000000000000000000000000000000000000EC0000000000000000000F0F00000000000000000000000000000000000000000000000000000000000000002D2D2D2D2D2D2D2D2D2D2D2D2D2D2D2D2D2D2D2D2D2D002D2D2D2D2D2D2D2D2D2D2D2D2D2D00000000000000000000000000000000000000000000
310
00000000000000000000000000000000000000000000000000000000000000000000000000000000000000000000000000000000000000000000000000000000000F00000000EC0000000000000000000000000000000000000000000000000000000000000000000000000000000000000000000000000000000000000000
310
0000000000000000000000000000000000000000000000000000EC0000000000000000000F0F0000000000000000000000000000000000000000000000000000000000000000000000000000000000000000000000000000000000000000000000000000000000000000000000000000000000000000000000000000000000
310
000000000000000000000000000000000000000000000000000000000000000000000000000000000000000000000000000000000000000000000000000000000000000F00000000EC000000000000000000000000000000000000000000000000000000000000000000000000000000000000000000000000000000000000
310
00000000000000000000000000000000000000000000000000000000EC0000000000000000000F0F00000000000000000000000000000000000000000000000000000000000000002D2D2D2D2D2D2D2D2D2D2D2D2D2D2D2D2D2D2D2D2D2D2D2D2D2D2D2D000000000000000000000000000000000000000000000000000000
310
0000000000000000000000000000000000000000000000000000000000000000000000000000000000000000000000000000000000000000000000000000000000000000000F00000000EC00000000000000000000000000000000000000000000000000000000000000000000000000000000000000000000000000000000
310
000000000000000000000000000000000000000000000000000000000000EC0000000000000000000F0F00000000000000000000000000000000000000000000000000000000000000002D2D2D2D2D2D2D2D2D2D2D2D2D2D2D2D2D2D2D2D2D2D2D2D2D2D2D2D00000000000000000000000000000000000000000000000000
310
00000000000000000000000000000000000000000000000000000000000000000000000000000000000000000000000000000000000000000000000000000000000000000000000F00000000EC0000000000000000000000000000000000000000000000000000000000000000000000000000000000000000000000000000
310
0000000000000000000000000000000000000000000000000000000000000000EC0000000000000000000F0F0000000000000000000000000000000000000000000000000000000000000000002D2D2D2D2D2D2D2D2D2D2D002D2D002D2D2D2D2D2D2D2D2D2D2D2D002D000000000000000000000000000000000000000000
310
000000000000000000000000000000000000000000000000000000000000000000000000000000000000000000000000000000000000000000000000000000000000000000000000000F00000000EC000000000000000000000000000000000000000000000000000000000000000000000000000000000000000000000000
310
00000000000000000000000000000000000000000000000000000000000000000000EC0000000000000000000F0F0000000000000000000000000000000000000000000000000000000000000000002D2D2D2D2D2D2D2D2D2D2D2D2D2D2D2D2D2D2D2D2D2D2D2D2D2D2D2D0000000000000000000000000000000000000000
310
0000000000000000000000000000000000000000000000000000000000000000000000000000000000000000000000000000000000000000000000000000000000000000000000000000000F00000000EC00000000000000000000000000000000000000000000000000000000000000000000000000000000000000000000
310
000000000000000000000000000000000000000000000000000000000000000000000000EC0000000000000000000F0F00000000000000000000000000000000000000000000000000000000000000000000000000000000000000000000000000000000000000000000000000000000000000000000000000000000000000
310
00000000000000000000000000000000000000000000000000000000000000000000000000000000000000000000000000000000000000000000000000000000000000000000000000000000000F00000000EC0000000000000000000000000000000000000000000000000000000000000000000000000000000000000000
310
0000000000000000000000000000000000000000000000000000000000000000000000000000EC0000000000000000000F0F0000000000000000000000000000000000000000000000000000000000000000000000000000000000000000000000000000000000000000000000000000000000000000000000000000000000
310
000000000000000000000000000000000000000000000000000000000000000000000000000000000000000000000000000000000000000000000000000000000000000000000000000000000000000F00000000EC000000000000000000000000000000000000000000000000000000000000000000000000000000000000
310
00000000000000000000000000000000000000000000000000000000000000000000000000000000EC0000000000000000000F0F0000000000000000000000000000000000000000000000000000000000000000CCCCCCCCCCCCCCCCCCCCCCCCCCCCCCCCCCCCCCCCCCCCCCCCCCCCCCCCCC0000000000000000000000000000
310
0000000000000000000000000000000000000000000000000000000000000000000000000000000000000000000000000000000000000000000000000000000000000000000000000000000000000000000F00000000EC00000000000000000000000000000000000000000000000000000000000000000000000000000000
310
000000000000000000000000000000000000000000000000000000000000000000000000000000000000EC0000000000000000000F0F0000000000000000000000000000000000000000000000000000000000000000002D2D2D2D2D2D2D2D2D2D2D2D2D2D2D2D2D2D2D2D2D2D2D2D2D2D2D00000000000000000000000000
310
00000000000000000000000000000000000000000000000000000000000000000000000000000000000000000000000000000000000000000000000000000000000000000000000000000000000000000000000F00000000EC0000000000000000000000000000000000000000000000000000000000000000000000000000
310
0000000000000000000000000000000000000000000000000000000000000000000000000000000000000000EC0000000000000000000F0F0000000000000000000000000000000000000000000000000000000000000000002D2D2D2D2D2D2D2D2D2D2D2D2D2D2D2D2D2D2D2D2D2D2D2D2D2D2D0000000000000000000000
310
000000000000000000000000000000000000000000000000000000000000000000000000000000000000000000000000000000000000000000000000000000000000000000000000000000000000000000000000000F00000000EC000000000000000000000000000000000000000000000000000000000000000000000000
310
00000000000000000000000000000000000000000000000000000000000000000000000000000000000000000000EC0000000000000000000F0F000000000000000000000000000000000000000000000000000000000000000000000000000000000000000000000000000000000000000000000000000000000000000000
310
0000000000000000000000000000000000000000000000000000000000000000000000000000000000000000000000000000000000000000000000000000000000000000000000000000000000000000000000000000000F00000000EC00000000000000000000000000000000000000000000000000000000000000000000
310
000000000000000000000000000000000000000000000000000000000000000000000000000000000000000000000000EC0000000000000000000F0F00000000000000000000000000000000000000000000000000000000000000000000000000000000000000000000000000000000000000000000000000000000000000
310
00000000000000000000000000000000000000000000000000000000000000000000000000000000000000000000000000000000000000000000000000000000000000000000000000000000000000000000000000000000000F00000000EC0000000000000000000000000000000000000000000000000000000000000000
310
0000000000000000000000000000000000000000000000000000000000000000000000000000000000000000000000000000EC0000000000000000000F0F0000000000000000000000000000000000000000000000000000000000000000000000000000000000000000000000000000000000000000000000000000000000
310
000000000000000000000000000000000000000000000000000000000000000000000000000000000000000000000000000000000000000000000000000000000000000000000000000000000000000000000000000000000000000F00000000EC000000000000000000000000000000000000000000000000000000000000
310
00000000000000000000000000000000000000000000000000000000000000000000000000000000000000000000000000000000EC0000000000000000000F0F000000000000000000000000000000000000000000000000000000000000000000000000000000000000000000000000000000000000000000000000000000
310
0000000000000000000000000000000000000000000000000000000000000000000000000000000000000000000000000000000000000000000000000000000000000000000000000000000000000000000000000000000000000000000F00000000EC00000000000000000000000000000000000000000000000000000000
310
000000000000000000000000000000000000000000000000000000000000000000000000000000000000000000000000000000000000EC0000000000000000000F0F00000000000000000000000000000000000000000000000000000000000000000000000000000000000000000000000000000000000000000000000000
310
00000000000000000000000000000000000000000000000000000000000000000000000000000000000000000000000000000000000000000000000000000000000000000000000000000000000000000000000000000000000000000000000F00000000EC0000000000000000000000000000000000000000000000000000
310
0000000000000000000000000000000000000000000000000000000000000000000000000000000000000000000000000000000000000000EC0000000000000000000F0F0000000000000000000000000000000000000000000000000000000000000000000000000000000000000000000000000000000000000000000000
310
000000000000000000000000000000000000000000000000000000000000000000000000000000000000000000000000000000000000000000000000000000000000000000000000000000000000000000000000000000000000000000000000000F00000000EC000000000000000000000000000000000000000000000000
310
00000000000000000000000000000000000000000000000000000000000000000000000000000000000000000000000000000000000000000000EC0000000000000000000F0F000000000000000000000000000000000000000000000000000000000000000000000000000000000000000000000000000000000000000000
310
0000000000000000000000000000000000000000000000000000000000000000000000000000000000000000000000000000000000000000000000000000000000000000000000000000000000000000000000000000000000000000000000000000000F00000000EC00000000000000000000000000000000000000000000
310
000000000000000000000000000000000000000000000000000000000000000000000000000000000000000000000000000000000000000000000000EC0000000000000000000F0F00000000000000000000000000000000000000000000000000000000000000000000000000000000000000000000000000000000000000
310
00000000000000000000000000000000000000000000000000000000000000000000000000000000000000000000000000000000000000000000000000000000000000000000000000000000000000000000000000000000000000000000000000000000000F00000000EC0000000000000000000000000000000000000000
310
0000000000000000000000000000000000000000000000000000000000000000000000000000000000000000000000000000000000000000000000000000EC0000000000000000000F0F0000000000000000000000000000000000000000000000000000000000000000000000000000000000000000000000000000000000
310
000000000000000000000000000000000000000000000000000000000000000000000000000000000000000000000000000000000000000000000000000000000000000000000000000000000000000000000000000000000000000000000000000000000000000F00000000EC000000000000000000000000000000000000
310
00000000000000000000000000000000000000000000000000000000000000000000000000000000000000000000000000000000000000000000000000000000EC0000000000000000000F0F0000000000000000000000000000000000000000000000000000000000000000000000000000000000000000CCCCCCCCCC0000
310
0000000000000000000000000000000000000000000000000000000000000000000000000000000000000000000000000000000000000000000000000000000000000000000000000000000000000000000000000000000000000000000000000000000000000000000F00000000EC00000000000000000000000000000000
310
000000000000000000000000000000000000000000000000000000000000000000000000000000000000000000000000000000000000000000000000000000000000EC0000000000000000000F0F0000000000000000000000000000000000000000000000000000000000000000000000000000000000000000002D2D2D00
310
00000000000000000000000000000000000000000000000000000000000000000000000000000000000000000000000000000000000000000000000000000000000000000000000000000000000000000000000000000000000000000000000000000000000000000000000F00000000EC0000000000000000000000000000
310
0000000000000000000000000000000000000000000000000000000000000000000000000000000000000000000000000000000000000000000000000000000000000000EC0000000000000000000F0F0000000000000000000000000000000000000000000000000000000000000000000000000000000000000000002D2D
310
2D0000000000000000000000000000000000000000000000000000000000000000000000000000000000000000000000000000000000000000000000000000000000000000000000000000000000000000000000000000000000000000000000000000000000000000000000000F00000000EC000000000000000000000000
310
00000000000000000000000000000000000000000000000000000000000000000000000000000000000000000000000000000000000000000000000000000000000000000000EC0000000000000000000F0F000000000000000000000000000000000000000000000000000000000000000000000000000000000000000000
310
0000000000000000000000000000000000000000000000000000000000000000000000000000000000000000000000000000000000000000000000000000000000000000000000000000000000000000000000000000000000000000000000000000000000000000000000000000000F00000000EC00000000000000000000
310
000000000000000000000000000000000000000000000000000000000000000000000000000000000000000000000000000000000000000000000000000000000000000000000000EC0000000000000000000F0F00000000000000000000000000000000000000000000000000000000000000000000000000000000000000
310
00000000000000000000000000000000000000000000000000000000000000000000000000000000000000000000000000000000000000000000000000000000000000000000000000000000CCCCCC2D2D2D2D0000000000000000000000000000000000000000000000000000000000000F00000000EC0000000000000000
310
0000000000000000000000000000000000000000000000000000000000000000000000000000000000000000000000000000000000000000000000000000000000000000000000000000EC0000000000000000000F0F0000000000000000000000000000000000000000000000000000000000000000000000000000000000
310
000000000000000000000000000000000000000000000000000000000000000000000000000000000000000000000000000000000000000000000000000000000000000000000000000000000000CCCCCC2D2D2D2D0000000000000000000000000000000000000000000000000000000000000F00000000EC000000000000
310
00000000000000000000000000000000000000000000000000000000000000000000000000000000000000000000000000000000000000000000000000000000000000000000000000000000EC0000000000000000000F0F000000000000000000000000000000000000000000000000000000000000000000000000000000
310
000000000000000000000000000000000000000000000000000000000000000000000000000000000000000000000000000000000000000000000000000000000000000000000000000000000000000000CCCC000000000000000000000000000000000000000000000000000000000000000000000F00000000EC00000000
310
000000000000000000000000000000000000000000000000000000000000000000000000000000000000000000000000000000000000000000000000000000000000000000000000000000000000EC0000000000000000000F0F00000000000000000000000000000000000000000000000000000000000000000000000000
310
0000000000000000000000000000000000000000000000000000000000000000000000000000000000000000000000000000000000000000000000000000000000000000000000000000000000000000000000CCCC000000000000000000000000000000000000000000000000000000000000000000000F00000000EC0000
310
0000000000000000000000000000000000000000000000000000000000000000000000000000000000000000000000000000000000000000000000000000000000000000000000000000000000000000EC0000000000000000000F0F0000000000000000000000000000000000000000000000000000000000000000000000
310
0000000000000000000000000000000000000000000000000000000000000000000000000000CC00000000000000000000000000000000000000000000000000000000000000000000000000000000000000000000CCCC000000CC0000000000000000000000000000000000000000000000000000000000000F00000000EC
310
00000000000000000000000000000000000000000000000000000000000000000000000000000000000000000000000000000000000000000000000000000000000000000000000000000000000000000000EC0000000000000000000F0F00000000000000000000000000000000000000000000000000000000F5F5F5F5F5
310
F5F5F5F5F5F5F5F5F5F5F5F5F5F5F5F5F5F5F5F5F5F5F5F5F5F5F5F5F5F5F5F5F5CCCCCCCCCCCCCCCC00000000000000000000000000000000000000000000000000000000000000000000000000000000000000000000F5F5CCCCCCCC0000000000000000000000000000000000000000000000000000000000000F000000
310
00EC00000000000000000000000000000000000000000000000000000000000000000000000000000000000000000000000000000000000000000000000000000000000000000000000000000000000000000000EC0000000000000000000F0F00000000000000000000000000000000000000000000000000000000F50000
310
00000000000000000000000000000000000000000000000000000000000000000000F500000000000000CC00000000000000000000000000000000000000000000000000000000000000000000000000000000000000000000F5F5000000CC0000000000000000000000000000000000000000000000000000000000000F00
310
000000EC00000000000000000000000000000000000000000000000000000000000000000000000000000000000000000000000000000000000000000000000000000000000000000000000000000000000000000000EC0000000000000000000F0F00000000000000000000000000000000000000000000000000000000F5
310
000000000000000000000000000000000000000000000000000000000000000000000000F500000000000000CC00000000000000000000000000000000000000000000000000000000000000000000000000000000000000000000F5F5000000CC000000000000000000000000000000000000000000000000000000000000
310
0F00000000EC00000000000000000000000000000000000000000000000000000000000000000000000000000000000000000000000000000000000000000000000000000000000000000000000000000000000000000000EC0000000000000000000F0F000000000000000000000000000000000000000000000000000000
310
00F5000000000000000000000000000000000000000000000000000000000000000000000000F500000000000000CC00000000000000000000000000000000000000000000000000000000000000000000000000000000000000000000F5F5000000CC00000000000000000000000000000000000000000000000000000000
310
00000F00000000EC00000000000000000000000000000000000000000000000000000000000000000000000000000000000000000000000000000000000000000000000000000000000000000000000000000000000000000000EC0000000000000000000F0F00000000000000000000000000000000000000000000000000
310
000000F5000000000000000000000000000000000000000000000000000000000000000000000000F500000000000000CC00000000000000000000000000000000000000000000000000000000000000000000000000000000000000000000F5F5000000CC0000000000000000000000000000000000000000000000000000
310
000000000F00000000EC00000000000000000000000000000000000000000000000000000000000000000000000000000000000000000000000000000000000000000000000000000000000000000000000000000000000000000000EC0000000000000000000F0F0000000000000000000000000000000000000000000000
310
0000000000F5000000000000000000000000000000000000000000000000000000000000000000000000F500000000000000CC00000000000000000000000000000000000000000000000000000000000000000000000000000000000000000000F5F5000000CC000000000000000000000000000000000000000000000000
310
0000000000000F00000000EC00000000000000000000000000000000000000000000000000000000000000000000000000000000000000000000000000000000000000000000000000000000000000000000000000000000000000000000EC0000000000000000000F0F000000000000000000000000000000000000000000
310
00000000000000F5000000000000000000000000000000000000000000000000000000000000000000000000F500000000000000CC00000000000000000000000000000000000000000000000000000000000000000000000000000000000000C30000F5F5000000CC00000000000000000000000000000000000000000000
310
00000000000000000F00000000EC00000000000000000000000000000000000000000000000000000000000000000000000000000000000000000000000000000000000000000000000000000000000000000000000000000000000000000000EC0000000000000000000F0F00000000000000000000000000000000000000
310
000000000000000000F50000000000000000000000000000000000C3000000000000000000000000000000000000F500000000000000CC00000000000000000000000000000000000000000000000000000000000000000000000000000000000000C30000F5F500002D2D2D00000000000000000000000000000000000000
310
000000000000000000000F00000000EC00000000000000000000000000000000000000000000000000000000000000000000000000000000000000000000000000000000000000000000000000000000000000000000000000000000000000000000EC0000000000000000000F0F0000000000000000000000000000000000
310
0000000000000000000000F50000000000000000000000000000F5F5F5C3F5F5F5000000000000000000000000000000F500000000000000CC0000000000000000000000000000000000000000000000000000000000CCCCCCCCCCCCCCCCCCCCCCF5F500C3F5F5F5F500002D2D2D0000000000000000000000000000000000
310
0000000000000000000000000F00000000EC00000000000000000000000000000000000000000000000000000000000000000000000000000000000000000000000000000000000000000000000000000000000000000000000000000000000000000000EC0000000000000000000F0F000000000000000000000000000000
310
00000000000000000000000000F500000000000000000000000000F5000000C3000000F50000000000000000000000000000F500000000000000CC000000000000000000000000000000000000000000000000000000000000CC000000000000000000F5F5F5C3F5F5F5F500002D2D2D000000000000000000000000000000
310
00000000000000000000000000000F00000000EC00000000000000000000000000000000000000000000000000000000000000000000000000000000000000000000000000000000000000000000000000000000000000000000000000000000000000000000EC0000000000000000000F0F00000000000000000000000000
310
000000000000000000000000000000F5000000000000000000000000F500000000C3DC000000F500000000000000000000000000F50000000000002D2D000000000000000000000000000000000000000000000000000000000000CC0000CCCCCCCCCCCCCCF5F5F5C3F5F5F5F500002D2D2D00000000000000000000000000
310
000000000000000000000000000000000F00000000EC00000000000000000000000000000000000000000000000000000000000000000000000000000000000000000000000000000000000000000000000000000000000000000000000000000000000000000000EC0000000000000000000F0F0000000000000000000000
310
0000000000000000000000000000000000F50000000000000000000000F50000DCDCDCC300DCDC0000F5000000000000000000000000F50000000000002D2D000000000000000000000000000000000000000000000000000000000000CC000000CC0000000000F5F5F5C3F5F5F5F5000000CC000000000000000000000000
310
0000000000000000000000000000000000000F00000000EC00000000000000000000000000000000000000000000000000000000000000000000000000000000000000000000000000000000000000000000000000000000000000000000000000000000000000000000EC0000000000000000000F0F000000000000000000
310
00000000000000000000000000000000000000F500000000000000000000F500DCDC000000C3000000DC0000F50000000000000000000000F50000000000002D2D000000000000000000000000000000000000000000000000000000000000CC000000CC0000000000F5F5F5C3F5F5F5F5000000CC00000000000000000000
310
00000000000000000000000000000000000000000F00000000EC00000000000000000000000000000000000000000000000000000000000000000000000000000000000000000000000000000000000000000000000000000000000000000000000000000000000000000000EC0000000000000000000F0F00000000000000
310
000000000000000000000000000000000000000000F5000000000000000000F500DCDC00000000C300000000DCDC00F500000000000000000000F500000000000000CC000000000000000000000000000000000000000000000000000000000000CC000000CC0000000000F5F5F5C3F5F5F5F5000000CC0000000000000000
310
000000000000000000000000000000000000000000000F00000000EC00000000000000000000000000000000000000000000000000000000000000000000000000000000000000000000000000000000000000000000000000000000000000000000000000000000000000000000EC0000000000000000000F0F0000000000
310
0000000000000000000000000000000000000000000000F5F5F5F5F5F5F5F5F5F5F5F5F5F5F5F5F5F5F5F5F5F5F5F5F5F5F5F5F5F5F5F5F5F5F5F5F5F5CCCCCCCC000000CC000000000000000000000000000000000000000000000000000000000000CC000000CC000000F5F5F5F5F5F5F5F5F5F5000000CC000000000000
310
0000000000000000000000000000000000000000000000000F00000000EC00000000000000000000000000000000000000000000000000000000000000000000000000000000000000000000000000000000000000000000000000000000000000000000000000000000000000000000EC0000000000000000000F0F000000
310
00000000000000000000000000000000000000000000000000F50000C30000F5DC00DC0000DC00000000F5C3F500000000DC0000DC00DCF50000C3000000F5000000CC000000CC0000000000000000000000000000000000000000000000000000000000002D00002D2D000000F5DCDCDCDCC3DCDCF5F5CCCCCCCCCCCCCCCC
310
00000000000000000000000000000000000000000000000000000F00000000EC00000000000000000000000000000000000000000000000000000000000000000000000000000000000000000000000000000000000000000000000000000000000000000000000000000000000000000000EC0000000000000000000F0F00
310
000000000000000000000000000000000000000000000000000000F500C3C3C300F5DC00DC00DC00000000F5DCC3DCF500000000DC00DC00DCF500C3C3C30000F5000000CC000000CC00000000000000000000000000000000000000000000000000000000002D2D00002D2D000000F500000000C3F500F5F5000000CC0000
310
2D2D2D000000000000000000000000000000000000000000000000000F00000000EC00000000000000000000000000000000000000000000000000000000000000000000000000000000000000000000000000000000000000000000000000000000000000000000000000000000000000000000EC0000000000000000000F
310
0F00000000000000000000000000000000000000000000000000000000F50000C30000F5DC00DC00DC0000C3C3C3C3C3C3C3C3C30000DC00DC00DCF50000C3000000F500002D2D000000CC00000000000000000000000000000000000000000000000000000000002D2D00002D2D000000F5C3C3C3C3C3C3C3C3F5CCCCCCCC
310
00002D2D2D000000000000000000000000000000000000000000000000000F00000000EC00000000000000000000000000000000000000000000000000000000000000000000000000000000000000000000000000000000000000000000000000000000000000000000000000000000000000000000EC0000000000000000
310
000F0F00000000000000000000000000000000000000000000000000000000F50000000000F5DC00DC00DC00000000F5DCC3DCF500000000DC00DC00DCF5000000000000F500002D2D000000CC00000000000000000000000000000000000000000000000000000000002D2D00002D2D000000F500000000C3F500F5F50000
310
000000002D2D00000000000000000000000000000000000000000000000000000F00000000EC00000000000000000000000000000000000000000000000000000000000000000000000000000000000000000000000000000000000000000000000000000000000000000000000000000000000000000000EC000000000000
310
0000000F0F00000000000000000000000000000000000000000000000000000000F50000000000F5DC00DC00DCDC00000000F5C3F500000000DCDC00DC00DCF5000000000000F500002D2D000000CC00000000000000000000000000000000000000000000000000000000002D2D00002D2D000000F5DCDCDCDCC3DCDCF5F5
310
CCCCCCCCCCCCCCCC00000000000000000000000000000000000000000000000000000F00000000EC00000000000000000000000000000000000000000000000000000000000000000000000000000000000000000000000000000000000000000000000000000000000000000000000000000000000000000000EC00000000
310
00000000000F0F00000000000000000000000000000000000000000000000000000000F50000C30000F5DC00DC0000DC0000000000C30000000000DC0000DC00DCF50000C3000000F5000000CC000000CC000000000000000000000000000000000000000000000000000000000000CC000000CC000000F500000000C3F500
310
F5F500000000000000CC00000000000000000000000000000000000000000000000000000F00000000EC00000000000000000000000000000000000000000000000000000000000000000000000000000000000000000000000000000000000000000000000000000000000000000000000000000000000000000000EC0000
310
000000000000000F0F00000000000000000000000000000000000000000000000000000000F500C3C3C300F5DC0000DC0000DC00000000C300000000DCDC00DC0000DCF500C3C3C30000F5000000CC000000CC000000000000000000000000000000000000000000000000000000000000CC000000CC000000F500000000C3
310
F500F5F5000000000000000000000000000000000000000000000000000000000000000000000F00000000EC00000000000000000000000000000000000000000000000000000000000000000000000000000000000000000000000000000000000000000000000000000000000000000000000000000000000000000000EC
310
0000000000000000000F0F00000000000000000000000000000000000000000000000000000000F5F5F5F5F5F5F5F5F5F5F5F5F5F5F5F5F5F5F5F5F5F5F5F5F5F5F5F5F5F5F5F5F5F5F5F5F5F5CCCCCCCCCCCCCCCC000000000000000000000000000000000000000000000000000000000000CC000000CC000000F5F5F5F5
310
F5F5F5F5F5F5000000000000000000000000000000000000000000000000000000000000000000000F00000000EC000000000000000000000000000000000000000000000000000000000000000000000000000000000000000000000000000000000000000000000000000000000000000000000000000000000000000000
310
00EC0000000000000000000F0F00000000000000000000000000000000000000000000000000000000CC00000000000000000000F50000DCDCDC00C300DCDCDC0000F50000000000000000000000CC0000000000000000000000000000000000000000000000000000000000000000000000000000CC000000CC000000CC00
310
F5F5F5C3F5F500CC000000000000000000000000000000000000000000000000000000000000000000000F00000000EC00000000000000000000000000000000000000000000000000000000000000000000000000000000000000000000000000000000000000000000000000000000000000000000000000000000000000
310
000000EC0000000000000000000F0F00000000000000000000000000000000000000000000000000000000CC0000000000000000000000F500000000DCC3DCDC000000F5000000000000000000000000CC0000000000000000000000000000000000000000000000000000000000000000000000000000CC0000CCCCCCCCCC
310
CCCCF5F5F5C3F5F500CC000000000000000000000000000000000000000000000000000000000000000000000F00000000EC0000000000000000000000000000000000000000000000000000000000000000000000000000000000000000000000000000000000000000000000000000000000000000000000000000000000
310
0000000000EC0000000000000000000F0F00000000000000000000000000000000000000000000000000000000CC000000000000000000000000F5F5000000C3000000F5F500000000000000000000000000CC0000000000000000000000000000000000000000000000000000000000000000000000000000CC0000000000
310
0000CC00F5F5F5C3F5F500CC000000000000000000000000000000000000000000000000000000000000000000000F00000000EC000000000000000000000000000000000000000000000000000000000000000000000000000000000000000000000000000000000000000000000000000000000000000000000000000000
310
00000000000000EC0000000000000000000F0F00000000000000000000000000000000000000000000000000000000CC0000000000000000000000000000F5F5F5C3F5F5F5000000000000000000000000000000CC00000000000000000000000000000000000000000000000000000000000000000000000000CCCCCCCCCC
310
CCCCCCCCCCCCF5F5CCC3F5F500CC000000000000000000000000000000000000000000000000000000000000000000000F00000000EC00000000000000000000000000000000000000000000000000000000000000000000000000000000000000000000000000000000000000000000000000000000000000000000000000
310
000000000000000000EC0000000000000000000F0F00000000000000000000000000000000000000000000000000000000CC0000000000000000000000000000000000C3000000000000000000000000000000000000CC00000000000000000000000000000000000000000000000000000000000000000000000000000000
310
000000000000CC00CC00CCC300CC00CC000000000000000000000000000000000000000000000000000000000000000000000F00000000EC0000000000000000000000000000000000000000000000000000000000000000000000000000000000000000000000000000000000000000000000000000000000000000000000
310
0000000000000000000000EC0000000000000000000F0F00000000000000000000000000000000000000000000000000000000CC0000000000000000000000000000000000C3000000000000000000000000000000000000CC0000000000000000000000000000000000000000000000000000000000000000000000000000
310
0000000000000000CC00CC00CCC300CC00CC000000000000000000000000000000000000000000000000000000000000000000000F00000000EC000000000000000000000000000000000000000000000000000000000000000000000000000000000000000000000000000000000000000000000000000000000000000000
310
00000000000000000000000000EC0000000000000000000F0F00000000000000000000000000000000000000000000000000000000CC0000000000000000000000000000000000C3000000000000000000000000000000000000CC000000000000000000000000000000000000000000000000000000000000000000000000
310
00000000000000000000CC00CC00CCC300CC00CC000000000000000000000000000000000000000000000000000000000000000000000F00000000EC00000000000000000000000000000000000000000000000000000000000000000000000000000000000000000000000000000000000000000000000000000000000000
310
000000000000000000000000000000EC0000000000000000000F0F00000000000000000000000000000000000000000000000000000000CC000000000000000000000000000000000000000000000000000000000000000000000000CC00000000000000000000000000000000000000000000000000000000000000000000
310
000000000000000000000000CC00CCCCCCC3CCCC00CC000000000000000000000000000000000000000000000000000000000000000000000F00000000EC0000000000000000000000000000000000000000000000000000000000000000000000000000000000000000000000000000000000000000000000000000000000
310
0000000000000000000000000000000000EC0000000000000000000F0F00000000000000000000000000000000000000000000000000000000CC000000000000000000000000000000000000000000000000000000000000000000000000CC0000000000000000000000000000000000000000000000000000000000000000
310
0000000000000000000000000000CC00CC00CCCC2DCC00CC000000000000000000000000000000000000000000000000000000000000000000000F00000000EC000000000000000000000000000000000000000000000000000000000000000000000000000000000000000000000000000000000000000000000000000000
310
00000000000000000000000000000000000000EC0000000000000000000F0F000000000000000000000000000000000000000000000000000000CCCCCCCCCCCCCCCCCCCCCCCCCCCCCCCCCCCC2D2D2DCCCCCCCCCCCCCCCCCCCCCCCCCCCCCCCCCCCC000000000000000000000000000000000000000000000000000000000000
310
00000000000000000000000000000000CC00CC2D2D2D2DCC00CC000000000000000000000000000000000000000000000000000000000000000000000F00000000EC00000000000000000000000000000000000000000000000000000000000000000000000000000000000000000000000000000000000000000000000000
310
000000000000000000000000000000000000000000EC0000000000000000000F0F000000000000000000000000000000000000000000000000000000CCCC000000000000000000000000000000002D2D2D00000000000000000000000000000000CCCC00000000000000000000000000000000000000000000000000000000
310
000000000000000000000000000000000000CC00CC002D2D2DCC00CC000000000000000000000000000000000000000000000000000000000000000000000F00000000EC0000000000000000000000000000000000000000000000000000000000000000000000000000000000000000000000000000000000000000000000
310
0000000000000000000000000000000000000000000000EC0000000000000000000F0F0000000000000000000000000000000000000000000000000000000000000000000000000000000000000000000000000000000000000000000000000000000000000000000000000000000000000000000000000000000000000000
310
0000000000000000000000000000000000000000CC00CCCC2D2DCCCC00CC000000000000000000000000000000000000000000000000000000000000000000000F00000000EC000000000000000000000000000000000000000000000000000000000000000000000000000000000000000000000000000000000000000000
310
00000000000000000000000000000000000000000000000000EC0000000000000000000F0F000000000000000000000000000000000000000000000000000000000000000000000000000000000000000000000000000000000000000000000000000000000000000000000000000000000000000000000000000000000000
310
00000000000000000000000000000000000000000000CC00CC002D2D00CC00CC000000000000000000000000000000000000000000000000000000000000000000000F00000000EC00000000000000000000000000000000000000000000000000000000000000000000000000000000000000000000000000000000000000
310
000000000000000000000000000000000000000000000000000000EC0000000000000000000F0F00000000000000000000000000000000000000000000000000000000000000000000000000000000000000000000000000000000000000000000000000000000000000000000000000000000000000000000000000000000
310
000000000000000000000000000000000000000000000000CC00000000CC000000CC000000000000000000000000000000000000000000000000000000000000000000000F00000000EC0000000000000000000000000000000000000000000000000000000000000000000000000000000000000000000000000000000000
310
0000000000000000000000000000000000000000000000000000000000EC0000000000000000000F0F0000000000000000000000000000000000000000000000000000000000000000000000000000000000000000000000000000000000000000000000000000000000000000000000000000000000000000000000000000
310
0000000000000000000000000000000000000000000000000000CC00000000CC000000CC000000000000000000000000000000000000000000000000000000000000000000000F00000000EC000000000000000000000000000000000000000000000000000000000000000000000000000000000000000000000000000000
310
00000000000000000000000000000000000000000000000000000000000000EC0000000000000000000F0F000000000000000000000000000000000000000000000000000000000000000000000000000000000000000000000000000000000000000000000000000000000000000000000000000000000000000000000000
310
00000000000000000000000000000000000000000000000000000000CC000000CC2D2D2D2DCC000000000000000000000000000000000000000000000000000000000000000000000F00000000EC00000000000000000000000000000000000000000000000000000000000000000000000000000000000000000000000000
310
000000000000000000000000000000000000000000000000000000000000000000EC0000000000000000000F0F00000000000000000000000000000000000000000000000000000000000000000000000000000000000000000000000000000000000000000000000000000000000000000000000000000000000000000000
310
000000000000000000000000000000000000000000000000000000000000CC000000CCCC2D2D2DCCCC0000000000000000000000000000000000000000000000000000000000000000000F00000000EC0000000000000000000000000000000000000000000000000000000000000000000000000000000000000000000000
310
0000000000000000000000000000000000000000000000000000000000000000000000EC0000000000000000000F0F0000000000000000000000000000000000000000000000000000000000000000000000000000000000000000000000000000000000000000000000000000000000000000000000000000000000000000
310
0000000000000000000000000000000000000000000000000000000000000000CC0000000000000000CC000000000000000000000000000000000000000000000000000000000000000000000F00000000EC000000000000000000000000000000000000000000000000000000000000000000000000000000000000000000
310
00000000000000000000000000000000000000000000000000000000000000000000000000EC0000000000000000000F0F000000000000000000000000000000000000000000000000000000000000000000000000000000000000000000000000000000000000000000000000000000000000000000000000000000000000
310
00000000000000000000000000000000000000000000000000000000000000000000CC0000000000000000CC000000000000000000000000000000000000000000000000000000000000000000000F00000000EC00000000000000000000000000000000000000000000000000000000000000000000000000000000000000
310
000000000000000000000000000000000000000000000000000000000000000000000000000000EC0000000000000000000F0F00000000000000000000000000000000000000000000000000000000000000000000000000000000000000000000000000000000000000000000000000000000000000000000000000000000
310
000000000000000000000000000000000000000000000000000000000000000000000000CC00002D2D2D000000CC000000000000000000000000000000000000000000000000000000000000000000000F00000000EC0000000000000000000000000000000000000000000000000000000000000000000000000000000000
310
0000000000000000000000000000000000000000000000000000000000000000000000000000000000EC0000000000000000000F0F0000000000000000000000000000000000000000000000000000000000000000000000000000000000000000000000000000000000000000000000000000000000000000000000000000
310
0000000000000000000000000000000000000000000000000000000000000000000000000000CCCCCC2D2D2DCCCCCCCC000000000000000000000000000000000000000000000000000000000000000000000F00000000EC000000000000000000000000000000000000000000000000000000000000000000000000000000
310
00000000000000000000000000000000000000000000000000000000000000000000000000000000000000EC0000000000000000000F0F000000000000000000000000000000000000000000000000000000000000000000000000000000000000000000000000000000000000000000000000000000000000000000000000
310
0000000000000000000000000000000000000000000000000000000000000000000000000000000000000000000000000000000000000000000000000000000000000000000000000000000000000000000000000F00000000EC00000000000000000000000000000000000000000000000000000000000000000000000000
310
000000000000000000000000000000000000000000000000000000000000000000000000000000000000000000EC0000000000000000000F0F00000000000000000000000000000000000000000000000000000000000000000000000000000000000000000000000000000000000000000000000000000000000000000000
310
00000000000000000000000000000000000000000000000000000000000000000000000000000000000000000000000000000000000000000000000000000000000000000000000000000000000000000000000000000F00000000EC0000000000000000000000000000000000000000000000000000000000000000000000
310
0000000000000000000000000000000000000000000000000000000000000000000000000000000000000000000000EC0000000000000000000F0F0000000000000000000000000000000000000000000000000000000000000000000000000000000000000000000000000000000000000000000000000000000000000000
310
000000000000000000000000000000000000000000000000000000000000000000000000000000000000000000000000000000000000000000000000000000000000000000000000000000000000000000000000000000000F00000000EC000000000000000000000000000000000000000000000000000000000000000000
310
00000000000000000000000000000000000000000000000000000000000000000000000000000000000000000000000000EC0000000000000000000F0F000000000000000000000000000000000000000000000000000000000000000000000000000000000000000000000000000000000000000000000000000000000000
310
0000000000000000000000000000000000000000000000000000000000000000000000000000000000000000000000000000000000000000000000000000000000000000000000000000000000000000000000000000000000000F00000000EC00000000000000000000000000000000000000000000000000000000000000
310
000000000000000000000000000000000000000000000000000000000000000000000000000000000000000000000000000000EC0000000000000000000F0F00000000000000000000000000000000000000000000000000000000000000000000000000000000000000000000000000000000000000000000000000000000
310
00000000000000000000000000000000000000000000000000000000000000000000000000000000000000000000000000000000000000000000000000000000000000000000000000000000000000000000000000000000000000000F00000000EC0000000000000000000000000000000000000000000000000000000000
310
0000000000000000000000000000000000000000000000000000000000000000000000000000000000000000000000000000000000EC0000000000000000000F0F0000000000000000000000000000000000000000000000000000000000000000000000000000000000000000000000000000000000000000000000000000
310
000000000000000000000000000000000000000000000000000000000000000000000000000000000000000000000000000000000000000000000000000000000000000000000000000000000000000000000000000000000000000000000F00000000EC000000000000000000000000000000000000000000000000000000
310
00000000000000000000000000000000000000000000000000000000000000000000000000000000000000000000000000000000000000EC0000000000000000000F0F000000000000000000000000000000000000000000000000000000000000000000000000000000000000000000000000000000000000000000000000
310
0000000000000000000000000000000000000000000000000000000000000000000000000000000000000000000000000000000000000000000000000000000000000000000000000000000000000000000000000000000000000000000000000F00000000EC00000000000000000000000000000000000000000000000000
310
000000000000000000000000000000000000000000000000000000000000000000000000000000000000000000000000000000000000000000EC0000000000000000000F0F00000000000000000000000000000000000000000000000000000000000000000000000000000000000000000000000000000000000000000000
310
00000000000000000000000000000000000000000000000000000000000000000000000000000000000000000000000000000000000000000000000000000000000000000000000000000000000000000000000000000000000000000000000000000F00000000EC0000000000000000000000000000000000000000000000
310
0000000000000000000000000000000000000000000000000000000000000000000000000000000000000000000000000000000000000000000000EC0000000000000000000F0F0000000000000000000000000000000000000000000000000000000000000000000000000000000000000000000000000000000000000000
310
000000000000000000000000000000000000000000000000000000000000000000000000000000000000000000000000000000000000000000000000000000000000000000000000000000000000000000000000000000000000000000000000000000000F00000000EC000000000000000000000000000000000000000000
310
00000000000000000000000000000000000000000000000000000000000000000000000000000000000000000000000000000000000000000000000000EC0000000000000000000F0F000000000000000000000000000000000000000000000000000000000000000000000000000000000000000000000000000000000000
310
0000000000000000000000000000000000000000000000000000000000000000000000000000000000000000000000000000000000000000000000000000000000000000000000000000000000000000000000000000000000000000000000000000000000000F00000000EC00000000000000000000000000000000000000
310
000000000000000000000000000000000000000000000000000000000000000000000000000000000000000000000000000000000000000000000000000000EC0000000000000000000F0F00000000000000000000000000000000000000000000000000000000000000000000000000000000000000000000000000000000
310
00000000000000000000000000000000000000000000000000000000000000000000000000000000000000000000000000000000000000000000000000000000000000000000000000000000000000000000000000000000000000000000000000000000000000000F00000000EC0000000000000000000000000000000000
310
0000000000000000000000000000000000000000000000000000000000000000000000000000000000000000000000000000000000000000000000000000000000EC0000000000000000000F0F0000000000000000000000000000000000000000000000000000000000000000000000000000000000000000000000000000
310
000000000000000000000000000000000000000000000000000000000000000000000000000000000000000000000000000000000000000000000000000000000000000000000000000000000000000000000000000000000000000000000000000000000000000000000F00000000EC000000000000000000000000000000
310
00000000000000000000000000000000000000000000000000000000000000000000000000000000000000000000000000000000000000000000000000000000000000EC0000000000000000000F0F000000000000000000000000000000000000000000000000000000000000000000000000000000000000000000000000
310
0000000000000000000000000000000000000000000000000000000000000000000000000000000000000000000000000000000000000000000000000000000000000000000000000000000000000000000000000000000000000000000000000000000000000000000000000F00000000EC00000000000000000000000000
310
000000000000000000000000000000000000000000000000000000000000000000000000000000000000000000000000000000000000000000000000000000000000000000EC0000000000000000000F0F00000000000000000000000000000000000000000000000000000000000000000000000000000000000000000000
310
00000000000000000000000000000000000000000000000000000000000000000000000000000000000000000000000000000000000000000000000000000000000000000000000000000000000000000000000000000000000000000000000000000000000000000000000000000F00000000EC0000000000000000000000
310
0000000000000000000000000000000000000000000000000000000000000000000000000000000000000000000000000000000000000000000000000000000000000000000000EC0000000000000000000F0F0000000000000000000000000000000000000000000000000000000000000000000000000000000000000000
310
000000000000000000000000000000000000000000000000000000000000000000000000000000000000000000000000000000000000000000000000000000000000000000000000000000000000000000000000000000000000000000000000000000000000000000000000000000000F00000000EC000000000000000000
310
00000000000000000000000000000000000000000000000000000000000000000000000000000000000000000000000000000000000000000000000000000000000000000000000000EC0000000000000000000F0F000000000000000000000000000000000000000000000000000000000000000000000000000000000000
310
0000000000000000000000000000000000000000000000000000000000000000000000000000000000000000000000000000000000000000000000000000000000000000000000000000000000000000000000000000000000000000000000000000000000000000000000000000000000000F00000000EC00000000000000
310
000000000000000000000000000000000000000000000000000000000000000000000000000000000000000000000000000000000000000000000000000000000000000000000000000000EC0000000000000000000F0F00000000000000000000000000000000000000000000000000000000000000000000000000000000
310
00000000000000000000000000000000000000000000000000000000000000000000000000000000000000000000000000000000000000000000000000000000000000000000000000000000000000000000000000000000000000000000000000000000000000000000000000000000000000000F00000000EC0000000000
310
0000000000000000000000000000000000000000000000000000000000000000000000000000000000000000000000000000000000000000000000000000000000000000000000000000000000EC0000000000000000000F0F0F0F0F00000F0F0F00000F0F0F00000000000000000000000000000000000000000000000000
310
000000000000000000000000000000000000000000000000000000000000000000000000000000000000000000000000000000000000000000000000000000000000000000000000000000000000000000000000000000000000000000000000000000000000000000000000000000000000000000000F00000000EC000000
310
00000000000000000000000000000000000000000000000000000000000000000000000000000000000000000000000000000000000000000000000000000000000000000000000000000000000000EC0000000000000000000F0F0F0F0F0F0F0F0F0F0F0F0F0F0F0000000000000000000000000000000000000000000000
310
00000000000000000000000000000000000000000000000000000000000000000000000000000000000000000000000000000000000000000000000000000000000000000000000000000000000000000000000000000000000000000000000F0F0F0F0F0F0F0F0F0F0F0F0F0F0F0F0F0F0F0F0F0F0F0F0F0F00000000EC00
310
000000000000000000000000000000000000000000000000000000000000000000000000000000000000000000000000000000000000000000000000000000000000000000000000000000000000000000EC0000000000000000000F0F0F0F0F0F0F0F0F0F0F0F0F0F0F000000000000000000000000000000000000000000
310
000000000000000000000000000000000000000000000000000000000000000000000000000000000000000000000000000000000000000000000000000000000000000000000000000000000000000000000000000000000000000000000000000F2D2D2D2D2D2D2D2D00002D2D2D002D2D2D2D002D2D2D00000F00000000
310
EC00000000000000000000000000000000000000000000000000000000000000000000000000000000000000000000000000000000000000000000000000000000000000000000000000000000000000000000EC0000000000000000000F0F00000F0F0F0F0F0F0F0F0F000000000000000000000000000000000000000000
310
0000000000000000000000000000000000000000000000000000000000000000000000000000000000000000000000000000000000000000000000000000000000000000000000000000000000000000000000000000000000000000000000000000000F2D2D2D2D002D2D2D00002D2D2D2D2D2D2D2D2D2D2D2D00000F0000
310
0000EC00000000000000000000000000000000000000000000000000000000000000000000000000000000000000000000000000000000000000000000000000000000000000000000000000000000000000000000EC0000000000000000000F0F0F0F0F0F0F0F0F0F0F0F0F0F0F0F0F0F0F0F0F0F0F0F0F0F0F0F0F0F0F0F
310
0F0F0F0F0F0F0F0F0F0F0F0F0F0F0F0F0F0F0F0F0F0F0F0F0F0F0F0F0F0F0F0F0F0F0F0F0F0F0F0F0F0F0F0F0F0F0F0F0F0F0F0F0F0F0F0F0F0F0F0F0F0F0F0F0F0F0F0F0F0F0F0F0F0F0F0F0F0F0F0F0F0F0F0F0F0F0F0F0F0F0F0F0F0F0F0F0F0F0F0F0F0F0F0F0F0F0F0F0F0F0F0F2D2D2D0F2D2D2D2D0F2D2D0F0F0F0F
310
00000000EC00000000000000000000000000000000000000000000000000000000000000000000000000000000000000000000000000000000000000000000000000000000000000000000000000000000000000000000EC000000000000000000000000000000000000000000000000000000000000000000000000000000
310
00000000000000000000000000000000000000000000000000000000000000000000000000000000000000000000000000000000000000000000000000000000000000000000000000000000000000000000000000000000000000000000000000000000000000000000000000000000000000000000000000000000000000
310
000000000000EC00000000000000000000000000000000000000000000000000000000000000000000000000000000000000000000000000000000000000000000000000000000000000000000000000000000000000000000EC00000000000000000000000000000000000000000000000000000000000000000000000000
310
00000000000000000000000000000000000000000000000000000000000000000000000000000000000000000000000000000000000000000000000000000000000000000000000000000000000000000000000000000000000000000000000000000000000000000000000000000000000000000000000000000000000000
310
0000000000000000EC00000000000000000000000000000000000000000000000000000000000000000000000000000000000000000000000000000000000000000000000000000000000000000000000000000000000000000000EC0000000000000000000000000000000000000000000000000000000000000000000000
310
00000000000000000000000000000000000000000000000000000000000000000000000000000000000000000000000000000000000000000000000000000000000000000000000000000000000000000000000000000000000000000000000000000000000000000000000000000000000000000000000000000000000000
310
00000000000000000000EC00000000000000000000000000000000000000000000000000000000000000000000000000000000000000000000000000000000000000000000000000000000000000000000000000000000000000000000EC000000000000000000000000000000000000000000000000000000000000000000
310
00000000000000000000000000000000000000000000000000000000000000000000000000000000000000000000000000000000000000000000000000000000000000000000000000000000000000000000000000000000000000000000000000000000000000000000000000000000000000000000000000000000000000
310
000000000000000000000000EC00000000000000000000000000000000000000000000000000000000000000000000000000000000000000000000000000000000000000000000000000000000000000000000000000000000000000000000ECECECECECECECECECECECECECECECECECECECECECECECECECECECECECECECEC
310
ECECECECECECECECECECECECECECECECECECECECECECECECECECECECECECECECECECECECECECECECECECECECECECECECECECECECECECECECECECECECECECECECECECECECECECECECECECECECECECECECECECECECECECECECECECECECECECECECECECECECECECECECECECECECECECECECECECECECECECECECECECECECECECEC
310
ECECECECECECECECECECECECECECECECECECECECECECEC0000000000000000000000000000000000000000000000000000000000000000000000000000000000000000000000000000000000000000000000000000000000000000000000000000000000000000000000000000000000000000000000000000000000000000
310
00000000000000000000000000000000000000000000000000000000000000000000000000000000000000000000000000000000000000000000000000000000000000000000000000000000000000000000000000000000000000000000000000000000000000000000000000000000000000000000000000000000000000
310
00000000000000000000000000000000EC0000000000000000000000000000000000000000000000000000000000000000000000000000000000000000000000000000000000000000000000000000000000000000000000000000000000000000000000000000000000000000000000000000000000000000000000000000
310
00000000000000000000000000000000000000000000000000000000000000000000000000000000000000000000000000000000000000000000000000000000000000000000000000000000000000000000000000000000000000000000000000000000000000000000000000000000000000000000000000000000000000
310
000000000000000000000000000000000000EC000000000000000000000000000000000000000000000000000000000000000000000000000000000000000000000000000000000000000000000000000000000000000000000000000000000000000000000000000000000000000000000000000000000000000000000000
310
00000000000000000000000000000000000000000000000000000000000000000000000000000000000000000000000000000000000000000000000000000000000000000000000000000000000000000000000000000000000000000000000000000000000000000000000000000000000000000000000000000000000000
310
0000000000000000000000000000000000000000EC00000000000000000000000000000000000000000000000000000000000000000000000000000000000000000000000000000000000000000000000000000000000000000000000000000000000000000000000000000000000000000000000000000000000000000000
310
00000000000000000000000000000000000000000000000000000000000000000000000000000000000000000000000000000000000000000000000000000000000000000000000000000000000000000000000000000000000000000000000000000000000000000000000000000000000000000000000000000000000000
310
00000000000000000000000000000000000000000000EC0000000000000000000000000000000000000000000000000000000000000000000000000000000000000000000000000000000000000000000000000000000000000000000000000000000000000000000000000000000000000000000000000000000000000000
310
00000000000000000000000000000000000000000000000000000000000000000000000000000000000000000000000000000000000000000000000000000000000000000000000000000000000000000000000000000000000000000000000000000000000000000000000000000000000000000000000000000000000000
310
000000000000000000000000000000000000000000000000EC000000000000000000000000000000000000000000000000000000000000000000000000000000000000000000000000000000000000000000000000000000000000000000000000000000000000000000000000000000000000000000000000000000000000
310
00000000000000000000000000000000000000000000000000000000000000000000000000000000000000000000000000000000000000000000000000000000000000000000000000000000000000000000000000000000000000000000000000000000000000000000000000000000000000000000000000000000000000
310
0000000000000000000000000000000000000000000000000000EC00000000000000000000000000000000000000000000000000000000000000000000000000000000000000000000000000000000000000000000000000000000000000000000000000000000000000000000000000000000000000000000000000000000
310
00000000000000000000000000000000000000000000000000000000000000000000000000000000000000000000000000000000000000000000000000000000000000000000000000000000000000000000000000000000000000000000000000000000000000000000000000000000000000000000000000000000000000
310
00000000000000000000000000000000000000000000000000000000EC0000000000000000000000000000000000000000000000000000000000000000000000000000000000000000000000000000000000000000000000000000000000000000000000000000000000000000000000000000000000000000000000000000
310
00000000000000000000000000000000000000000000000000000000000000000000000000000000000000000000000000000000000000000000000000000000000000000000000000000000000000000000000000000000000000000000000000000000000000000000000000000000000000000000000000000000000000
310
000000000000000000000000000000000000000000000000000000000000EC000000000000000000000000000000000000000000000000000000000000000000000000000000000000000000000000000000000000000000000000000000000000000000000000000000000000000000000000000000000000000000000000
310
00000000000000000000000000000000000000000000000000000000000000000000000000000000000000000000000000000000000000000000000000000000000000000000000000000000000000000000000000000000000000000000000000000000000000000000000000000000000000000000000000000000000000
310
0000000000000000000000000000000000000000000000000000000000000000000000000000000000000000000000000000000000000000000000000000000000000000000000000000
  0
XRECORD
  5
92D
102
{ACAD_REACTORS
330
92C
102
}
330
92C
100
AcDbXrecord
280
     1
102
SHADEPLOT
 70
     0
102
SHADEPLOTRESLEVEL
 70
     2
102
SHADEPLOTCUSTOMDPI
 70
   300
  0
XRECORD
  5
8F7
102
{ACAD_REACTORS
330
522
102
}
330
522
100
AcDbXrecord
280
     1
102
MATERIAL
148
0.0
149
0.0
149
0.0
 93
        0
 94
      127
282
     0
 72
     0
 77
     0
171
     0
175
     0
179
     0
273
     0
  0
XRECORD
  5
524
102
{ACAD_REACTORS
330
522
102
}
330
522
100
AcDbXrecord
280
     1
270
     1
271
     1
  0
XRECORD
  5
523
102
{ACAD_REACTORS
330
522
102
}
330
522
100
AcDbXrecord
280
     1
270
     1
271
     1
  0
XRECORD
  5
527
102
{ACAD_REACTORS
330
522
102
}
330
522
100
AcDbXrecord
280
     1
270
     1
271
     1
  0
XRECORD
  5
526
102
{ACAD_REACTORS
330
522
102
}
330
522
100
AcDbXrecord
280
     1
270
     1
271
     1
  0
XRECORD
  5
528
102
{ACAD_REACTORS
330
522
102
}
330
522
100
AcDbXrecord
280
     1
270
     1
271
     1
  0
XRECORD
  5
525
102
{ACAD_REACTORS
330
522
102
}
330
522
100
AcDbXrecord
280
     1
270
     1
271
     1
  0
XRECORD
  5
8F6
102
{ACAD_REACTORS
330
51A
102
}
330
51A
100
AcDbXrecord
280
     1
102
MATERIAL
148
0.0
149
0.0
149
0.0
 93
        0
 94
      127
282
     0
 72
     0
 77
     0
171
     0
175
     0
179
     0
273
     0
  0
XRECORD
  5
51C
102
{ACAD_REACTORS
330
51A
102
}
330
51A
100
AcDbXrecord
280
     1
270
     1
271
     1
  0
XRECORD
  5
51B
102
{ACAD_REACTORS
330
51A
102
}
330
51A
100
AcDbXrecord
280
     1
270
     1
271
     1
  0
XRECORD
  5
51F
102
{ACAD_REACTORS
330
51A
102
}
330
51A
100
AcDbXrecord
280
     1
270
     1
271
     1
  0
XRECORD
  5
51E
102
{ACAD_REACTORS
330
51A
102
}
330
51A
100
AcDbXrecord
280
     1
270
     1
271
     1
  0
XRECORD
  5
520
102
{ACAD_REACTORS
330
51A
102
}
330
51A
100
AcDbXrecord
280
     1
270
     1
271
     1
  0
XRECORD
  5
51D
102
{ACAD_REACTORS
330
51A
102
}
330
51A
100
AcDbXrecord
280
     1
270
     1
271
     1
  0
XRECORD
  5
8F8
102
{ACAD_REACTORS
330
52A
102
}
330
52A
100
AcDbXrecord
280
     1
102
MATERIAL
148
0.0
149
0.0
149
0.0
 93
        0
 94
      127
282
     0
 72
     0
 77
     0
171
     0
175
     0
179
     0
273
     0
  0
XRECORD
  5
52C
102
{ACAD_REACTORS
330
52A
102
}
330
52A
100
AcDbXrecord
280
     1
270
     1
271
     1
  0
XRECORD
  5
52B
102
{ACAD_REACTORS
330
52A
102
}
330
52A
100
AcDbXrecord
280
     1
270
     1
271
     1
  0
XRECORD
  5
52F
102
{ACAD_REACTORS
330
52A
102
}
330
52A
100
AcDbXrecord
280
     1
270
     1
271
     1
  0
XRECORD
  5
52E
102
{ACAD_REACTORS
330
52A
102
}
330
52A
100
AcDbXrecord
280
     1
270
     1
271
     1
  0
XRECORD
  5
530
102
{ACAD_REACTORS
330
52A
102
}
330
52A
100
AcDbXrecord
280
     1
270
     1
271
     1
  0
XRECORD
  5
52D
102
{ACAD_REACTORS
330
52A
102
}
330
52A
100
AcDbXrecord
280
     1
270
     1
271
     1
  0
CELLSTYLEMAP
  5
8F3
102
{ACAD_REACTORS
330
8F2
102
}
330
8F2
100
AcDbCellStyleMap
 90
        3
300
CELLSTYLE
  1
TABLEFORMAT_BEGIN
 90
        5
170
     1
 91
        0
 92
    32768
 62
   257
 93
        1
300
CONTENTFORMAT
  1
CONTENTFORMAT_BEGIN
 90
        0
 91
        0
 92
      512
 93
        0
300

 40
0.0
140
1.0
 94
        5
 62
     0
340
10
144
0.25
309
CONTENTFORMAT_END
171
     0
 94
        0
309
TABLEFORMAT_END
  1
CELLSTYLE_BEGIN
 90
        1
 91
        1
300
_TITLE
309
CELLSTYLE_END
300
CELLSTYLE
  1
TABLEFORMAT_BEGIN
 90
        5
170
     1
 91
        0
 92
        0
 62
   257
 93
        1
300
CONTENTFORMAT
  1
CONTENTFORMAT_BEGIN
 90
        0
 91
        0
 92
      512
 93
        0
300

 40
0.0
140
1.0
 94
        5
 62
     0
340
10
144
0.18
309
CONTENTFORMAT_END
171
     0
 94
        0
309
TABLEFORMAT_END
  1
CELLSTYLE_BEGIN
 90
        2
 91
        1
300
_HEADER
309
CELLSTYLE_END
300
CELLSTYLE
  1
TABLEFORMAT_BEGIN
 90
        5
170
     1
 91
        0
 92
        0
 62
   257
 93
        1
300
CONTENTFORMAT
  1
CONTENTFORMAT_BEGIN
 90
        0
 91
        0
 92
      512
 93
        0
300

 40
0.0
140
1.0
 94
        2
 62
     0
340
10
144
0.18
309
CONTENTFORMAT_END
171
     0
 94
        0
309
TABLEFORMAT_END
  1
CELLSTYLE_BEGIN
 90
        3
 91
        2
300
_DATA
309
CELLSTYLE_END
  0
XRECORD
  5
929
102
{ACAD_REACTORS
330
8F2
102
}
330
8F2
100
AcDbXrecord
280
     1
102
ACAD_ROUNDTRIP_PRE2007_TABLESTYLE
 90
      512
 91
        0
  1

 92
      512
 93
        0
  2

 94
      512
 95
        0
  3

  0
XRECORD
  5
904
102
{ACAD_REACTORS
330
903
102
}
330
903
100
AcDbXrecord
280
     1
102
RTVSPropertyOp0
 70
     1
102
RTVSPropertyOp1
 70
     1
102
RTVSPropertyOp2
 70
     1
102
RTVSPropertyOp3
 70
     1
102
RTVSPropertyOp4
 70
     1
102
RTVSPropertyOp5
 70
     1
102
RTVSPropertyOp6
 70
     1
102
RTVSPropertyOp7
 70
     1
102
RTVSPropertyOp8
 70
     1
102
RTVSPropertyOp9
 70
     1
102
RTVSPropertyOp10
 70
     1
102
RTVSPropertyOp11
 70
     1
102
RTVSPropertyOp12
 70
     1
102
RTVSPropertyOp13
 70
     1
102
RTVSPropertyOp14
 70
     1
102
RTVSPropertyOp15
 70
     1
102
RTVSPropertyOp16
 70
     1
102
RTVSPropertyOp17
 70
     1
102
RTVSPropertyOp18
 70
     1
102
RTVSPropertyOp19
 70
     1
102
RTVSPropertyOp20
 70
     1
102
RTVSPropertyOp21
 70
     1
102
RTVSPropertyOp22
 70
     1
102
RTVSPropertyOp23
 70
     1
102
RTVSPropertyOp24
 70
     1
102
RTVSPropertyOp25
 70
     1
102
RTVSPropertyOp26
 70
     1
102
RTVSPropertyOp27
 70
     1
102
RTVSPropertyOp28
 70
     1
102
RTVSPropertyOp29
 70
     1
102
RTVSPropertyOp30
 70
     1
102
RTVSPropertyOp31
 70
     1
102
RTVSPropertyOp32
 70
     1
  0
XRECORD
  5
902
102
{ACAD_REACTORS
330
901
102
}
330
901
100
AcDbXrecord
280
     1
102
RTVSPropertyOp0
 70
     1
102
RTVSPropertyOp1
 70
     1
102
RTVSPropertyOp2
 70
     1
102
RTVSPropertyOp3
 70
     1
102
RTVSPropertyOp4
 70
     1
102
RTVSPropertyOp5
 70
     1
102
RTVSPropertyOp6
 70
     1
102
RTVSPropertyOp7
 70
     1
102
RTVSPropertyOp8
 70
     1
102
RTVSPropertyOp9
 70
     1
102
RTVSPropertyOp10
 70
     1
102
RTVSPropertyOp11
 70
     1
102
RTVSPropertyOp12
 70
     1
102
RTVSPropertyOp13
 70
     1
102
RTVSPropertyOp14
 70
     1
102
RTVSPropertyOp15
 70
     1
102
RTVSPropertyOp16
 70
     1
102
RTVSPropertyOp17
 70
     1
102
RTVSPropertyOp18
 70
     1
102
RTVSPropertyOp19
 70
     1
102
RTVSPropertyOp20
 70
     1
102
RTVSPropertyOp21
 70
     1
102
RTVSPropertyOp22
 70
     1
102
RTVSPropertyOp23
 70
     1
102
RTVSPropertyOp24
 70
     1
102
RTVSPropertyOp25
 70
     1
102
RTVSPropertyOp26
 70
     1
102
RTVSPropertyOp27
 70
     1
102
RTVSPropertyOp28
 70
     1
102
RTVSPropertyOp29
 70
     1
102
RTVSPropertyOp30
 70
     1
102
RTVSPropertyOp31
 70
     1
102
RTVSPropertyOp32
 70
     1
  0
XRECORD
  5
910
102
{ACAD_REACTORS
330
90F
102
}
330
90F
100
AcDbXrecord
280
     1
102
RTVSPropertyOp0
 70
     1
102
RTVSPropertyOp1
 70
     1
102
RTVSPropertyOp2
 70
     1
102
RTVSPropertyOp3
 70
     1
102
RTVSPropertyOp4
 70
     1
102
RTVSPropertyOp5
 70
     1
102
RTVSPropertyOp6
 70
     1
102
RTVSPropertyOp7
 70
     1
102
RTVSPropertyOp8
 70
     1
102
RTVSPropertyOp9
 70
     1
102
RTVSPropertyOp10
 70
     1
102
RTVSPropertyOp11
 70
     1
102
RTVSPropertyOp12
 70
     1
102
RTVSPropertyOp13
 70
     1
102
RTVSPropertyOp14
 70
     1
102
RTVSPropertyOp15
 70
     1
102
RTVSPropertyOp16
 70
     1
102
RTVSPropertyOp17
 70
     1
102
RTVSPropertyOp18
 70
     1
102
RTVSPropertyOp19
 70
     1
102
RTVSPropertyOp20
 70
     1
102
RTVSPropertyOp21
 70
     1
102
RTVSPropertyOp22
 70
     1
102
RTVSPropertyOp23
 70
     1
102
RTVSPropertyOp24
 70
     1
102
RTVSPropertyOp25
 70
     1
102
RTVSPropertyOp26
 70
     1
102
RTVSPropertyOp27
 70
     1
102
RTVSPropertyOp28
 70
     1
102
RTVSPropertyOp29
 70
     1
102
RTVSPropertyOp30
 70
     1
102
RTVSPropertyOp31
 70
     1
102
RTVSPropertyOp32
 70
     1
  0
XRECORD
  5
918
102
{ACAD_REACTORS
330
917
102
}
330
917
100
AcDbXrecord
280
     1
102
RTVSPropertyOp0
 70
     1
102
RTVSPropertyOp1
 70
     1
102
RTVSPropertyOp2
 70
     1
102
RTVSPropertyOp3
 70
     1
102
RTVSPropertyOp4
 70
     1
102
RTVSPropertyOp5
 70
     1
102
RTVSPropertyOp6
 70
     1
102
RTVSPropertyOp7
 70
     1
102
RTVSPropertyOp8
 70
     1
102
RTVSPropertyOp9
 70
     1
102
RTVSPropertyOp10
 70
     1
102
RTVSPropertyOp11
 70
     1
102
RTVSPropertyOp12
 70
     1
102
RTVSPropertyOp13
 70
     1
102
RTVSPropertyOp14
 70
     1
102
RTVSPropertyOp15
 70
     1
102
RTVSPropertyOp16
 70
     1
102
RTVSPropertyOp17
 70
     1
102
RTVSPropertyOp18
 70
     1
102
RTVSPropertyOp19
 70
     1
102
RTVSPropertyOp20
 70
     1
102
RTVSPropertyOp21
 70
     1
102
RTVSPropertyOp22
 70
     1
102
RTVSPropertyOp23
 70
     1
102
RTVSPropertyOp24
 70
     1
102
RTVSPropertyOp25
 70
     1
102
RTVSPropertyOp26
 70
     1
102
RTVSPropertyOp27
 70
     1
102
RTVSPropertyOp28
 70
     1
102
RTVSPropertyOp29
 70
     1
102
RTVSPropertyOp30
 70
     1
102
RTVSPropertyOp31
 70
     1
102
RTVSPropertyOp32
 70
     1
  0
XRECORD
  5
90A
102
{ACAD_REACTORS
330
909
102
}
330
909
100
AcDbXrecord
280
     1
102
RTVSPropertyOp0
 70
     1
102
RTVSPropertyOp1
 70
     1
102
RTVSPropertyOp2
 70
     1
102
RTVSPropertyOp3
 70
     1
102
RTVSPropertyOp4
 70
     1
102
RTVSPropertyOp5
 70
     1
102
RTVSPropertyOp6
 70
     1
102
RTVSPropertyOp7
 70
     1
102
RTVSPropertyOp8
 70
     1
102
RTVSPropertyOp9
 70
     1
102
RTVSPropertyOp10
 70
     1
102
RTVSPropertyOp11
 70
     1
102
RTVSPropertyOp12
 70
     1
102
RTVSPropertyOp13
 70
     1
102
RTVSPropertyOp14
 70
     1
102
RTVSPropertyOp15
 70
     1
102
RTVSPropertyOp16
 70
     1
102
RTVSPropertyOp17
 70
     1
102
RTVSPropertyOp18
 70
     1
102
RTVSPropertyOp19
 70
     1
102
RTVSPropertyOp20
 70
     1
102
RTVSPropertyOp21
 70
     1
102
RTVSPropertyOp22
 70
     1
102
RTVSPropertyOp23
 70
     1
102
RTVSPropertyOp24
 70
     1
102
RTVSPropertyOp25
 70
     1
102
RTVSPropertyOp26
 70
     1
102
RTVSPropertyOp27
 70
     1
102
RTVSPropertyOp28
 70
     1
102
RTVSPropertyOp29
 70
     1
102
RTVSPropertyOp30
 70
     1
102
RTVSPropertyOp31
 70
     1
102
RTVSPropertyOp32
 70
     1
  0
XRECORD
  5
90E
102
{ACAD_REACTORS
330
90D
102
}
330
90D
100
AcDbXrecord
280
     1
102
RTVSPropertyOp0
 70
     1
102
RTVSPropertyOp1
 70
     1
102
RTVSPropertyOp2
 70
     1
102
RTVSPropertyOp3
 70
     1
102
RTVSPropertyOp4
 70
     1
102
RTVSPropertyOp5
 70
     1
102
RTVSPropertyOp6
 70
     1
102
RTVSPropertyOp7
 70
     1
102
RTVSPropertyOp8
 70
     1
102
RTVSPropertyOp9
 70
     1
102
RTVSPropertyOp10
 70
     1
102
RTVSPropertyOp11
 70
     1
102
RTVSPropertyOp12
 70
     1
102
RTVSPropertyOp13
 70
     1
102
RTVSPropertyOp14
 70
     1
102
RTVSPropertyOp15
 70
     1
102
RTVSPropertyOp16
 70
     1
102
RTVSPropertyOp17
 70
     1
102
RTVSPropertyOp18
 70
     1
102
RTVSPropertyOp19
 70
     1
102
RTVSPropertyOp20
 70
     1
102
RTVSPropertyOp21
 70
     1
102
RTVSPropertyOp22
 70
     1
102
RTVSPropertyOp23
 70
     1
102
RTVSPropertyOp24
 70
     1
102
RTVSPropertyOp25
 70
     1
102
RTVSPropertyOp26
 70
     1
102
RTVSPropertyOp27
 70
     1
102
RTVSPropertyOp28
 70
     1
102
RTVSPropertyOp29
 70
     1
102
RTVSPropertyOp30
 70
     1
102
RTVSPropertyOp31
 70
     1
102
RTVSPropertyOp32
 70
     1
  0
XRECORD
  5
928
102
{ACAD_REACTORS
330
927
102
}
330
927
100
AcDbXrecord
280
     1
102
RTVSPropertyOp0
 70
     0
102
RTVSPropertyOp1
 70
     0
102
RTVSPropertyOp2
 70
     0
102
RTVSPropertyOp3
 70
     0
102
RTVSPropertyOp4
 70
     0
102
RTVSPropertyOp5
 70
     0
102
RTVSPropertyOp6
 70
     0
102
RTVSPropertyOp7
 70
     0
102
RTVSPropertyOp8
 70
     0
102
RTVSPropertyOp9
 70
     0
102
RTVSPropertyOp10
 70
     0
102
RTVSPropertyOp11
 70
     0
102
RTVSPropertyOp12
 70
     0
102
RTVSPropertyOp13
 70
     0
102
RTVSPropertyOp14
 70
     2
102
RTVSPropertyOp15
 70
     0
102
RTVSPropertyOp16
 70
     0
102
RTVSPropertyOp17
 70
     0
102
RTVSPropertyOp18
 70
     0
102
RTVSPropertyOp19
 70
     0
102
RTVSPropertyOp20
 70
     0
102
RTVSPropertyOp21
 70
     0
102
RTVSPropertyOp22
 70
     0
102
RTVSPropertyOp23
 70
     0
102
RTVSPropertyOp24
 70
     0
102
RTVSPropertyOp25
 70
     0
102
RTVSPropertyOp26
 70
     0
102
RTVSPropertyOp27
 70
     0
102
RTVSPropertyOp28
 70
     1
102
RTVSPropertyOp29
 70
     1
102
RTVSPropertyOp30
 70
     1
102
RTVSPropertyOp31
 70
     1
102
RTVSPropertyOp32
 70
     1
  0
XRECORD
  5
916
102
{ACAD_REACTORS
330
915
102
}
330
915
100
AcDbXrecord
280
     1
102
RTVSPropertyOp0
 70
     1
102
RTVSPropertyOp1
 70
     1
102
RTVSPropertyOp2
 70
     1
102
RTVSPropertyOp3
 70
     1
102
RTVSPropertyOp4
 70
     1
102
RTVSPropertyOp5
 70
     1
102
RTVSPropertyOp6
 70
     1
102
RTVSPropertyOp7
 70
     1
102
RTVSPropertyOp8
 70
     1
102
RTVSPropertyOp9
 70
     1
102
RTVSPropertyOp10
 70
     1
102
RTVSPropertyOp11
 70
     1
102
RTVSPropertyOp12
 70
     1
102
RTVSPropertyOp13
 70
     1
102
RTVSPropertyOp14
 70
     1
102
RTVSPropertyOp15
 70
     1
102
RTVSPropertyOp16
 70
     1
102
RTVSPropertyOp17
 70
     1
102
RTVSPropertyOp18
 70
     1
102
RTVSPropertyOp19
 70
     1
102
RTVSPropertyOp20
 70
     1
102
RTVSPropertyOp21
 70
     1
102
RTVSPropertyOp22
 70
     1
102
RTVSPropertyOp23
 70
     1
102
RTVSPropertyOp24
 70
     1
102
RTVSPropertyOp25
 70
     1
102
RTVSPropertyOp26
 70
     1
102
RTVSPropertyOp27
 70
     1
102
RTVSPropertyOp28
 70
     1
102
RTVSPropertyOp29
 70
     1
102
RTVSPropertyOp30
 70
     1
102
RTVSPropertyOp31
 70
     1
102
RTVSPropertyOp32
 70
     1
  0
XRECORD
  5
8FA
102
{ACAD_REACTORS
330
8F9
102
}
330
8F9
100
AcDbXrecord
280
     1
102
RTVSPropertyOp0
 70
     1
102
RTVSPropertyOp1
 70
     1
102
RTVSPropertyOp2
 70
     1
102
RTVSPropertyOp3
 70
     1
102
RTVSPropertyOp4
 70
     1
102
RTVSPropertyOp5
 70
     1
102
RTVSPropertyOp6
 70
     1
102
RTVSPropertyOp7
 70
     1
102
RTVSPropertyOp8
 70
     1
102
RTVSPropertyOp9
 70
     1
102
RTVSPropertyOp10
 70
     1
102
RTVSPropertyOp11
 70
     1
102
RTVSPropertyOp12
 70
     1
102
RTVSPropertyOp13
 70
     1
102
RTVSPropertyOp14
 70
     1
102
RTVSPropertyOp15
 70
     1
102
RTVSPropertyOp16
 70
     1
102
RTVSPropertyOp17
 70
     1
102
RTVSPropertyOp18
 70
     1
102
RTVSPropertyOp19
 70
     1
102
RTVSPropertyOp20
 70
     1
102
RTVSPropertyOp21
 70
     1
102
RTVSPropertyOp22
 70
     1
102
RTVSPropertyOp23
 70
     1
102
RTVSPropertyOp24
 70
     1
102
RTVSPropertyOp25
 70
     1
102
RTVSPropertyOp26
 70
     1
102
RTVSPropertyOp27
 70
     1
102
RTVSPropertyOp28
 70
     1
102
RTVSPropertyOp29
 70
     1
102
RTVSPropertyOp30
 70
     1
102
RTVSPropertyOp31
 70
     1
102
RTVSPropertyOp32
 70
     1
  0
XRECORD
  5
8FC
102
{ACAD_REACTORS
330
8FB
102
}
330
8FB
100
AcDbXrecord
280
     1
102
RTVSPropertyOp0
 70
     1
102
RTVSPropertyOp1
 70
     1
102
RTVSPropertyOp2
 70
     1
102
RTVSPropertyOp3
 70
     1
102
RTVSPropertyOp4
 70
     1
102
RTVSPropertyOp5
 70
     1
102
RTVSPropertyOp6
 70
     1
102
RTVSPropertyOp7
 70
     1
102
RTVSPropertyOp8
 70
     1
102
RTVSPropertyOp9
 70
     1
102
RTVSPropertyOp10
 70
     1
102
RTVSPropertyOp11
 70
     1
102
RTVSPropertyOp12
 70
     1
102
RTVSPropertyOp13
 70
     1
102
RTVSPropertyOp14
 70
     1
102
RTVSPropertyOp15
 70
     1
102
RTVSPropertyOp16
 70
     1
102
RTVSPropertyOp17
 70
     1
102
RTVSPropertyOp18
 70
     1
102
RTVSPropertyOp19
 70
     1
102
RTVSPropertyOp20
 70
     1
102
RTVSPropertyOp21
 70
     1
102
RTVSPropertyOp22
 70
     1
102
RTVSPropertyOp23
 70
     1
102
RTVSPropertyOp24
 70
     1
102
RTVSPropertyOp25
 70
     1
102
RTVSPropertyOp26
 70
     1
102
RTVSPropertyOp27
 70
     1
102
RTVSPropertyOp28
 70
     1
102
RTVSPropertyOp29
 70
     1
102
RTVSPropertyOp30
 70
     1
102
RTVSPropertyOp31
 70
     1
102
RTVSPropertyOp32
 70
     1
  0
XRECORD
  5
8FE
102
{ACAD_REACTORS
330
8FD
102
}
330
8FD
100
AcDbXrecord
280
     1
102
RTVSPropertyOp0
 70
     1
102
RTVSPropertyOp1
 70
     1
102
RTVSPropertyOp2
 70
     1
102
RTVSPropertyOp3
 70
     1
102
RTVSPropertyOp4
 70
     1
102
RTVSPropertyOp5
 70
     1
102
RTVSPropertyOp6
 70
     1
102
RTVSPropertyOp7
 70
     1
102
RTVSPropertyOp8
 70
     1
102
RTVSPropertyOp9
 70
     1
102
RTVSPropertyOp10
 70
     1
102
RTVSPropertyOp11
 70
     1
102
RTVSPropertyOp12
 70
     1
102
RTVSPropertyOp13
 70
     1
102
RTVSPropertyOp14
 70
     1
102
RTVSPropertyOp15
 70
     1
102
RTVSPropertyOp16
 70
     1
102
RTVSPropertyOp17
 70
     1
102
RTVSPropertyOp18
 70
     1
102
RTVSPropertyOp19
 70
     1
102
RTVSPropertyOp20
 70
     1
102
RTVSPropertyOp21
 70
     1
102
RTVSPropertyOp22
 70
     1
102
RTVSPropertyOp23
 70
     1
102
RTVSPropertyOp24
 70
     1
102
RTVSPropertyOp25
 70
     1
102
RTVSPropertyOp26
 70
     1
102
RTVSPropertyOp27
 70
     1
102
RTVSPropertyOp28
 70
     1
102
RTVSPropertyOp29
 70
     1
102
RTVSPropertyOp30
 70
     1
102
RTVSPropertyOp31
 70
     1
102
RTVSPropertyOp32
 70
     1
  0
XRECORD
  5
900
102
{ACAD_REACTORS
330
8FF
102
}
330
8FF
100
AcDbXrecord
280
     1
102
RTVSPropertyOp0
 70
     1
102
RTVSPropertyOp1
 70
     1
102
RTVSPropertyOp2
 70
     1
102
RTVSPropertyOp3
 70
     1
102
RTVSPropertyOp4
 70
     1
102
RTVSPropertyOp5
 70
     1
102
RTVSPropertyOp6
 70
     1
102
RTVSPropertyOp7
 70
     1
102
RTVSPropertyOp8
 70
     1
102
RTVSPropertyOp9
 70
     1
102
RTVSPropertyOp10
 70
     1
102
RTVSPropertyOp11
 70
     1
102
RTVSPropertyOp12
 70
     1
102
RTVSPropertyOp13
 70
     1
102
RTVSPropertyOp14
 70
     1
102
RTVSPropertyOp15
 70
     1
102
RTVSPropertyOp16
 70
     1
102
RTVSPropertyOp17
 70
     1
102
RTVSPropertyOp18
 70
     1
102
RTVSPropertyOp19
 70
     1
102
RTVSPropertyOp20
 70
     1
102
RTVSPropertyOp21
 70
     1
102
RTVSPropertyOp22
 70
     1
102
RTVSPropertyOp23
 70
     1
102
RTVSPropertyOp24
 70
     1
102
RTVSPropertyOp25
 70
     1
102
RTVSPropertyOp26
 70
     1
102
RTVSPropertyOp27
 70
     1
102
RTVSPropertyOp28
 70
     1
102
RTVSPropertyOp29
 70
     1
102
RTVSPropertyOp30
 70
     1
102
RTVSPropertyOp31
 70
     1
102
RTVSPropertyOp32
 70
     1
  0
XRECORD
  5
908
102
{ACAD_REACTORS
330
907
102
}
330
907
100
AcDbXrecord
280
     1
102
RTVSPropertyOp0
 70
     1
102
RTVSPropertyOp1
 70
     1
102
RTVSPropertyOp2
 70
     1
102
RTVSPropertyOp3
 70
     1
102
RTVSPropertyOp4
 70
     1
102
RTVSPropertyOp5
 70
     1
102
RTVSPropertyOp6
 70
     1
102
RTVSPropertyOp7
 70
     1
102
RTVSPropertyOp8
 70
     1
102
RTVSPropertyOp9
 70
     1
102
RTVSPropertyOp10
 70
     1
102
RTVSPropertyOp11
 70
     1
102
RTVSPropertyOp12
 70
     1
102
RTVSPropertyOp13
 70
     1
102
RTVSPropertyOp14
 70
     1
102
RTVSPropertyOp15
 70
     1
102
RTVSPropertyOp16
 70
     1
102
RTVSPropertyOp17
 70
     1
102
RTVSPropertyOp18
 70
     1
102
RTVSPropertyOp19
 70
     1
102
RTVSPropertyOp20
 70
     1
102
RTVSPropertyOp21
 70
     1
102
RTVSPropertyOp22
 70
     1
102
RTVSPropertyOp23
 70
     1
102
RTVSPropertyOp24
 70
     1
102
RTVSPropertyOp25
 70
     1
102
RTVSPropertyOp26
 70
     1
102
RTVSPropertyOp27
 70
     1
102
RTVSPropertyOp28
 70
     1
102
RTVSPropertyOp29
 70
     1
102
RTVSPropertyOp30
 70
     1
102
RTVSPropertyOp31
 70
     1
102
RTVSPropertyOp32
 70
     1
  0
XRECORD
  5
924
102
{ACAD_REACTORS
330
923
102
}
330
923
100
AcDbXrecord
280
     1
102
RTVSPropertyOp0
 70
     0
102
RTVSPropertyOp1
 70
     0
102
RTVSPropertyOp2
 70
     0
102
RTVSPropertyOp3
 70
     0
102
RTVSPropertyOp4
 70
     0
102
RTVSPropertyOp5
 70
     0
102
RTVSPropertyOp6
 70
     0
102
RTVSPropertyOp7
 70
     0
102
RTVSPropertyOp8
 70
     0
102
RTVSPropertyOp9
 70
     0
102
RTVSPropertyOp10
 70
     0
102
RTVSPropertyOp11
 70
     0
102
RTVSPropertyOp12
 70
     0
102
RTVSPropertyOp13
 70
     0
102
RTVSPropertyOp14
 70
     2
102
RTVSPropertyOp15
 70
     0
102
RTVSPropertyOp16
 70
     0
102
RTVSPropertyOp17
 70
     0
102
RTVSPropertyOp18
 70
     0
102
RTVSPropertyOp19
 70
     0
102
RTVSPropertyOp20
 70
     0
102
RTVSPropertyOp21
 70
     0
102
RTVSPropertyOp22
 70
     0
102
RTVSPropertyOp23
 70
     0
102
RTVSPropertyOp24
 70
     0
102
RTVSPropertyOp25
 70
     0
102
RTVSPropertyOp26
 70
     0
102
RTVSPropertyOp27
 70
     0
102
RTVSPropertyOp28
 70
     1
102
RTVSPropertyOp29
 70
     1
102
RTVSPropertyOp30
 70
     1
102
RTVSPropertyOp31
 70
     1
102
RTVSPropertyOp32
 70
     1
  0
XRECORD
  5
914
102
{ACAD_REACTORS
330
913
102
}
330
913
100
AcDbXrecord
280
     1
102
RTVSPropertyOp0
 70
     1
102
RTVSPropertyOp1
 70
     1
102
RTVSPropertyOp2
 70
     1
102
RTVSPropertyOp3
 70
     1
102
RTVSPropertyOp4
 70
     1
102
RTVSPropertyOp5
 70
     1
102
RTVSPropertyOp6
 70
     1
102
RTVSPropertyOp7
 70
     1
102
RTVSPropertyOp8
 70
     1
102
RTVSPropertyOp9
 70
     1
102
RTVSPropertyOp10
 70
     1
102
RTVSPropertyOp11
 70
     1
102
RTVSPropertyOp12
 70
     1
102
RTVSPropertyOp13
 70
     1
102
RTVSPropertyOp14
 70
     1
102
RTVSPropertyOp15
 70
     1
102
RTVSPropertyOp16
 70
     1
102
RTVSPropertyOp17
 70
     1
102
RTVSPropertyOp18
 70
     1
102
RTVSPropertyOp19
 70
     1
102
RTVSPropertyOp20
 70
     1
102
RTVSPropertyOp21
 70
     1
102
RTVSPropertyOp22
 70
     1
102
RTVSPropertyOp23
 70
     1
102
RTVSPropertyOp24
 70
     1
102
RTVSPropertyOp25
 70
     1
102
RTVSPropertyOp26
 70
     1
102
RTVSPropertyOp27
 70
     1
102
RTVSPropertyOp28
 70
     1
102
RTVSPropertyOp29
 70
     1
102
RTVSPropertyOp30
 70
     1
102
RTVSPropertyOp31
 70
     1
102
RTVSPropertyOp32
 70
     1
  0
XRECORD
  5
926
102
{ACAD_REACTORS
330
925
102
}
330
925
100
AcDbXrecord
280
     1
102
RTVSPropertyOp0
 70
     0
102
RTVSPropertyOp1
 70
     0
102
RTVSPropertyOp2
 70
     0
102
RTVSPropertyOp3
 70
     0
102
RTVSPropertyOp4
 70
     0
102
RTVSPropertyOp5
 70
     0
102
RTVSPropertyOp6
 70
     0
102
RTVSPropertyOp7
 70
     0
102
RTVSPropertyOp8
 70
     0
102
RTVSPropertyOp9
 70
     0
102
RTVSPropertyOp10
 70
     0
102
RTVSPropertyOp11
 70
     0
102
RTVSPropertyOp12
 70
     0
102
RTVSPropertyOp13
 70
     0
102
RTVSPropertyOp14
 70
     2
102
RTVSPropertyOp15
 70
     0
102
RTVSPropertyOp16
 70
     0
102
RTVSPropertyOp17
 70
     0
102
RTVSPropertyOp18
 70
     0
102
RTVSPropertyOp19
 70
     0
102
RTVSPropertyOp20
 70
     0
102
RTVSPropertyOp21
 70
     0
102
RTVSPropertyOp22
 70
     0
102
RTVSPropertyOp23
 70
     0
102
RTVSPropertyOp24
 70
     0
102
RTVSPropertyOp25
 70
     0
102
RTVSPropertyOp26
 70
     0
102
RTVSPropertyOp27
 70
     0
102
RTVSPropertyOp28
 70
     1
102
RTVSPropertyOp29
 70
     1
102
RTVSPropertyOp30
 70
     1
102
RTVSPropertyOp31
 70
     1
102
RTVSPropertyOp32
 70
     1
  0
XRECORD
  5
90C
102
{ACAD_REACTORS
330
90B
102
}
330
90B
100
AcDbXrecord
280
     1
102
RTVSPropertyOp0
 70
     1
102
RTVSPropertyOp1
 70
     1
102
RTVSPropertyOp2
 70
     1
102
RTVSPropertyOp3
 70
     1
102
RTVSPropertyOp4
 70
     1
102
RTVSPropertyOp5
 70
     1
102
RTVSPropertyOp6
 70
     1
102
RTVSPropertyOp7
 70
     1
102
RTVSPropertyOp8
 70
     1
102
RTVSPropertyOp9
 70
     1
102
RTVSPropertyOp10
 70
     1
102
RTVSPropertyOp11
 70
     1
102
RTVSPropertyOp12
 70
     1
102
RTVSPropertyOp13
 70
     1
102
RTVSPropertyOp14
 70
     1
102
RTVSPropertyOp15
 70
     1
102
RTVSPropertyOp16
 70
     1
102
RTVSPropertyOp17
 70
     1
102
RTVSPropertyOp18
 70
     1
102
RTVSPropertyOp19
 70
     1
102
RTVSPropertyOp20
 70
     1
102
RTVSPropertyOp21
 70
     1
102
RTVSPropertyOp22
 70
     1
102
RTVSPropertyOp23
 70
     1
102
RTVSPropertyOp24
 70
     1
102
RTVSPropertyOp25
 70
     1
102
RTVSPropertyOp26
 70
     1
102
RTVSPropertyOp27
 70
     1
102
RTVSPropertyOp28
 70
     1
102
RTVSPropertyOp29
 70
     1
102
RTVSPropertyOp30
 70
     1
102
RTVSPropertyOp31
 70
     1
102
RTVSPropertyOp32
 70
     1
  0
XRECORD
  5
922
102
{ACAD_REACTORS
330
921
102
}
330
921
100
AcDbXrecord
280
     1
102
RTVSPropertyOp0
 70
     1
102
RTVSPropertyOp1
 70
     1
102
RTVSPropertyOp2
 70
     1
102
RTVSPropertyOp3
 70
     1
102
RTVSPropertyOp4
 70
     1
102
RTVSPropertyOp5
 70
     1
102
RTVSPropertyOp6
 70
     1
102
RTVSPropertyOp7
 70
     1
102
RTVSPropertyOp8
 70
     1
102
RTVSPropertyOp9
 70
     1
102
RTVSPropertyOp10
 70
     1
102
RTVSPropertyOp11
 70
     1
102
RTVSPropertyOp12
 70
     1
102
RTVSPropertyOp13
 70
     1
102
RTVSPropertyOp14
 70
     1
102
RTVSPropertyOp15
 70
     1
102
RTVSPropertyOp16
 70
     1
102
RTVSPropertyOp17
 70
     1
102
RTVSPropertyOp18
 70
     1
102
RTVSPropertyOp19
 70
     1
102
RTVSPropertyOp20
 70
     1
102
RTVSPropertyOp21
 70
     1
102
RTVSPropertyOp22
 70
     1
102
RTVSPropertyOp23
 70
     1
102
RTVSPropertyOp24
 70
     1
102
RTVSPropertyOp25
 70
     1
102
RTVSPropertyOp26
 70
     1
102
RTVSPropertyOp27
 70
     1
102
RTVSPropertyOp28
 70
     1
102
RTVSPropertyOp29
 70
     1
102
RTVSPropertyOp30
 70
     1
102
RTVSPropertyOp31
 70
     1
102
RTVSPropertyOp32
 70
     1
  0
XRECORD
  5
920
102
{ACAD_REACTORS
330
91F
102
}
330
91F
100
AcDbXrecord
280
     1
102
RTVSPropertyOp0
 70
     1
102
RTVSPropertyOp1
 70
     1
102
RTVSPropertyOp2
 70
     1
102
RTVSPropertyOp3
 70
     1
102
RTVSPropertyOp4
 70
     1
102
RTVSPropertyOp5
 70
     1
102
RTVSPropertyOp6
 70
     1
102
RTVSPropertyOp7
 70
     1
102
RTVSPropertyOp8
 70
     1
102
RTVSPropertyOp9
 70
     1
102
RTVSPropertyOp10
 70
     1
102
RTVSPropertyOp11
 70
     1
102
RTVSPropertyOp12
 70
     1
102
RTVSPropertyOp13
 70
     1
102
RTVSPropertyOp14
 70
     1
102
RTVSPropertyOp15
 70
     1
102
RTVSPropertyOp16
 70
     1
102
RTVSPropertyOp17
 70
     1
102
RTVSPropertyOp18
 70
     1
102
RTVSPropertyOp19
 70
     1
102
RTVSPropertyOp20
 70
     1
102
RTVSPropertyOp21
 70
     1
102
RTVSPropertyOp22
 70
     1
102
RTVSPropertyOp23
 70
     1
102
RTVSPropertyOp24
 70
     1
102
RTVSPropertyOp25
 70
     1
102
RTVSPropertyOp26
 70
     1
102
RTVSPropertyOp27
 70
     1
102
RTVSPropertyOp28
 70
     1
102
RTVSPropertyOp29
 70
     1
102
RTVSPropertyOp30
 70
     1
102
RTVSPropertyOp31
 70
     1
102
RTVSPropertyOp32
 70
     1
  0
XRECORD
  5
91A
102
{ACAD_REACTORS
330
919
102
}
330
919
100
AcDbXrecord
280
     1
102
RTVSPropertyOp0
 70
     1
102
RTVSPropertyOp1
 70
     1
102
RTVSPropertyOp2
 70
     1
102
RTVSPropertyOp3
 70
     1
102
RTVSPropertyOp4
 70
     1
102
RTVSPropertyOp5
 70
     1
102
RTVSPropertyOp6
 70
     1
102
RTVSPropertyOp7
 70
     1
102
RTVSPropertyOp8
 70
     1
102
RTVSPropertyOp9
 70
     1
102
RTVSPropertyOp10
 70
     1
102
RTVSPropertyOp11
 70
     1
102
RTVSPropertyOp12
 70
     1
102
RTVSPropertyOp13
 70
     1
102
RTVSPropertyOp14
 70
     1
102
RTVSPropertyOp15
 70
     1
102
RTVSPropertyOp16
 70
     1
102
RTVSPropertyOp17
 70
     1
102
RTVSPropertyOp18
 70
     1
102
RTVSPropertyOp19
 70
     1
102
RTVSPropertyOp20
 70
     1
102
RTVSPropertyOp21
 70
     1
102
RTVSPropertyOp22
 70
     1
102
RTVSPropertyOp23
 70
     1
102
RTVSPropertyOp24
 70
     1
102
RTVSPropertyOp25
 70
     1
102
RTVSPropertyOp26
 70
     1
102
RTVSPropertyOp27
 70
     1
102
RTVSPropertyOp28
 70
     1
102
RTVSPropertyOp29
 70
     1
102
RTVSPropertyOp30
 70
     1
102
RTVSPropertyOp31
 70
     1
102
RTVSPropertyOp32
 70
     1
  0
XRECORD
  5
91C
102
{ACAD_REACTORS
330
91B
102
}
330
91B
100
AcDbXrecord
280
     1
102
RTVSPropertyOp0
 70
     1
102
RTVSPropertyOp1
 70
     1
102
RTVSPropertyOp2
 70
     1
102
RTVSPropertyOp3
 70
     1
102
RTVSPropertyOp4
 70
     1
102
RTVSPropertyOp5
 70
     1
102
RTVSPropertyOp6
 70
     1
102
RTVSPropertyOp7
 70
     1
102
RTVSPropertyOp8
 70
     1
102
RTVSPropertyOp9
 70
     1
102
RTVSPropertyOp10
 70
     1
102
RTVSPropertyOp11
 70
     1
102
RTVSPropertyOp12
 70
     1
102
RTVSPropertyOp13
 70
     1
102
RTVSPropertyOp14
 70
     1
102
RTVSPropertyOp15
 70
     1
102
RTVSPropertyOp16
 70
     1
102
RTVSPropertyOp17
 70
     1
102
RTVSPropertyOp18
 70
     1
102
RTVSPropertyOp19
 70
     1
102
RTVSPropertyOp20
 70
     1
102
RTVSPropertyOp21
 70
     1
102
RTVSPropertyOp22
 70
     1
102
RTVSPropertyOp23
 70
     1
102
RTVSPropertyOp24
 70
     1
102
RTVSPropertyOp25
 70
     1
102
RTVSPropertyOp26
 70
     1
102
RTVSPropertyOp27
 70
     1
102
RTVSPropertyOp28
 70
     1
102
RTVSPropertyOp29
 70
     1
102
RTVSPropertyOp30
 70
     1
102
RTVSPropertyOp31
 70
     1
102
RTVSPropertyOp32
 70
     1
  0
XRECORD
  5
912
102
{ACAD_REACTORS
330
911
102
}
330
911
100
AcDbXrecord
280
     1
102
RTVSPropertyOp0
 70
     1
102
RTVSPropertyOp1
 70
     1
102
RTVSPropertyOp2
 70
     1
102
RTVSPropertyOp3
 70
     1
102
RTVSPropertyOp4
 70
     1
102
RTVSPropertyOp5
 70
     1
102
RTVSPropertyOp6
 70
     1
102
RTVSPropertyOp7
 70
     1
102
RTVSPropertyOp8
 70
     1
102
RTVSPropertyOp9
 70
     1
102
RTVSPropertyOp10
 70
     1
102
RTVSPropertyOp11
 70
     1
102
RTVSPropertyOp12
 70
     1
102
RTVSPropertyOp13
 70
     1
102
RTVSPropertyOp14
 70
     1
102
RTVSPropertyOp15
 70
     1
102
RTVSPropertyOp16
 70
     1
102
RTVSPropertyOp17
 70
     1
102
RTVSPropertyOp18
 70
     1
102
RTVSPropertyOp19
 70
     1
102
RTVSPropertyOp20
 70
     1
102
RTVSPropertyOp21
 70
     1
102
RTVSPropertyOp22
 70
     1
102
RTVSPropertyOp23
 70
     1
102
RTVSPropertyOp24
 70
     1
102
RTVSPropertyOp25
 70
     1
102
RTVSPropertyOp26
 70
     1
102
RTVSPropertyOp27
 70
     1
102
RTVSPropertyOp28
 70
     1
102
RTVSPropertyOp29
 70
     1
102
RTVSPropertyOp30
 70
     1
102
RTVSPropertyOp31
 70
     1
102
RTVSPropertyOp32
 70
     1
  0
XRECORD
  5
906
102
{ACAD_REACTORS
330
905
102
}
330
905
100
AcDbXrecord
280
     1
102
RTVSPropertyOp0
 70
     1
102
RTVSPropertyOp1
 70
     1
102
RTVSPropertyOp2
 70
     1
102
RTVSPropertyOp3
 70
     1
102
RTVSPropertyOp4
 70
     1
102
RTVSPropertyOp5
 70
     1
102
RTVSPropertyOp6
 70
     1
102
RTVSPropertyOp7
 70
     1
102
RTVSPropertyOp8
 70
     1
102
RTVSPropertyOp9
 70
     1
102
RTVSPropertyOp10
 70
     1
102
RTVSPropertyOp11
 70
     1
102
RTVSPropertyOp12
 70
     1
102
RTVSPropertyOp13
 70
     1
102
RTVSPropertyOp14
 70
     1
102
RTVSPropertyOp15
 70
     1
102
RTVSPropertyOp16
 70
     1
102
RTVSPropertyOp17
 70
     1
102
RTVSPropertyOp18
 70
     1
102
RTVSPropertyOp19
 70
     1
102
RTVSPropertyOp20
 70
     1
102
RTVSPropertyOp21
 70
     1
102
RTVSPropertyOp22
 70
     1
102
RTVSPropertyOp23
 70
     1
102
RTVSPropertyOp24
 70
     1
102
RTVSPropertyOp25
 70
     1
102
RTVSPropertyOp26
 70
     1
102
RTVSPropertyOp27
 70
     1
102
RTVSPropertyOp28
 70
     1
102
RTVSPropertyOp29
 70
     1
102
RTVSPropertyOp30
 70
     1
102
RTVSPropertyOp31
 70
     1
102
RTVSPropertyOp32
 70
     1
  0
XRECORD
  5
91E
102
{ACAD_REACTORS
330
91D
102
}
330
91D
100
AcDbXrecord
280
     1
102
RTVSPropertyOp0
 70
     1
102
RTVSPropertyOp1
 70
     1
102
RTVSPropertyOp2
 70
     1
102
RTVSPropertyOp3
 70
     1
102
RTVSPropertyOp4
 70
     1
102
RTVSPropertyOp5
 70
     1
102
RTVSPropertyOp6
 70
     1
102
RTVSPropertyOp7
 70
     1
102
RTVSPropertyOp8
 70
     1
102
RTVSPropertyOp9
 70
     1
102
RTVSPropertyOp10
 70
     1
102
RTVSPropertyOp11
 70
     1
102
RTVSPropertyOp12
 70
     1
102
RTVSPropertyOp13
 70
     1
102
RTVSPropertyOp14
 70
     1
102
RTVSPropertyOp15
 70
     1
102
RTVSPropertyOp16
 70
     1
102
RTVSPropertyOp17
 70
     1
102
RTVSPropertyOp18
 70
     1
102
RTVSPropertyOp19
 70
     1
102
RTVSPropertyOp20
 70
     1
102
RTVSPropertyOp21
 70
     1
102
RTVSPropertyOp22
 70
     1
102
RTVSPropertyOp23
 70
     1
102
RTVSPropertyOp24
 70
     1
102
RTVSPropertyOp25
 70
     1
102
RTVSPropertyOp26
 70
     1
102
RTVSPropertyOp27
 70
     1
102
RTVSPropertyOp28
 70
     1
102
RTVSPropertyOp29
 70
     1
102
RTVSPropertyOp30
 70
     1
102
RTVSPropertyOp31
 70
     1
102
RTVSPropertyOp32
 70
     1
  0
ENDSEC
  0
EOF
